#TITLE:a totally serious loli song;
#SUBTITLE:(Riako's totally serious d'n'b remix);
#ARTIST:Evava;
#TITLETRANSLIT:;
#SUBTITLETRANSLIT:;
#ARTISTTRANSLIT:;
#GENRE:SERIOVS MVSIC;
#CREDIT:(this simfile, 2021/2022);
#BANNER:;
#BACKGROUND:a totally serious loli song (Riako's totally serious d'n'b remix)-bg.png;
#LYRICSPATH:;
#CDTITLE:;
#MUSIC:a totally serious loli song (Riako's totally serious d'n'b remix).ogg;
#OFFSET:0.000000;
#SAMPLESTART:21.976999;
#SAMPLELENGTH:15.000000;
#LASTBEATHINT:472.000000;
#SELECTABLE:YES;
#DISPLAYBPM:163.000000:172.000000;
#BPMS:0.000000=172.000000
,204.000000=688.000000
,224.000000=163.000000
,287.000000=652.000000
,300.000000=172.000000
;
#STOPS:192.000000=-4.186047,
212.000000=-1.046512,
291.000000=-0.828221
;
#BGCHANGES:;
#KEYSOUNDS:;
#ATTACKS:;

//---------------dance-single - This is why I don't make stream charts----------------
#NOTES:
     dance-single:
     Riakodoadm:
     Challenge:
     18:
     1.246652,1.248329,0.358715,0.280450,1.793576,1338.000000,1283.000000,55.000000,43.000000,0.000000,0.000000,1.246652,1.248329,0.358715,0.280450,1.793576,1338.000000,1283.000000,55.000000,43.000000,0.000000,0.000000:
// measure 0
0000
0000
0000
0000
,  // measure 1
0000
0000
0000
0000
,  // measure 2
0000
0000
0000
0000
,  // measure 3
0000
0000
0000
0000
,  // measure 4
0000
0000
0000
0000
,  // measure 5
0000
0000
0000
0000
,  // measure 6
0000
0000
0000
0000
,  // measure 7
0000
0000
0000
0000
,  // measure 8
1000
0000
0001
0000
1000
0000
0100
0000
1000
0000
0001
0000
1000
0000
0100
1000
,  // measure 9
0001
0000
1000
0000
0001
0000
0100
0000
0001
0000
1000
0000
0001
0000
0100
0001
,  // measure 10
1000
0000
0010
0000
1000
0000
0001
0000
1000
0000
0100
0000
1000
0000
0010
1000
,  // measure 11
0001
0000
0010
0000
0001
0000
1000
0000
0001
0000
0100
0000
0001
0000
0010
0001
,  // measure 12
0100
0100
0010
0010
0001
0001
0010
0010
,  // measure 13
1000
1000
0100
0100
0001
0001
0100
0100
,  // measure 14
1000
0100
1000
0100
0010
0001
0010
0001
0100
0001
0100
0001
1000
0010
1000
0010
,  // measure 15
0100
0001
0100
0001
0010
0001
0010
0001
1000
0100
1000
0100
0020
0000
0000
0000
,  // measure 16
0031
0100
0010
1000
0010
0100
0001
1000
0100
1000
0001
0100
0010
0100
0001
1000
,  // measure 17
0100
0010
0001
1000
0010
1000
0001
0010
0100
1000
0100
1000
0010
0100
0001
1000
,  // measure 18
0100
0010
0100
1000
0001
0010
0100
0010
0001
1000
0100
0010
0100
1000
0010
0100
,  // measure 19
0010
1000
0001
0010
0100
1000
0100
0010
0001
1000
0010
0100
0001
0100
0010
1000
,  // measure 20
0001
0010
0001
1000
0100
1000
0010
0100
0001
1000
0100
1000
0001
0010
0001
1000
,  // measure 21
0010
0100
0001
1000
0010
0100
0010
1000
0001
0010
0100
1000
0001
0010
0100
0010
,  // measure 22
0001
0010
0001
1000
0100
1000
0001
1000
0010
0100
0001
0010
0100
1000
0010
0100
,  // measure 23
0010
1000
0001
0010
0100
1000
0010
0100
0001
0010
0001
0100
0010
1000
0100
1000
,  // measure 24
0001
0010
0100
1000
0100
0010
0001
1000
0010
1000
0001
0010
0100
0010
0001
1000
,  // measure 25
0010
0100
0001
1000
0100
1000
0001
0100
0010
1000
0010
1000
0100
0010
0001
1000
,  // measure 26
0010
0100
0010
1000
0001
0100
0010
0100
0001
1000
0010
0100
0010
1000
0100
0010
,  // measure 27
0100
1000
0001
0100
0010
1000
0010
0100
0001
1000
0100
0010
0001
0010
0100
1000
,  // measure 28
0001
0100
0001
1000
0010
1000
0100
0010
0001
1000
0010
1000
0001
0100
0001
1000
,  // measure 29
0100
0010
0001
1000
0100
0010
0100
1000
0001
0100
0010
1000
0001
0100
0010
0100
,  // measure 30
0001
0100
0001
1000
0010
1000
0001
1000
0100
0010
0001
0100
0010
1000
0100
0010
,  // measure 31
0001
1000
0001
1000
0001
1000
0001
1000
0001
1000
0001
1000
0001
1000
0001
1000
,  // measure 32
0010
1000
0001
1000
0010
1000
0001
1000
0100
1000
0001
1000
0100
1000
0001
1000
,  // measure 33
0001
0010
0001
0100
0001
0010
0001
0100
0010
1000
0100
1000
0010
1000
0100
1000
,  // measure 34
0001
0010
0001
1000
0001
0010
0001
1000
0001
0100
0001
1000
0001
0100
0001
1000
,  // measure 35
0100
0010
0001
0100
0001
0010
0001
0100
0001
1000
0010
1000
0100
1000
0010
1000
,  // measure 36
0100
0010
0001
0010
0100
0010
0001
1000
0010
0100
0010
1000
0010
0100
0010
1000
,  // measure 37
0001
0010
0100
1000
0001
0010
0100
1000
0100
0010
0001
1000
0010
0100
0001
0100
,  // measure 38
0010
0100
0001
0100
0010
0100
0001
0010
0100
1000
0100
0010
0100
1000
0100
0010
,  // measure 39
0001
0010
0100
1000
0100
0010
0001
0100
0010
1000
0100
0010
0001
0100
0001
0010
,  // measure 40
0100
1000
0001
1000
0100
1000
0001
1000
0010
1000
0001
1000
0010
1000
0001
1000
,  // measure 41
0001
0100
0001
0010
0001
0100
0001
0010
0100
1000
0010
1000
0100
1000
0010
1000
,  // measure 42
0001
0100
0001
1000
0001
0100
0001
1000
0001
0010
0001
1000
0001
0010
0001
1000
,  // measure 43
0010
0100
0001
0010
0001
0100
0001
0010
0001
1000
0100
1000
0010
1000
0100
1000
,  // measure 44
0010
0100
0001
0100
0010
0100
0001
1000
0100
0010
0100
1000
0100
0010
0100
1000
,  // measure 45
0001
0100
0010
1000
0001
0100
0010
1000
0010
0100
0001
1000
0100
0010
0001
0010
,  // measure 46
0100
0010
0001
0010
0100
0010
0001
0100
0010
1000
0010
0100
0010
1000
0010
0100
,  // measure 47
0001
1000
0001
1000
0001
1000
0001
1000
0001
1000
0001
1000
0001
1000
0001
1000
,  // measure 48
1001
0000
0000
0000
,  // measure 49
1001
0000
0000
0000
,  // measure 50
1001
0000
0000
0000
,  // measure 51
FFFF
FFFF
FFFF
FFFF
,  // measure 52
FFFF
FFFF
FFFF
FFFF
,  // measure 53
F2FF
0300
F00F
0000
FFFF
0000
FFFF
0000
,  // measure 54
FFFF
FFFF
FFFF
FFFF
,  // measure 55
FFFF
0000
0000
0000
,  // measure 56
0200
0300
0010
0000
0200
0300
0010
0000
,  // measure 57
0200
0300
0010
0000
0200
0300
0010
0000
,  // measure 58
0200
0300
0010
0000
0200
0300
0010
0000
,  // measure 59
0200
0300
0010
0000
0200
0300
2002
3003
,  // measure 60
1100
0001
1010
0001
1100
0001
1010
0001
,  // measure 61
1100
0001
1010
0001
1100
0011
0110
1001
,  // measure 62
0101
1000
0011
1000
0101
1000
0011
1000
,  // measure 63
0101
0000
0000
1000
0000
0000
0011
0000
0000
1000
0000
0000
0101
0000
1000
0000
0100
0000
1010
0000
0000
1001
0000
0000
,  // measure 64
0011
1000
0101
1000
0011
1000
0101
1000
,  // measure 65
0011
1000
0101
1000
0011
1100
0110
1001
,  // measure 66
1010
0001
1100
0001
1010
0001
1100
0001
,  // measure 67
1010
0001
1100
0001
1010
0101
0110
1001
,  // measure 68
2200
3300
0202
0303
0022
0033
2020
3030
,  // measure 69
0220
0330
2002
3003
0220
0330
2002
3003
,  // measure 70
0202
0303
2200
3300
2020
3030
0022
0033
,  // measure 71
2002
3003
0220
0330
2002
3003
FFFF
0000
,  // measure 72
FFFF
0000
0000
0000
FFFF
0000
0000
0000
FFFF
0000
0000
0000
FFF2
0003
2000
3000
,  // measure 73
FFF2
0003
0200
0300
FFF2
0003
2000
3000
FFFF
0000
0000
0000
FFFF
0000
0000
0000
,  // measure 74
FFFF
0000
0000
0000
,  // measure 75
0001
0000
1000
0000
0001
0000
0100
0000
0001
0000
1000
0000
0001
0000
0100
0001
,  // measure 76
1000
0000
0001
0000
1000
0000
0100
0000
1000
0000
0001
0000
1000
0000
0100
1000
,  // measure 77
0001
0000
0010
0000
0001
0000
1000
0000
0001
0000
0100
0000
0001
0000
0010
0001
,  // measure 78
1000
0000
0010
0000
1000
0000
0001
0000
1000
0000
0100
0000
1000
0000
0010
1000
,  // measure 79
0100
0100
0010
0010
1000
1000
0010
0010
,  // measure 80
0001
0001
0100
0100
1000
1000
0100
0100
,  // measure 81
0001
0100
0001
0100
0010
1000
0010
1000
0100
1000
0100
1000
0001
0010
0001
0010
,  // measure 82
0100
1000
0100
1000
0010
1000
0010
1000
0001
0100
0001
0100
0020
0000
0000
0000
,  // measure 83
1030
0100
0010
0001
0010
0100
1000
0001
0100
0001
1000
0100
0010
0100
1000
0001
,  // measure 84
0100
0010
1000
0001
0010
0001
1000
0010
0100
0001
0100
0001
0010
0100
1000
0001
,  // measure 85
0100
0010
0100
0001
1000
0010
0100
0010
1000
0001
0100
0010
0100
0001
0010
0100
,  // measure 86
0010
0001
1000
0010
0100
0001
0100
0010
1000
0001
0010
0100
1000
0100
0010
0001
,  // measure 87
1000
0010
1000
0001
0100
0001
0010
0100
1000
0001
0100
0001
1000
0010
1000
0001
,  // measure 88
0010
0100
1000
0001
0010
0100
0010
0001
1000
0010
0100
0001
1000
0010
0100
0010
,  // measure 89
1000
0010
1000
0001
0100
0001
1000
0001
0010
0100
1000
0010
0100
0001
0010
0100
,  // measure 90
0010
0001
1000
0010
0100
0001
0010
0100
1000
0010
1000
0100
0010
0001
0100
0001
,  // measure 91
1000
0010
0100
0001
0100
0010
1000
0001
0010
0001
1000
0010
0100
0010
1000
0001
,  // measure 92
0010
0100
1000
0001
0100
0001
1000
0100
0010
0001
0010
0001
0100
0010
1000
0001
,  // measure 93
0010
0100
0010
0001
1000
0100
0010
0100
1000
0001
0010
0100
0010
0001
0100
0010
,  // measure 94
0100
0001
1000
0100
0010
0001
0010
0100
1000
0001
0100
0010
1000
0010
0100
0001
,  // measure 95
1000
0100
1000
0001
0010
0001
0100
0010
1000
0001
0010
0001
1000
0100
1000
0001
,  // measure 96
0100
0010
1000
0001
0100
0010
0100
0001
1000
0100
0010
0001
1000
0100
0010
0100
,  // measure 97
1000
0100
1000
0001
0010
0001
1000
0001
0100
0010
1000
0100
0010
0001
0100
0010
,  // measure 98
1000
0001
1000
0001
1000
0001
1000
0001
1000
0001
1000
0001
1000
0001
1000
0001
,  // measure 99
0010
0001
1000
0001
0010
0001
1000
0001
0100
0001
1000
0001
0100
0001
1000
0001
,  // measure 100
1000
0010
1000
0100
1000
0010
1000
0100
0010
0001
0100
0001
0010
0001
0100
0001
,  // measure 101
1000
0010
1000
0001
1000
0010
1000
0001
1000
0100
1000
0001
1000
0100
1000
0001
,  // measure 102
0100
0010
1000
0100
1000
0010
1000
0100
1000
0001
0010
0001
0100
0001
0010
0001
,  // measure 103
0100
0010
1000
0010
0100
0010
1000
0001
0010
0100
0010
0001
0010
0100
0010
0001
,  // measure 104
1000
0010
0100
0001
1000
0010
0100
0001
0100
0010
1000
0001
0010
0100
1000
0100
,  // measure 105
0010
0100
1000
0100
0010
0100
1000
0010
0100
0001
0100
0010
0100
0001
0100
0010
,  // measure 106
1000
0010
0100
0001
0100
0010
1000
0100
0010
0001
0100
0010
1000
0100
1000
0010
,  // measure 107
0100
0001
1000
0001
0100
0001
1000
0001
0010
0001
1000
0001
0010
0001
1000
0001
,  // measure 108
1000
0100
1000
0010
1000
0100
1000
0010
0100
0001
0010
0001
0100
0001
0010
0001
,  // measure 109
1000
0100
1000
0001
1000
0100
1000
0001
1000
0010
1000
0001
1000
0010
1000
0001
,  // measure 110
0010
0100
1000
0010
1000
0100
1000
0010
1000
0001
0100
0001
0010
0001
0100
0001
,  // measure 111
0010
0100
1000
0100
0010
0100
1000
0001
0100
0010
0100
0001
0100
0010
0100
0001
,  // measure 112
1000
0100
0010
0001
1000
0100
0010
0001
0010
0100
1000
0001
0100
0010
1000
0010
,  // measure 113
0100
0010
1000
0010
0100
0010
1000
0100
0010
0001
0010
0100
0010
0001
0010
0100
,  // measure 114
1000
0001
1000
0001
1000
0001
1000
0001
1000
0001
1000
0001
1000
0001
1000
0001
,  // measure 115
0020
0000
0000
0000
,  // measure 116
0030
0000
0000
0000
;

//---------------dance-single - ----------------
#NOTES:
     dance-single:
     Riakodoadm:
     Hard:
     13:
     0.666185,0.945704,0.306538,0.782651,0.130442,715.000000,668.000000,47.000000,120.000000,0.000000,0.000000,0.666185,0.945704,0.306538,0.782651,0.130442,715.000000,668.000000,47.000000,120.000000,0.000000,0.000000:
// measure 0
0000
0000
0000
0000
,  // measure 1
0000
0000
0000
0000
,  // measure 2
0000
0000
0000
0000
,  // measure 3
0000
0000
0000
0000
,  // measure 4
0000
0000
0000
0000
1000
0100
0010
0000
0000
0000
0000
0000
0001
0000
0000
0010
0000
0000
0000
0000
0000
0100
0000
0000
,  // measure 5
0010
0010
0000
0100
0000
1000
0000
0001
,  // measure 6
0100
0000
0100
0000
0100
0000
0001
1000
,  // measure 7
0010
0100
0010
1000
,  // measure 8
0100
0000
0010
0000
0100
0010
0000
0100
,  // measure 9
1000
0010
0000
0100
0000
0001
0000
0100
,  // measure 10
0010
0000
0010
0000
0010
0000
1000
0001
,  // measure 11
0010
1100
0010
0101
,  // measure 12
0001
0100
0001
0100
0010
1000
0010
1000
,  // measure 13
0100
1000
0100
1000
0001
0010
0001
0010
,  // measure 14
0100
0001
0100
1000
0010
0001
0010
1000
,  // measure 15
0001
0010
0001
0010
0100
1000
0100
1000
0001
0010
0100
1000
0002
0000
0000
0000
,  // measure 16
1003
0020
0000
0130
1000
0100
1000
0000
,  // measure 17
0100
0002
0000
0013
0100
0010
0100
0000
,  // measure 18
0001
0200
0000
1300
0010
1000
0010
0000
,  // measure 19
0001
0020
0000
1030
0001
0010
0001
0000
,  // measure 20
1000
0020
0000
0130
0010
1000
0100
0000
,  // measure 21
1000
0020
0000
0130
0010
1000
0001
0000
,  // measure 22
0010
0200
0000
0301
0100
1000
0001
0000
,  // measure 23
0100
2000
0000
3100
0001
0010
0100
1000
,  // measure 24
0001
0020
0000
0130
0001
0100
0001
0000
,  // measure 25
0100
2000
0000
3010
0100
0010
0100
0000
,  // measure 26
1000
0200
0000
0301
0010
0001
0010
0000
,  // measure 27
1000
0020
0000
0031
1000
0010
1000
0000
,  // measure 28
0001
0020
0000
0130
0010
0001
0100
0000
,  // measure 29
0001
0020
0000
0130
0010
0001
1000
0000
,  // measure 30
0010
0200
0000
1300
0100
0001
1000
0000
,  // measure 31
0010
1000
0010
1000
0001
0010
0001
0010
0100
1000
0100
1000
0001
0100
0001
0100
,  // measure 32
0001
0002
0003
0022
0033
0010
0100
1000
,  // measure 33
0001
0001
0100
0020
0000
0130
0001
1000
,  // measure 34
0100
0001
0100
2000
0000
3010
0100
0001
,  // measure 35
0020
0000
0130
0010
0001
0100
0010
1000
,  // measure 36
0010
0200
0300
0202
0303
0001
0100
0010
,  // measure 37
0100
1000
0100
0020
0000
1030
0100
0010
,  // measure 38
0001
1000
0010
0200
0000
1300
0100
0001
,  // measure 39
2000
0000
3010
1000
0001
0010
0100
1000
,  // measure 40
0001
2000
3000
2020
3030
0010
0100
0001
,  // measure 41
1000
1000
0100
0020
0000
0130
1000
0001
,  // measure 42
0100
1000
0100
0002
0000
0013
0100
1000
,  // measure 43
0020
0000
0130
0010
1000
0100
0010
0001
,  // measure 44
0010
0200
0300
2200
3300
1000
0100
0010
,  // measure 45
0100
0001
0100
0020
0000
0031
0100
0010
,  // measure 46
1000
0001
0010
0200
0000
0301
0100
1000
,  // measure 47
0002
0000
0013
0001
1000
0010
0100
0001
,  // measure 48
1001
0000
0000
0000
,  // measure 49
1001
0000
0000
0000
,  // measure 50
1001
0000
0000
0000
,  // measure 51
FFFF
FFFF
FFFF
FFFF
,  // measure 52
FFFF
FFFF
FFFF
FFFF
,  // measure 53
F2FF
0300
F00F
0000
FFFF
0000
FFFF
0000
,  // measure 54
FFFF
FFFF
FFFF
FFFF
,  // measure 55
FFFF
0000
0000
0000
,  // measure 56
0200
0300
0010
0000
0200
0300
0010
0000
,  // measure 57
0200
0300
0010
0000
0200
0300
0010
0000
,  // measure 58
0200
0300
0010
0000
0200
0300
0010
0000
,  // measure 59
0200
0300
0010
0000
0200
0300
2002
3003
,  // measure 60
1000
0100
1000
0010
1000
0100
1000
0010
,  // measure 61
1000
0100
1000
0010
0100
0100
0100
0100
,  // measure 62
0001
0010
0001
0100
0001
0010
0001
0100
,  // measure 63
0001
0000
0000
0010
0000
0000
0001
0000
0000
0100
0000
0000
0010
0000
1000
0000
0001
0000
0010
0000
0000
0100
0000
0000
,  // measure 64
1000
0010
0001
0010
1000
0010
0001
0010
,  // measure 65
1000
0010
0001
0010
0100
0100
0100
0100
,  // measure 66
0001
0010
1000
0010
0001
0010
1000
0010
,  // measure 67
0001
0010
1000
0010
0001
0001
1000
1000
,  // measure 68
2200
3300
0202
0303
0022
0033
2020
3030
,  // measure 69
0220
0330
2002
3003
0220
0330
2002
3003
,  // measure 70
0202
0303
2200
3300
2020
3030
0022
0033
,  // measure 71
2002
3003
0220
0330
2002
3003
FFFF
0000
,  // measure 72
FFFF
0000
0000
0000
FFFF
0000
0000
0000
FFFF
0000
0000
0000
FFF2
0003
0000
0000
,  // measure 73
FFF2
0003
0000
0000
2FFF
3000
2000
3000
FFFF
0000
0000
0000
FFFF
0000
0000
0000
,  // measure 74
FFFF
0000
0000
0000
,  // measure 75
0001
0000
0001
0000
1000
1000
0000
0100
,  // measure 76
0010
0010
0000
0100
0000
1000
0000
0001
,  // measure 77
0100
0000
0101
0000
1100
0000
0100
0001
,  // measure 78
0010
0011
1010
0011
,  // measure 79
1000
0100
1000
0100
0010
0001
0010
0001
,  // measure 80
0100
0001
0100
0001
1000
0010
1000
0010
,  // measure 81
0100
1000
0100
0001
0010
1000
0010
0001
,  // measure 82
1000
0010
1000
0010
0100
0001
0100
0001
1000
0010
0100
0001
2000
0000
0000
0000
,  // measure 83
3001
0200
0000
0301
1000
0100
0110
0000
,  // measure 84
0010
0002
0000
0013
0100
1000
1001
0000
,  // measure 85
0001
0200
0000
0310
0001
0010
1010
0000
,  // measure 86
1000
0200
0000
0310
0001
1000
1100
0000
,  // measure 87
0100
0020
0000
1030
0010
0001
1001
0000
,  // measure 88
1000
0020
0000
0031
0010
0100
0101
0000
,  // measure 89
0001
2000
0000
3010
1000
0100
0110
0000
,  // measure 90
0010
0200
0000
0301
0100
1000
1001
0001
,  // measure 91
1000
0200
0000
1300
0001
0100
0110
0000
,  // measure 92
0010
2000
0000
3010
0100
0001
1001
0000
,  // measure 93
1000
0200
0000
0310
1000
0010
0011
0000
,  // measure 94
0001
0200
0000
0310
1000
0001
0101
0000
,  // measure 95
0100
0020
0000
0031
0010
1000
1001
0000
,  // measure 96
0001
0020
0000
1030
0010
0100
1100
0000
,  // measure 97
1000
0002
0000
0013
0001
0100
0110
0000
,  // measure 98
0010
1000
0010
1000
0001
0100
0001
0100
0010
0100
0010
0100
0001
1000
0001
1000
,  // measure 99
0100
0020
0030
0022
0033
0001
0010
1000
,  // measure 100
0010
0001
1000
0200
0000
0301
0100
1000
,  // measure 101
0001
0010
0100
2000
0000
3010
0100
0001
,  // measure 102
0020
0000
1030
0010
0001
1000
0010
0100
,  // measure 103
0001
0200
0300
0220
0330
0010
0001
0010
,  // measure 104
0100
0001
0010
0200
0000
0301
0100
0010
,  // measure 105
0100
1000
0001
0200
0000
0310
1000
0001
,  // measure 106
0020
0000
1030
0010
0001
0100
0110
0010
,  // measure 107
0100
0020
0030
2020
3030
1000
0010
0001
,  // measure 108
0010
1000
0001
0200
0000
1300
0100
0001
,  // measure 109
1000
0010
0100
0002
0000
0013
0100
1000
,  // measure 110
0020
0000
0031
0010
1000
0001
0010
0100
,  // measure 111
1000
0200
0300
0220
0330
0010
1000
0010
,  // measure 112
0100
1000
0010
0200
0000
1300
0100
0010
,  // measure 113
0100
0001
1000
0200
0000
0310
0001
1000
,  // measure 114
0010
1000
0010
1000
0001
0100
0001
0100
0010
0100
0010
0100
0001
1000
0001
1000
,  // measure 115
0200
0000
0000
0000
,  // measure 116
0300
0000
0000
0000
;

//---------------dance-single - ----------------
#NOTES:
     dance-single:
     Riakodoadm:
     Beginner:
     3:
     0.201253,0.337518,0.000000,0.026088,0.000000,216.000000,216.000000,0.000000,4.000000,0.000000,0.000000,0.201253,0.337518,0.000000,0.026088,0.000000,216.000000,216.000000,0.000000,4.000000,0.000000,0.000000:
// measure 0
0000
0000
0000
0000
,  // measure 1
0000
0000
0000
0000
,  // measure 2
0000
0000
0000
0000
,  // measure 3
0000
0000
0000
0000
,  // measure 4
0000
0000
0000
0000
,  // measure 5
0000
0000
0000
0000
,  // measure 6
0000
0000
0010
0000
,  // measure 7
0010
0000
0001
0000
,  // measure 8
0001
0000
1000
0000
,  // measure 9
1000
0000
0100
0000
,  // measure 10
0010
0000
0010
0000
,  // measure 11
0000
0000
0010
0000
,  // measure 12
0001
0000
0001
0000
,  // measure 13
1000
0000
1000
0000
,  // measure 14
0001
0001
1000
1000
,  // measure 15
0001
1000
0001
1000
,  // measure 16
0000
0001
0000
0001
,  // measure 17
0000
1000
0000
1000
,  // measure 18
0000
0100
0000
0100
,  // measure 19
0000
1000
0000
1000
,  // measure 20
0000
0001
0000
0001
,  // measure 21
0000
1000
0000
1000
,  // measure 22
0000
0010
0000
0010
,  // measure 23
0000
1000
0000
0001
,  // measure 24
0000
1000
0000
1000
,  // measure 25
0000
0001
0000
0001
,  // measure 26
0000
0100
0000
0100
,  // measure 27
0000
0001
0000
0001
,  // measure 28
0000
1000
0000
1000
,  // measure 29
0000
0001
0000
0001
,  // measure 30
0010
0010
0010
0010
,  // measure 31
0100
0100
0100
0100
,  // measure 32
0000
1000
0000
0100
,  // measure 33
0000
1000
0000
0100
,  // measure 34
0000
1000
0000
1000
,  // measure 35
0000
0001
0000
0001
,  // measure 36
0000
0100
0000
0001
,  // measure 37
0000
0100
0000
0001
,  // measure 38
0000
1000
0000
1000
,  // measure 39
0000
0001
0000
0001
,  // measure 40
0000
1000
0000
0010
,  // measure 41
0000
1000
0000
0010
,  // measure 42
0000
1000
0000
1000
,  // measure 43
0000
0001
0000
0001
,  // measure 44
0000
0010
0000
0001
,  // measure 45
0000
0010
0000
0001
,  // measure 46
0000
1000
0000
1000
,  // measure 47
0000
0001
0000
0001
,  // measure 48
0000
0000
0000
0000
,  // measure 49
0000
0000
0000
0000
,  // measure 50
0000
0000
0000
0000
,  // measure 51
0000
0000
0000
0000
,  // measure 52
0000
0000
0000
0000
,  // measure 53
0000
0000
0100
0000
,  // measure 54
0000
0000
0000
0000
,  // measure 55
0000
0000
0000
0000
,  // measure 56
0000
0000
0100
0000
,  // measure 57
0000
0000
0100
0000
,  // measure 58
0000
0000
0100
0000
,  // measure 59
0010
0010
0010
0000
,  // measure 60
1000
0000
0010
0000
,  // measure 61
1000
0000
0010
1000
,  // measure 62
0001
0000
0010
0000
,  // measure 63
0001
0000
0010
0001
,  // measure 64
1000
0000
0010
0000
,  // measure 65
1000
0000
0010
1000
,  // measure 66
0001
0000
0010
0000
,  // measure 67
0001
0000
0010
0001
,  // measure 68
2000
3000
2000
3000
,  // measure 69
0010
0010
0010
0000
,  // measure 70
0002
0003
0002
0003
,  // measure 71
0010
0010
0010
0000
,  // measure 72
0000
0000
0000
0000
,  // measure 73
0000
0100
0000
1000
,  // measure 74
0000
0000
0000
0000
,  // measure 75
0000
0000
0100
0000
,  // measure 76
1000
0000
0000
0000
,  // measure 77
0001
0000
0100
0000
,  // measure 78
0001
0000
0000
0000
,  // measure 79
1000
0000
0010
0000
,  // measure 80
1000
0000
0001
0000
,  // measure 81
0010
0010
0010
0010
,  // measure 82
0100
0100
0100
0100
,  // measure 83
0000
1000
0000
0100
,  // measure 84
0000
0010
0000
0001
,  // measure 85
0000
1000
0000
0100
,  // measure 86
0000
1000
0000
1000
,  // measure 87
0000
0001
0000
0100
,  // measure 88
0000
0010
0000
1000
,  // measure 89
0000
0001
0000
0100
,  // measure 90
0000
0001
0000
0001
,  // measure 91
0000
1000
0000
0010
,  // measure 92
0000
0100
0000
0001
,  // measure 93
0000
1000
0000
0010
,  // measure 94
0000
1000
0000
1000
,  // measure 95
0000
0001
0000
0010
,  // measure 96
0000
0100
0000
1000
,  // measure 97
0100
0100
0100
0100
,  // measure 98
0010
0010
0010
0010
,  // measure 99
0000
0001
0000
0100
,  // measure 100
0000
0001
0000
0001
,  // measure 101
0000
1000
0000
0010
,  // measure 102
0000
1000
0000
1000
,  // measure 103
0000
0001
0000
0010
,  // measure 104
0000
0100
0000
0100
,  // measure 105
0000
1000
0000
0010
,  // measure 106
0000
0100
0000
0100
,  // measure 107
0000
0001
0000
0010
,  // measure 108
0000
0001
0000
0001
,  // measure 109
0000
1000
0000
0100
,  // measure 110
0000
1000
0000
1000
,  // measure 111
0000
0001
0000
0100
,  // measure 112
0000
0010
0000
0010
,  // measure 113
1000
1000
0001
0001
,  // measure 114
1000
0001
1000
0001
,  // measure 115
1000
0000
0000
0000
;

//---------------dance-single - ----------------
#NOTES:
     dance-single:
     Riakodoadm:
     Easy:
     6:
     0.348466,0.605250,0.384804,0.182619,0.000000,374.000000,315.000000,59.000000,28.000000,0.000000,0.000000,0.348466,0.605250,0.384804,0.182619,0.000000,374.000000,315.000000,59.000000,28.000000,0.000000,0.000000:
// measure 0
0000
0000
0000
0000
,  // measure 1
0000
0000
0000
0000
,  // measure 2
0000
0000
0000
0000
,  // measure 3
0000
0000
0000
0000
,  // measure 4
0000
0000
0000
0000
,  // measure 5
0020
0000
0000
0000
,  // measure 6
0000
0000
0000
0000
,  // measure 7
0000
0000
0000
0030
,  // measure 8
1000
0000
0001
0000
,  // measure 9
1000
0000
0100
0000
,  // measure 10
1000
1000
1000
0000
,  // measure 11
0010
0010
0010
0000
,  // measure 12
0001
0000
1000
0000
,  // measure 13
0001
0000
0100
0000
,  // measure 14
0001
0001
0001
0001
,  // measure 15
0010
0010
0010
0110
,  // measure 16
2002
0000
0000
3003
,  // measure 17
1000
0100
0001
0100
,  // measure 18
1000
0100
0001
0100
,  // measure 19
0220
0000
0330
0000
,  // measure 20
0001
1000
0001
0000
,  // measure 21
1000
0001
1000
0000
,  // measure 22
0001
0100
1000
0010
,  // measure 23
0001
0000
1001
0000
,  // measure 24
0220
0000
0000
0330
,  // measure 25
0000
0000
0110
0000
,  // measure 26
0001
0010
1000
0010
,  // measure 27
0001
1000
1001
0000
,  // measure 28
0010
0010
0100
0100
,  // measure 29
0020
0100
0130
0000
,  // measure 30
1000
0001
1000
0001
,  // measure 31
0010
0100
0010
0100
,  // measure 32
0010
0000
0000
0010
0000
0000
1001
0000
,  // measure 33
0000
0100
0010
0000
,  // measure 34
1001
0000
0000
0110
0000
0000
1001
0000
,  // measure 35
0000
0010
0100
0000
,  // measure 36
1000
1000
0001
0001
,  // measure 37
0100
0010
0100
0001
,  // measure 38
1000
0100
0010
0100
,  // measure 39
1000
0001
0100
0010
,  // measure 40
0010
0000
0000
0010
0000
0000
1001
0000
,  // measure 41
0000
0100
0010
0000
,  // measure 42
1001
0000
0000
0110
0000
0000
1001
0000
,  // measure 43
0000
0010
0100
0000
,  // measure 44
0001
0001
1000
1000
,  // measure 45
0100
0010
0100
1000
,  // measure 46
0001
0100
0010
0100
,  // measure 47
0001
1000
0100
0010
,  // measure 48
0000
0000
0000
0000
,  // measure 49
0000
0000
0000
0000
,  // measure 50
0000
0000
0000
0000
,  // measure 51
0000
0000
0000
0000
,  // measure 52
0000
0000
0000
0000
,  // measure 53
0200
0300
0010
0000
0200
0300
0010
0000
,  // measure 54
0200
0300
0010
0000
0000
0000
0000
0000
,  // measure 55
0000
0000
0000
0000
,  // measure 56
0200
0300
0010
0000
0200
0300
0010
0000
,  // measure 57
0200
0300
0010
0000
0200
0300
0010
0000
,  // measure 58
0200
0300
0010
0000
0200
0300
0010
0000
,  // measure 59
0200
0300
0010
0000
0200
0300
2002
3003
,  // measure 60
1001
1001
0110
0110
,  // measure 61
1001
1001
0010
0010
,  // measure 62
0110
0110
1001
1001
,  // measure 63
0110
0110
0100
0100
,  // measure 64
1001
1001
0110
0110
,  // measure 65
1001
1001
0010
0010
,  // measure 66
0110
0110
1001
1001
,  // measure 67
0110
0110
0100
0100
,  // measure 68
0001
0001
0100
0100
,  // measure 69
1000
1000
0010
0010
,  // measure 70
0001
0100
1000
0010
,  // measure 71
0110
1001
0220
0330
,  // measure 72
0000
0000
0000
0001
,  // measure 73
0000
1000
0000
0001
,  // measure 74
0000
0000
0000
0000
,  // measure 75
0001
0000
1000
0000
,  // measure 76
0001
0000
0100
0000
,  // measure 77
0001
1000
0001
1000
,  // measure 78
0010
0100
0010
0000
,  // measure 79
1000
0000
0001
0000
,  // measure 80
1000
0000
0100
0000
,  // measure 81
1000
0001
1000
0001
,  // measure 82
0010
0100
0010
0110
,  // measure 83
2002
0000
0000
3003
,  // measure 84
0001
0100
1000
0100
,  // measure 85
0001
0100
1000
0100
,  // measure 86
0220
0000
0330
0000
,  // measure 87
1000
0001
1000
0000
,  // measure 88
0001
1000
0001
0000
,  // measure 89
1000
0100
0001
0010
,  // measure 90
1000
0000
1001
0000
,  // measure 91
0220
0000
0000
0330
,  // measure 92
0000
0000
0110
0000
,  // measure 93
1000
0010
0001
0010
,  // measure 94
1000
0001
1001
0000
,  // measure 95
0010
0010
0100
0100
,  // measure 96
0010
0100
0100
0010
,  // measure 97
0001
1000
0001
1000
,  // measure 98
0010
0100
0010
0100
,  // measure 99
0010
0000
0000
0100
0000
0000
1001
0000
,  // measure 100
0001
0100
1000
0100
,  // measure 101
0110
0000
0000
1001
0000
0000
0110
0000
,  // measure 102
0001
0010
1000
0100
,  // measure 103
0001
0001
1000
1000
,  // measure 104
0100
0001
0100
1000
,  // measure 105
0001
0100
1000
0001
,  // measure 106
0010
1000
0100
0010
,  // measure 107
0010
0000
0000
0100
0000
0000
1001
0000
,  // measure 108
1000
0100
0001
0100
,  // measure 109
0110
0000
0000
1001
0000
0000
0110
0000
,  // measure 110
1000
0010
0001
0100
,  // measure 111
1000
1000
0001
0001
,  // measure 112
0100
1000
0100
0001
,  // measure 113
1000
0100
0001
1000
,  // measure 114
0010
0001
0100
0010
,  // measure 115
2002
0000
0000
0000
,  // measure 116
3003
0000
0000
0000
;
