#TITLE:The Devil Plays Dance Games;
#SUBTITLE:(CHAOS_CUT Remix);
#ARTIST:dbk2;
#TITLETRANSLIT:;
#SUBTITLETRANSLIT:;
#ARTISTTRANSLIT:;
#GENRE:GABBER;
#CREDIT:(this simfile, 2021);
#BANNER:The Devil Plays Dance Games (CHAOS_CUT Remix).png;
#BACKGROUND:The Devil Plays Dance Games (CHAOS_CUT Remix)-bg.png;
#LYRICSPATH:;
#CDTITLE:;
#MUSIC:The Devil Plays Dance Games (CHAOS_CUT Remix).ogg;
#OFFSET:0.000000;
#SAMPLESTART:32.941002;
#SAMPLELENGTH:15.000000;
#SELECTABLE:YES;
#DISPLAYBPM:*;
#BPMS:0.000000=170.000000
,40.000000=255.000000
,664.000000=170.000000
,704.000000=175.630005
,720.000000=182.990005
,736.000000=190.350006
,752.000000=198.759995
,768.000000=209.279999
,776.000000=219.800003
,784.000000=230.309998
,792.000000=238.720001
,800.000000=247.139999
,808.000000=255.000000
,816.000000=260.000000
;
#STOPS:
;
#BGCHANGES:;
#KEYSOUNDS:;
#ATTACKS:;

//---------------dance-single - Oh no----------------
#NOTES:
     dance-single:
     Riakodoadm:
     Challenge:
     20:
     1.511979,1.646070,0.064991,0.006499,2.263326,3257.000000,3237.000000,20.000000,2.000000,0.000000,0.000000,1.511979,1.646070,0.064991,0.006499,2.263326,3257.000000,3237.000000,20.000000,2.000000,0.000000,0.000000:
// measure 0
0000
0000
0000
0000
,  // measure 1
0000
0000
0000
0000
,  // measure 2
0000
0000
0000
0000
,  // measure 3
0000
0000
0000
0000
,  // measure 4
0001
0000
0000
1000
0100
1000
0100
0000
0000
0001
0100
0001
,  // measure 5
0100
0000
0000
0010
0001
1000
0010
0100
0001
1000
0010
0100
,  // measure 6
0001
0000
0000
1000
0010
1000
0010
0000
0000
0001
0010
0001
,  // measure 7
0010
0000
0000
0100
0001
1000
0100
0010
0001
1000
0100
0010
,  // measure 8
0000
0000
0000
0000
,  // measure 9
0000
0000
0000
0000
,  // measure 10
0001
0100
0001
1000
0010
1000
0001
0010
,  // measure 11
0100
1000
0001
1000
0010
0100
0001
1000
,  // measure 12
0100
1000
0010
0100
0001
0010
0100
0010
,  // measure 13
0001
1000
0100
0010
0001
1000
0010
0100
,  // measure 14
0001
0100
0001
1000
0010
1000
0001
0010
,  // measure 15
0100
1000
0001
1000
0010
0100
0001
1000
,  // measure 16
0100
1000
0010
0100
0001
0010
0100
0010
,  // measure 17
0001
1000
0100
0010
0001
1000
0010
0100
,  // measure 18
0001
0000
0100
0000
0001
0000
1000
0000
0010
1000
0001
0000
0010
0000
0100
0000
,  // measure 19
1000
0000
0100
0000
1000
0000
0001
0000
0010
0001
1000
0000
0010
0000
0100
0000
,  // measure 20
0001
1000
0010
0100
0001
0010
0100
1000
,  // measure 21
0010
0000
0010
0000
0010
0000
0100
0000
0100
0000
0100
0000
,  // measure 22
1001
0000
0001
0100
0101
0000
1000
0100
,  // measure 23
1100
0000
0000
0000
0000
0000
0000
0000
1000
0000
0000
0000
0000
0000
0000
0000
0001
0000
0000
0000
0000
0000
0000
0000
1001
0000
0000
0000
0000
0000
0000
0000
0000
1000
0000
0000
0100
0000
0000
1000
0000
0000
0100
0000
0000
1000
0000
0000
,  // measure 24
0001
0000
1000
0100
1100
0000
0001
0100
,  // measure 25
0101
0000
0000
0000
0000
0000
0000
0000
0001
0000
0000
0000
0000
0000
0000
0000
1000
0000
0000
0000
0000
0000
0000
0000
1001
0000
0000
0000
0000
0000
0000
0000
0000
0001
0000
0000
0100
0000
0000
0001
0000
0000
0100
0000
0000
0001
0000
0000
,  // measure 26
0100
0010
0100
0001
0010
0100
1000
0100
,  // measure 27
0010
0100
1000
0001
1000
0100
0010
0001
,  // measure 28
0010
0100
1000
0010
0100
0001
0100
0010
,  // measure 29
1000
0010
0100
0001
1000
0010
0100
0001
1000
0010
0100
0001
1000
0010
0100
0001
,  // measure 30
1000
0001
0100
0010
1000
0100
0010
0001
,  // measure 31
1000
0010
1000
0001
1000
0100
1000
0001
,  // measure 32
0010
0001
0100
0010
1000
0100
0010
0001
,  // measure 33
0100
0010
0100
0001
1000
0001
0100
0010
,  // measure 34
1000
0010
0100
0010
0001
0010
0100
0010
,  // measure 35
1000
0010
0100
0001
1000
0100
0010
0001
,  // measure 36
1000
0100
0010
0100
0001
0100
0010
0100
,  // measure 37
1000
0100
0010
0001
1000
0010
0100
0001
,  // measure 38
1000
0100
1000
0100
1000
0100
1000
0100
0010
0001
1000
0001
,  // measure 39
0100
0010
0100
0010
0100
0010
0100
0001
1000
0010
0100
0001
,  // measure 40
1000
0001
1000
0001
1000
0001
0100
0010
1000
0010
0100
0001
,  // measure 41
0010
0100
0010
0100
0010
0100
0010
0001
1000
0010
1000
0001
,  // measure 42
0100
0001
0100
0001
0100
0001
0010
0100
1000
0010
0100
0001
,  // measure 43
1000
0010
1000
0010
1000
0010
0100
0001
0010
0100
1000
0100
,  // measure 44
0010
0001
0010
0001
0010
0001
0100
0010
1000
0001
0010
0100
,  // measure 45
1000
0010
0100
0001
1000
0010
0100
0001
1000
0010
0100
0001
1000
0010
0100
0001
,  // measure 46
1000
0000
0001
0100
0101
0000
1000
0100
,  // measure 47
1100
0000
0000
0000
0000
0000
0000
0000
1000
0000
0000
0000
0000
0000
0000
0000
0001
0000
0000
0000
0000
0000
0000
0000
1001
0000
0000
0000
0000
0000
0000
0000
0000
1000
0000
0000
0100
0000
0000
1000
0000
0000
0100
0000
0000
1000
0000
0000
,  // measure 48
0001
0000
1000
0100
1100
0000
0001
0100
,  // measure 49
0101
0000
0000
0000
0000
0000
0000
0000
0001
0000
0000
0000
0000
0000
0000
0000
1000
0000
0000
0000
0000
0000
0000
0000
1001
0000
0000
0000
0000
0000
0000
0000
0000
0001
0000
0000
0100
0000
0000
0001
0000
0000
0100
0000
0000
0001
0000
0000
,  // measure 50
1000
0000
0001
0100
0101
0000
1000
0100
,  // measure 51
1100
0000
0000
0000
0000
0000
0000
0000
1000
0000
0000
0000
0000
0000
0000
0000
0001
0000
0000
0000
0000
0000
0000
0000
1001
0000
0000
0000
0000
0000
0000
0000
0000
1000
0000
0000
0100
0000
0000
1000
0000
0000
0100
0000
0000
1000
0000
0000
,  // measure 52
0001
0000
1000
0100
1100
0000
0001
0100
,  // measure 53
0000
0000
0000
0000
0000
0000
0000
0000
0001
0010
0100
1000
0001
0010
0100
1000
,  // measure 54
0100
1000
0001
1000
0100
1000
0001
1000
,  // measure 55
0100
0010
0100
0001
0100
0010
0100
1000
,  // measure 56
0001
0100
0001
1000
0001
0010
0001
1000
,  // measure 57
0010
0100
0010
0001
0010
0100
0010
1000
,  // measure 58
0001
0100
0001
0010
0001
1000
0001
0100
,  // measure 59
0010
0001
0010
1000
0010
0100
0010
1000
,  // measure 60
0100
0010
0100
0001
0100
1000
0100
0010
,  // measure 61
0100
1000
0010
1000
0100
1000
0001
0100
,  // measure 62
0010
0100
1000
0100
0010
0100
0001
0010
,  // measure 63
0100
0010
1000
0010
0100
0010
0001
1000
,  // measure 64
0010
0100
0010
0001
0010
0100
0010
1000
,  // measure 65
0100
0001
0100
0010
0100
1000
0100
0001
,  // measure 66
0100
0010
0001
0010
0100
0010
1000
0010
,  // measure 67
0001
0100
0001
1000
0001
0010
0001
0100
,  // measure 68
0010
0000
1000
0000
0001
0000
0010
0000
0001
0000
1000
0000
0010
1000
0001
0100
,  // measure 69
0010
1010
1001
0011
,  // measure 70
0001
0010
0001
0010
0100
1000
0100
1000
0001
0010
0001
0010
0100
1000
0100
1000
,  // measure 71
0001
0100
0001
0100
0010
0100
0010
0100
0001
0100
0001
0100
0010
0100
0010
0100
,  // measure 72
0010
1000
0010
1000
0001
1000
0001
1000
0010
1000
0010
1000
0001
1000
0001
1000
,  // measure 73
0100
1000
0100
1000
0001
0010
0001
0010
0100
1000
0100
1000
0001
0010
0001
0010
,  // measure 74
0001
1000
0001
1000
0010
1000
0010
1000
0001
1000
0001
1000
0010
1000
0010
1000
,  // measure 75
0001
0010
0001
0010
0100
0010
0100
0010
0001
0010
0001
0010
0100
0010
0100
0010
,  // measure 76
0100
1000
0100
1000
0001
1000
0001
1000
0100
1000
0100
1000
0001
1000
0001
1000
,  // measure 77
0010
1000
0010
1000
0001
0100
0001
0100
0010
1000
0010
1000
0001
0100
0001
1000
,  // measure 78
0010
1000
0010
0100
0001
0100
0001
1000
0010
1000
0010
0100
0001
0100
0001
1000
,  // measure 79
0100
1000
0100
0010
0100
0010
0100
1000
0100
1000
0100
0010
0100
0010
0100
0010
,  // measure 80
0001
0010
0001
1000
0001
1000
0001
0010
0001
0010
0001
1000
0001
1000
0001
0100
,  // measure 81
0001
0100
0001
1000
0010
1000
0010
0100
0001
0100
0001
1000
0010
1000
0010
0100
,  // measure 82
0001
0100
0001
0100
0010
1000
0010
1000
0001
0010
0100
1000
0001
0010
0100
1000
,  // measure 83
0001
0010
0001
0010
0100
1000
0100
1000
0001
0100
0010
1000
0001
0100
0010
1000
,  // measure 84
0001
0100
0001
1000
0010
1000
0001
0100
0001
1000
0100
1000
0001
0100
0001
1000
,  // measure 85
0100
1000
0001
0010
0001
1000
0100
1000
0010
0100
0001
1000
0001
0010
0100
1000
,  // measure 86
0000
0000
0000
0000
,  // measure 87
0000
0000
0000
0000
,  // measure 88
0000
0000
0000
0000
,  // measure 89
1000
0001
0010
0001
0100
0001
1000
0001
,  // measure 90
0100
0010
0100
1000
0100
0010
0100
0001
,  // measure 91
1000
0100
1000
0001
1000
0010
1000
0001
,  // measure 92
0010
0100
0010
1000
0010
0100
0010
0001
,  // measure 93
1000
0100
1000
0010
1000
0001
1000
0100
,  // measure 94
0010
1000
0010
0001
0010
0100
0010
0001
,  // measure 95
0100
0010
0100
1000
0100
0001
0100
0010
,  // measure 96
0100
0001
0010
0001
0100
0001
1000
0100
,  // measure 97
0010
0100
0001
0100
0010
0100
1000
0010
,  // measure 98
0100
0010
0001
0010
0100
0010
1000
0001
,  // measure 99
0010
0100
0010
1000
0010
0100
0010
0001
,  // measure 100
0100
1000
0100
0010
0100
0001
0100
1000
,  // measure 101
0100
0010
1000
0010
0100
0010
0001
0010
,  // measure 102
1000
0100
1000
0001
1000
0010
1000
0100
,  // measure 103
1000
0100
1000
0001
0100
0001
1000
0001
0100
0001
1000
0100
,  // measure 104
1000
0010
1000
0001
0010
0001
1000
0001
0010
0100
1000
0010
,  // measure 105
0100
0001
0100
0001
0100
0010
1000
0001
0100
0001
0100
0001
0100
0010
1000
0001
,  // measure 106
0100
0010
0100
0010
0100
0001
1000
0010
0100
0010
0100
0010
0100
0001
1000
0001
,  // measure 107
1000
0100
1000
0100
0010
0001
1000
0001
1000
0100
1000
0100
0010
0001
1000
0001
,  // measure 108
1000
0100
1000
0100
0010
0001
1000
0001
1000
0100
1000
0100
0010
0001
1000
0001
,  // measure 109
1000
0010
1000
0010
0100
0001
1000
0001
1000
0010
1000
0010
0100
0001
1000
0001
,  // measure 110
1000
0010
1000
0010
0100
0001
1000
0001
1000
0010
1000
0010
0100
0001
1000
0001
,  // measure 111
0010
0001
0010
0001
0010
0100
1000
0100
0010
0001
0010
0001
0010
0100
1000
0100
,  // measure 112
0010
0001
0010
0001
0010
0100
1000
0100
0010
0001
0010
0001
0010
0100
1000
0100
,  // measure 113
1000
0001
1000
0001
0100
0010
0100
0001
1000
0001
1000
0001
0100
0010
0100
0001
,  // measure 114
1000
0001
1000
0001
0100
0010
0100
0001
1000
0001
1000
0001
0100
0010
0100
0001
,  // measure 115
1000
0010
1000
0010
0100
0001
1000
0001
1000
0010
1000
0010
0100
0001
1000
0001
,  // measure 116
1000
0010
1000
0010
0100
0001
1000
0001
1000
0010
1000
0010
0100
0001
1000
0001
,  // measure 117
1000
0100
1000
0100
0010
0001
1000
0001
1000
0100
1000
0100
0010
0001
1000
0001
,  // measure 118
1000
0100
1000
0100
0010
0001
1000
0001
1000
0100
1000
0100
0010
0001
1000
0010
,  // measure 119
1000
0001
1000
0100
0010
0001
1000
0100
0010
0001
1000
0001
0100
0010
1000
0001
,  // measure 120
1000
0010
0100
0001
1000
0001
0010
0100
1000
0001
1000
0010
0100
0001
1000
0001
,  // measure 121
0000
0000
0000
0000
,  // measure 122
1000
0100
1000
0001
0010
0001
1000
0010
,  // measure 123
0100
0001
1000
0001
0010
0100
1000
0001
,  // measure 124
0100
0001
0010
0100
1000
0010
0100
0010
,  // measure 125
1000
0001
0100
0010
1000
0001
0010
0100
,  // measure 126
1000
0100
1000
0001
0010
0001
1000
0010
,  // measure 127
0100
0001
1000
0001
0010
0100
1000
0001
,  // measure 128
0100
0001
0010
0100
1000
0010
0100
0010
,  // measure 129
1000
0001
0100
0010
1000
0001
0010
0100
,  // measure 130
1000
0100
1000
0001
0010
0001
1000
0010
,  // measure 131
0100
0001
0100
0010
1000
0001
0010
0100
,  // measure 132
1000
0001
0010
0100
1000
0010
0100
0001
,  // measure 133
0010
1000
0010
0100
0010
0001
1000
0010
,  // measure 134
1000
0010
1000
0010
1000
0010
0100
0001
0100
0001
0100
0001
,  // measure 135
1000
0010
1000
0010
1000
0010
0100
0001
0100
0001
0100
0001
,  // measure 136
1000
0100
1000
0100
1000
0100
0010
0001
0010
0001
0010
0001
,  // measure 137
1000
0100
1000
0100
1000
0100
0010
0001
0010
0001
0010
0001
,  // measure 138
0010
0100
0010
0100
0010
0100
1000
0001
1000
0001
1000
0001
,  // measure 139
0010
0001
0010
0001
0010
0001
1000
0010
1000
0010
1000
0010
,  // measure 140
0100
0001
0100
0001
0100
0001
1000
0100
1000
0100
1000
0100
,  // measure 141
0010
0001
0010
0001
0010
0001
1000
0001
1000
0001
1000
0001
,  // measure 142
1000
0100
1000
0100
1000
0100
0010
0001
1000
0001
0010
0001
,  // measure 143
1000
0100
1000
0100
1000
0100
0010
0001
0100
0001
0010
0001
,  // measure 144
1000
0010
1000
0010
1000
0010
0100
0001
1000
0001
0100
0001
,  // measure 145
1000
0010
1000
0010
1000
0010
0100
0001
0010
0001
0100
0001
,  // measure 146
0100
0010
0100
0010
0100
0010
1000
0001
0010
0100
1000
0001
,  // measure 147
0100
0001
0100
0001
0100
0001
1000
0100
0010
0001
1000
0100
,  // measure 148
0010
0001
0010
0001
0010
0001
1000
0010
0100
0001
1000
0010
,  // measure 149
0100
0000
0000
0000
0001
0000
0000
0000
0100
0000
0000
0000
0001
0000
0000
0000
0100
0000
0000
0000
0001
0000
0000
0000
1000
0000
0000
0001
0000
0000
1000
0000
0000
0001
0000
0000
1000
0000
0000
0001
0000
0000
1000
0000
0000
0001
0000
0000
,  // measure 150
1000
0010
0100
0010
1000
0010
1000
0001
0010
0001
1000
0001
,  // measure 151
0010
0001
1000
0010
1000
0001
0100
0001
1000
0100
1000
0001
,  // measure 152
1000
0100
0010
0100
1000
0001
0010
0001
1000
0010
1000
0001
,  // measure 153
0010
0100
0010
0001
1000
0010
0100
0001
0100
0010
1000
0001
,  // measure 154
0010
0100
1000
0010
0100
0010
1000
0001
1000
0010
0100
0001
,  // measure 155
0010
0100
0010
0001
1000
0001
1000
0010
0100
0001
0010
0100
,  // measure 156
0010
0001
0100
0010
0100
0001
1000
0100
0010
0001
1000
0100
,  // measure 157
0010
0001
1000
0010
0100
0001
0010
0001
1000
0100
0010
0001
,  // measure 158
1000
0010
0100
0010
1000
0010
1000
0001
0010
0001
1000
0001
,  // measure 159
0010
0001
1000
0010
1000
0001
0100
0001
1000
0100
1000
0001
,  // measure 160
1000
0100
0010
0100
1000
0001
0010
0001
1000
0010
1000
0001
,  // measure 161
0010
0100
0010
0001
1000
0010
0100
0001
0100
0010
1000
0001
,  // measure 162
0010
0100
1000
0010
0100
0010
1000
0001
1000
0010
0100
0001
,  // measure 163
0010
0100
0010
0001
1000
0001
1000
0010
0100
0001
0010
0100
,  // measure 164
0010
0001
0100
0010
0100
0001
1000
0100
0010
0001
1000
0100
,  // measure 165
0010
0001
0010
0001
1000
0100
1000
0100
1000
0001
0100
0010
1000
0001
0100
0010
,  // measure 166
2000
0000
0000
3000
,  // measure 167
0000
0000
0000
0000
,  // measure 168
0001
0100
0001
1000
0100
1000
0010
0100
0001
0010
0100
1000
,  // measure 169
0010
1000
0010
1000
0100
1000
0100
0010
0001
0010
0100
1000
,  // measure 170
0001
0100
0001
1000
0010
1000
0010
0100
0001
0010
0100
1000
,  // measure 171
0100
1000
0100
0010
0001
0010
0001
0100
0010
1000
0100
0010
,  // measure 172
0001
0010
0100
0010
0001
0010
0100
1000
0001
0010
0100
1000
,  // measure 173
0010
0100
0010
1000
0010
0100
0001
0010
0100
1000
0001
0010
,  // measure 174
0100
1000
0001
0100
0001
1000
0010
0100
0001
0010
0100
1000
,  // measure 175
0001
0100
0001
1000
0100
1000
0010
0100
0001
0010
0100
1000
,  // measure 176
0001
0100
0001
1000
0100
1000
0010
0100
0001
0010
0100
1000
,  // measure 177
0010
1000
0010
1000
0100
1000
0100
0010
0001
0010
0100
1000
,  // measure 178
0001
0100
0001
1000
0010
1000
0010
0100
0001
0010
0100
1000
,  // measure 179
0100
1000
0100
0010
0001
0010
0001
0100
0010
1000
0100
0010
,  // measure 180
0001
0010
0100
0010
0001
0010
0100
1000
0001
0010
0100
1000
,  // measure 181
0010
0100
0010
1000
0010
0100
0001
0010
0100
1000
0001
0010
,  // measure 182
0100
1000
0001
0100
0001
1000
0010
0100
0001
0010
0100
1000
,  // measure 183
0001
0100
0001
1000
0100
1000
0010
0100
0001
0010
0100
1000
,  // measure 184
0001
0100
0001
1000
0100
1000
0010
0100
0001
0010
0100
1000
,  // measure 185
0010
1000
0010
1000
0100
1000
0100
0010
0001
0010
0100
1000
,  // measure 186
0001
0100
0001
1000
0010
1000
0010
0100
0001
0010
0100
1000
,  // measure 187
0100
1000
0100
0010
0001
0010
0001
0100
0010
1000
0100
0010
,  // measure 188
0001
0010
0100
0010
0001
0010
0100
1000
0001
0010
0100
1000
,  // measure 189
0010
0100
0010
1000
0010
0100
0001
0010
0100
1000
0001
0010
,  // measure 190
0100
1000
0001
0100
0001
1000
0010
0100
0001
0010
0100
1000
,  // measure 191
0001
0100
0001
1000
0100
1000
0010
0100
0001
0010
0100
1000
,  // measure 192
0001
0100
0001
1000
0100
1000
0010
0100
0001
0010
0100
1000
,  // measure 193
0010
1000
0010
1000
0100
1000
0100
0010
0001
0010
0100
1000
,  // measure 194
0001
0100
0001
1000
0010
1000
0010
0100
0001
0010
0100
1000
,  // measure 195
0100
1000
0100
0010
0001
0010
0001
0100
0010
1000
0100
0010
,  // measure 196
0001
0100
0001
1000
0100
1000
0010
0100
0001
0010
0100
1000
,  // measure 197
0010
1000
0010
1000
0100
1000
0100
0010
0001
0010
0100
1000
,  // measure 198
0001
0100
0001
1000
0010
1000
0010
0100
0001
0010
0100
1000
,  // measure 199
0100
1000
0100
0010
0001
0010
0001
0100
0010
1000
0100
0010
,  // measure 200
0001
0100
0001
1000
0100
1000
0010
0100
0001
0010
0100
1000
,  // measure 201
0010
1000
0010
1000
0100
1000
0100
0010
0001
0010
0100
1000
,  // measure 202
0001
0100
0001
1000
0100
1000
0010
0100
0001
0010
0100
1000
,  // measure 203
0010
1000
0010
1000
0100
1000
0100
0010
0001
0010
0100
1000
,  // measure 204
0001
0100
0001
1000
0100
1000
0010
0100
0001
0010
0100
1000
,  // measure 205
0001
0100
0001
1000
0100
1000
0010
0100
0001
0010
0100
1000
,  // measure 206
0001
0100
0001
1000
0100
1000
0010
0100
0001
0010
0100
1000
,  // measure 207
0001
0100
0001
1000
0100
1000
0010
0100
0001
0010
0100
1000
,  // measure 208
0010
0100
0010
0100
0010
0100
0010
0100
0010
0100
0010
0100
,  // measure 209
0010
0000
0000
0000
0100
0000
0000
0000
0010
0000
0000
0000
0100
0000
0000
0000
0010
0000
0000
0000
0100
0000
0000
0000
0010
0000
0000
0100
0000
0000
0010
0000
0000
0100
0000
0000
0010
0000
0000
0100
0000
0000
0010
0000
0000
0100
0000
0000
,  // measure 210
0010
1000
0100
0010
0001
0100
0010
1000
,  // measure 211
0001
0010
0001
1000
0001
0100
0001
1000
,  // measure 212
0010
1000
0100
0010
0001
0100
0010
1000
,  // measure 213
0100
0010
0100
1000
0001
1000
0100
0010
,  // measure 214
0001
0010
0100
0010
1000
0010
0100
0010
,  // measure 215
0001
0010
0100
1000
0001
0100
0010
1000
,  // measure 216
0001
0100
0010
0100
1000
0100
0010
0100
,  // measure 217
0001
0100
0010
1000
0001
0010
0100
1000
,  // measure 218
0010
1000
0100
0010
0001
0100
0010
1000
,  // measure 219
0001
0010
0001
1000
0001
0100
0001
1000
,  // measure 220
0010
1000
0100
0010
0001
0100
0010
1000
,  // measure 221
0100
0010
0100
1000
0001
1000
0100
0010
,  // measure 222
0001
0010
0100
0010
1000
0010
0100
0010
,  // measure 223
0001
0010
0100
1000
0001
0100
0010
1000
,  // measure 224
0001
0100
0010
0100
1000
0100
0010
0100
,  // measure 225
0001
0100
0010
1000
0001
0010
0100
1000
,  // measure 226
0001
0100
0001
0100
0001
0100
0001
0100
0010
1000
0001
1000
,  // measure 227
0100
0010
0100
0010
0100
0010
0100
1000
0001
0010
0100
1000
,  // measure 228
0001
1000
0001
1000
0001
1000
0100
0010
0001
0010
0100
1000
,  // measure 229
0010
0100
0010
0100
0010
0100
0010
1000
0001
0010
0001
1000
,  // measure 230
0100
1000
0100
1000
0100
1000
0010
0100
0001
0010
0100
1000
,  // measure 231
0001
0010
0001
0010
0001
0010
0100
1000
0010
0100
0001
0100
,  // measure 232
0010
1000
0010
1000
0010
1000
0100
0010
0001
1000
0010
0100
,  // measure 233
0001
0010
0100
1000
0001
0010
0100
1000
0001
1000
0100
0010
0001
1000
0100
0010
,  // measure 234
0001
0010
0001
0010
0100
1000
0001
0010
0100
1000
0001
1000
,  // measure 235
0010
0100
0010
0100
0001
1000
0010
1000
0001
0100
0010
1000
,  // measure 236
0001
1000
0001
1000
0100
0010
0001
0100
0001
0100
0010
1000
,  // measure 237
0100
0010
0100
0010
0001
0010
0100
1000
0001
0100
0001
1000
,  // measure 238
0010
1000
0010
1000
0010
0100
0001
0010
0100
1000
0010
1000
,  // measure 239
0001
0100
0001
0100
0010
1000
0010
0100
0001
1000
0001
0010
,  // measure 240
0100
1000
0100
1000
0010
0100
0010
0100
0001
1000
0100
0010
,  // measure 241
0001
0100
0010
1000
0001
0100
0010
1000
0001
1000
0010
0100
0001
1000
0010
0100
,  // measure 242
0010
1000
0001
1000
0100
1000
0001
1000
,  // measure 243
0100
0010
0100
0001
0100
0010
0100
1000
,  // measure 244
0001
0100
0001
1000
0001
0010
0001
1000
,  // measure 245
0010
0100
0010
0001
0010
0100
0010
1000
,  // measure 246
0001
0100
0001
0010
0001
1000
0001
0100
,  // measure 247
0010
0001
0010
1000
0010
0100
0010
1000
,  // measure 248
0100
0010
0100
0001
0100
1000
0100
0010
,  // measure 249
0100
1000
0010
1000
0100
1000
0001
0100
,  // measure 250
0010
0100
1000
0100
0010
0100
0001
0010
,  // measure 251
0100
0010
1000
0010
0100
0010
0001
1000
,  // measure 252
0010
0100
0010
0001
0010
0100
0010
1000
,  // measure 253
0100
0001
0100
0010
0100
1000
0100
0001
,  // measure 254
0100
0010
0001
0010
0100
0010
1000
0010
,  // measure 255
0001
0100
0001
1000
0001
0010
0001
0100
,  // measure 256
0010
1000
0001
0010
0001
1000
0010
0001
,  // measure 257
0010
1000
0100
0010
0100
0001
0100
1000
,  // measure 258
0001
1000
0010
1000
0100
1000
0001
1000
,  // measure 259
0100
0010
0100
0001
0100
0010
0100
1000
,  // measure 260
0001
0100
0001
1000
0001
0010
0001
1000
,  // measure 261
0010
0100
0010
0001
0010
0100
0010
1000
,  // measure 262
0001
0100
0001
0010
0001
1000
0001
0100
,  // measure 263
0010
0001
0010
1000
0010
0100
0010
1000
,  // measure 264
0100
0010
0100
0001
0100
1000
0100
0010
,  // measure 265
0100
1000
0010
1000
0100
1000
0001
0100
,  // measure 266
0010
0100
1000
0100
0010
0100
0001
0010
,  // measure 267
0100
0010
1000
0010
0100
0010
0001
1000
,  // measure 268
0010
0100
0010
0001
0010
0100
0010
1000
,  // measure 269
0100
0001
0100
0010
0100
1000
0100
0001
,  // measure 270
0100
0010
0001
0010
0100
0010
1000
0010
,  // measure 271
0001
0100
0001
1000
0001
0010
0001
0100
,  // measure 272
0001
0100
0001
1000
0100
1000
0001
1000
0100
1000
0001
0100
,  // measure 273
0001
0010
0001
1000
0010
1000
0001
1000
0010
0100
0001
0010
,  // measure 274
0001
0100
0001
0100
0001
0100
0010
1000
0001
1000
0010
1000
,  // measure 275
0001
0100
0001
0100
0001
0100
0010
1000
0100
1000
0010
1000
,  // measure 276
0001
0010
0001
0010
0001
0010
0100
1000
0001
1000
0100
1000
,  // measure 277
0001
0010
0001
0010
0001
0010
0100
1000
0010
1000
0100
1000
,  // measure 278
0100
0010
0100
0010
0100
0010
0001
1000
0010
0100
0001
1000
,  // measure 279
0100
1000
0100
1000
0100
1000
0001
0100
0010
1000
0001
0100
,  // measure 280
0010
1000
0010
1000
0010
1000
0001
0010
0100
1000
0001
0010
,  // measure 281
0100
1000
0100
1000
0100
1000
0001
0100
0001
1000
0100
1000
,  // measure 282
0001
0010
0100
0010
0001
0010
0001
1000
0010
1000
0001
1000
,  // measure 283
0010
1000
0001
0010
0001
1000
0100
1000
0001
0100
0001
1000
,  // measure 284
0001
0100
0010
0100
0001
1000
0010
1000
0001
0010
0001
1000
,  // measure 285
0010
0100
0010
1000
0001
0010
0100
1000
0100
0010
0001
1000
,  // measure 286
0010
0100
0001
0010
0100
0010
0001
1000
0001
0010
0100
1000
,  // measure 287
0010
0100
0010
1000
0001
1000
0001
0010
0100
1000
0010
0100
,  // measure 288
0010
1000
0100
0010
0100
1000
0001
0100
0010
1000
0001
0100
,  // measure 289
0010
1000
0001
0100
0010
1000
0001
1000
0100
0010
0001
0010
0100
1000
0001
0010
,  // measure 290
0100
1000
0100
1000
0001
1000
0001
1000
0100
1000
0100
1000
0001
1000
0001
1000
,  // measure 291
0001
0100
0001
0100
0001
1000
0001
1000
0001
0100
0001
0100
0001
1000
0001
1000
,  // measure 292
0010
1000
0010
1000
0001
1000
0001
1000
0010
1000
0010
1000
0001
1000
0001
1000
,  // measure 293
0001
0010
0001
0010
0001
1000
0001
1000
0001
0010
0001
0010
0001
1000
0001
1000
,  // measure 294
0001
0010
0001
0010
0100
0010
0100
0010
0001
0010
0001
0010
0100
0010
0100
0010
,  // measure 295
0100
1000
0100
1000
0001
1000
0001
1000
0100
1000
0100
1000
0001
1000
0001
1000
,  // measure 296
0100
1000
0100
1000
0001
0010
0001
0010
0100
1000
0100
1000
0001
1000
0001
1000
,  // measure 297
0001
0100
0001
0100
0010
1000
0010
1000
0001
0100
0001
0100
0001
1000
0001
1000
,  // measure 298
0010
1000
0010
1000
0001
1000
0001
1000
0010
1000
0010
1000
0001
1000
0001
1000
,  // measure 299
0001
0010
0001
0010
0001
1000
0001
1000
0001
0010
0001
0010
0001
1000
0001
1000
,  // measure 300
0100
1000
0100
1000
0001
1000
0001
1000
0100
1000
0100
1000
0001
1000
0001
1000
,  // measure 301
0001
0100
0001
0100
0001
1000
0001
1000
0001
0100
0001
0100
0001
1000
0001
1000
,  // measure 302
0001
0100
0001
0100
0010
0100
0010
0100
0001
0100
0001
0100
0010
0100
0010
0100
,  // measure 303
0010
1000
0010
1000
0001
1000
0001
1000
0010
1000
0010
1000
0001
1000
0001
1000
,  // measure 304
0010
1000
0010
1000
0001
0100
0001
0100
0010
1000
0010
1000
0001
1000
0001
1000
,  // measure 305
0001
0100
0010
1000
0001
0100
0010
1000
0001
1000
0100
0010
0001
1000
0001
0100
,  // measure 306
0020
0000
0000
0000
,  // measure 307
0030
0000
0000
0000
;

//---------------dance-single - All 4ths and vnnecessary jacks----------------
#NOTES:
     dance-single:
     Riakodoadm:
     Easy:
     10:
     0.534322,0.598571,0.136482,0.159229,0.000000,1151.000000,1109.000000,42.000000,49.000000,0.000000,0.000000,0.534322,0.598571,0.136482,0.159229,0.000000,1151.000000,1109.000000,42.000000,49.000000,0.000000,0.000000:
0000
0000
0000
0000
,
0000
0000
0000
0000
,
0000
0000
0000
0000
,
0000
0000
0000
0000
,
2000
0000
0100
0000
0000
0001
0000
0000
,
0100
0000
0000
0001
0000
0000
0000
0000
,
3002
0000
0100
0000
0000
1000
0000
0000
,
0100
0000
0000
1000
0000
0000
0000
0003
,
0000
0000
0000
0000
,
0000
0000
0000
0000
,
1001
0000
0000
0000
,
0010
0000
0010
0100
,
0010
0000
0000
0000
,
0100
0000
0010
0100
,
1001
0000
0000
0000
,
1000
0000
1000
0100
,
1000
0000
0000
0000
,
0001
0000
0001
0100
,
1001
0000
0000
0000
,
0010
0000
0010
0100
,
0010
0000
0000
0000
,
1000
1000
0001
0001
,
1001
0000
0101
0000
,
1100
0000
0101
1000
,
1001
0000
1100
0000
,
0101
0000
1100
0001
,
1001
0000
0101
0000
,
1100
0000
0101
1000
,
1001
0000
0110
0000
,
0000
0000
0000
0000
,
1000
0100
1000
0001
,
1000
0100
0010
0001
,
0100
0001
1000
0001
,
0010
0100
1000
0001
,
1000
0010
1000
0001
,
0010
0100
1000
0001
,
0010
0001
1000
0010
,
0100
0001
0010
0100
,
1000
0100
0001
0100
,
1000
0100
0001
0100
,
1000
0010
0001
0010
,
1000
0010
0001
0010
,
1000
0100
0001
1000
,
0010
0001
1000
0100
,
0001
1000
0010
0001
,
1000
0100
0010
0001
,
1001
0000
1010
0000
,
0011
0000
1010
0001
,
1001
0000
0011
0000
,
1010
0000
0011
1000
,
1001
0000
1010
0000
,
0011
0000
1010
0001
,
1001
0000
0110
0000
,
0000
0000
0000
0000
2002
0000
0000
3003
,
0001
0100
0010
1000
,
0001
0100
0010
1000
,
0001
0010
0100
1000
,
0001
0010
0100
1000
,
0010
1000
0100
1000
,
0010
1000
0100
1000
,
0001
0010
0001
0100
,
0001
0010
0001
0100
,
0010
1000
0100
0010
,
0001
0100
0010
1000
,
0100
0010
0100
0001
,
0100
0010
0100
1000
,
0001
0010
0100
1000
,
0010
0100
0001
0010
,
0100
0010
1000
0010
,
0001
0010
0100
1000
,
0010
0010
0010
0010
,
0100
0100
0100
0100
,
0001
0001
0001
0001
,
0001
0001
0001
0001
,
0010
0010
0010
0010
,
0100
0100
0100
0100
,
1000
1000
1000
1000
,
1000
1000
1000
1000
,
0010
0010
0010
0010
,
0100
0100
0100
0100
,
0001
0001
0001
0001
,
0001
0001
0001
0001
,
0010
0010
0010
0010
,
0100
0100
0100
0100
,
1000
1000
1000
1000
,
1000
1000
1000
1000
,
0000
0000
0000
0000
,
0000
0000
0000
0000
,
0000
0000
0000
0000
,
1000
0100
0010
0001
,
1000
0100
0010
0001
,
1000
0010
0100
0001
,
1000
0010
0100
0001
,
0010
0001
0100
0001
,
0010
0001
0100
0001
,
1000
0010
1000
0100
,
1000
0010
1000
0100
,
0010
0001
0100
0010
,
1000
0100
0010
0001
,
0100
0010
0100
1000
,
0100
0010
0100
0001
,
1000
0010
0100
0001
,
0010
0100
1000
0010
,
0110
0000
0000
0110
0000
0000
1001
0000
,
0000
0010
0110
1001
,
1000
1000
1000
1000
,
1000
1000
1000
1000
,
0010
0010
0010
0010
,
0010
0010
0010
0010
,
0100
0100
0100
0100
,
0100
0100
0100
0100
,
0001
0001
0001
0001
,
0001
0001
0001
0001
,
0010
0010
0010
0010
,
0010
0010
0010
0010
,
0100
0100
0100
0100
,
0100
0100
0100
0100
,
1000
1000
1000
1000
,
1000
1000
1000
1000
,
0001
0001
0001
0001
,
0001
0001
0001
0001
,
0000
0000
0000
0000
,
1000
1000
0010
0100
,
0001
0001
0100
0010
,
1000
1000
0100
0010
,
0001
0001
0010
0100
,
1000
1000
0010
0100
,
0001
0001
0100
0010
,
1000
1000
0100
0010
,
0001
0001
0010
0100
,
1000
1000
0010
0100
,
0001
0001
0100
0010
,
1000
1000
0100
0010
,
0001
0001
0010
0100
,
1000
0010
1000
0100
,
1000
0010
1000
0100
,
0010
0001
0100
0001
,
0010
0001
0100
0001
,
1000
0100
0001
1000
,
0010
0001
1000
0100
,
0001
1000
0010
0001
,
1000
0100
0010
0001
,
0100
0001
0010
0001
,
0100
0001
0010
0001
,
1000
0010
1000
0100
,
1000
0010
0100
0001
,
0100
1000
0001
0010
,
1000
0001
0100
1000
,
0001
0010
1000
0001
,
0010
0100
1000
0010
,
0100
0100
0100
0100
,
0001
0001
0001
0001
,
1000
1000
1000
1000
,
0100
0100
0100
0100
,
0010
0010
0010
0010
,
0001
0001
0001
0001
,
1000
1000
1000
1000
,
0010
0010
0010
0010
,
0100
0100
0100
0100
,
1000
1000
1000
1000
,
0001
0001
0001
0001
,
0010
0010
0010
0010
,
1000
1000
1000
1000
,
0100
0100
0100
0100
,
0010
0010
0010
0010
,
0001
0001
0001
0001
,
2002
0000
0000
3003
,
0000
0000
0000
0000
,
2000
0010
0001
0010
,
3002
0100
1000
0100
,
2003
0100
0001
0100
,
3002
0010
1000
0010
,
2003
0010
0001
0100
,
3002
0010
1000
0100
,
2003
0100
0001
0010
,
3002
0100
1000
0010
,
2003
0010
0001
0010
,
3002
0100
1000
0100
,
2003
0100
0001
0100
,
3002
0010
1000
0010
,
2003
0010
0001
0100
,
3002
0010
1000
0100
,
2003
0100
0001
0010
,
3002
0100
1000
0010
,
2003
0010
0001
0010
,
3002
0100
1000
0100
,
2003
0100
0001
0100
,
3002
0010
1000
0010
,
2003
0010
0001
0100
,
3002
0010
1000
0100
,
2003
0100
0001
0010
,
3002
0100
1000
0010
,
2003
0010
0001
0100
,
3002
0100
1000
0010
,
2003
0100
0001
0010
,
3002
0010
1000
0100
,
2003
0010
0001
0100
,
3002
0100
1000
0010
,
2003
0100
0001
0010
,
3002
0010
1000
0100
,
2003
0010
0001
0100
,
3002
0010
1000
0100
,
2003
0010
0001
0100
,
3002
0010
1000
0100
,
2003
0010
3002
0010
,
2003
0010
3002
0010
,
1003
0001
1000
0001
,
1000
0001
1000
0001
,
2000
0000
0000
0000
,
0000
0000
0000
3000
,
0001
0100
0001
1000
,
0001
0100
0010
1000
,
0100
1000
0001
1000
,
0010
0100
0001
1000
,
0001
0010
0001
1000
,
0010
0100
0001
1000
,
0010
1000
0001
0010
,
0100
1000
0010
0100
,
0001
0010
0001
1000
,
0001
0010
0100
1000
,
0010
1000
0001
1000
,
0100
0010
0001
1000
,
0001
0100
0001
1000
,
0100
0010
0001
1000
,
0100
1000
0001
0100
,
0010
1000
0100
0010
,
0001
0100
1000
0100
,
0001
0100
1000
0100
,
0001
0010
1000
0010
,
0001
0010
1000
0010
,
0001
0100
1000
0001
,
0010
1000
0001
0100
,
1000
0001
0010
1000
,
0001
0100
0010
1000
,
0001
0010
1000
0010
,
0001
0010
1000
0010
,
0001
0100
1000
0100
,
0001
0100
1000
0100
,
0001
0010
1000
0001
,
0100
1000
0001
0010
,
1000
0001
0100
1000
,
0001
0010
0100
1000
,
0001
0100
0010
1000
,
0001
0100
0010
1000
,
0001
0010
0100
1000
,
0001
0010
0100
1000
,
0010
1000
0100
1000
,
0010
1000
0100
1000
,
0001
0010
0001
0100
,
0001
0010
0001
0100
,
0010
1000
0100
0010
,
0001
0100
0010
1000
,
0100
0010
0100
0001
,
0100
0010
0100
1000
,
0001
0010
0100
1000
,
0010
0100
0001
0010
,
0100
0010
1000
0010
,
0001
0010
0100
1000
,
0001
0010
0100
1000
,
0001
0010
0100
1000
,
0001
0100
0010
1000
,
0001
0100
0010
1000
,
0100
1000
0010
1000
,
0100
1000
0010
1000
,
0001
0100
0001
0010
,
0001
0100
0001
0010
,
0100
1000
0010
0100
,
0001
0010
0100
1000
,
0010
0100
0010
0001
,
0010
0100
0010
1000
,
0001
0100
0010
1000
,
0100
0010
0001
0100
,
0110
0000
0000
0110
0000
0000
1001
0000
,
0000
1000
0001
0100
,
0010
0010
0010
0010
,
1000
1000
1000
1000
,
0001
0001
0001
0001
,
0010
0010
0010
0010
,
0100
0100
0100
0100
,
1000
1000
1000
1000
,
0001
0001
0001
0001
,
0100
0100
0100
0100
,
0010
0010
0010
0010
,
0001
0001
0001
0001
,
1000
1000
1000
1000
,
0100
0100
0100
0100
,
0001
0001
0001
0001
,
0010
0010
0010
0010
,
0100
0100
0100
0100
,
1000
1000
1000
1000
,
0001
0001
0100
0100
,
1000
1000
0100
0100
,
0001
0001
0010
0010
,
1000
1000
0010
0010
,
0001
0001
0100
0100
,
1000
1000
0001
0001
,
0010
0010
1000
1000
,
0001
0001
0010
0010
,
0100
0100
0001
0001
,
0100
0100
1000
1000
,
0010
0010
0001
0001
,
0010
0010
1000
1000
,
0010
0010
0001
0001
,
1000
1000
0100
0100
,
0001
0001
1000
1000
,
0100
0100
0010
0010
,
0220
0000
0000
0000
,
0330
0000
0000
0000
;

//---------------dance-single - The tolerable one (8thcrap)----------------
#NOTES:
     dance-single:
     Riakodoadm:
     Medium:
     14:
     0.886204,0.847975,0.168978,0.113735,0.471188,1909.000000,1857.000000,52.000000,35.000000,0.000000,0.000000,0.886204,0.847975,0.168978,0.113735,0.471188,1909.000000,1857.000000,52.000000,35.000000,0.000000,0.000000:
0000
0000
0000
0000
,
0000
0000
0000
0000
,
0000
0000
0000
0000
,
0000
0000
0000
0000
,
0001
0000
0000
1000
0000
0100
1000
0000
0000
0001
0000
0100
,
0001
0000
0000
0100
0000
0100
0010
0000
0010
1000
0000
0001
,
1000
0000
0000
0001
0000
0100
0001
0000
0000
1000
0000
0100
,
1000
0000
0000
0100
0000
0100
0010
0000
0010
0001
0000
0001
,
0000
0000
0000
0000
,
0000
0000
0000
0000
,
0002
0000
0010
0000
1003
0100
1000
0001
,
2000
0000
0010
0000
3001
0100
0001
1000
,
0020
0000
0100
0000
1030
0010
0100
0001
,
0200
0000
0010
0000
0301
1000
0100
0010
,
0002
0000
0100
0000
1003
0010
1000
0001
,
2000
0000
0100
0000
3001
0010
0001
1000
,
0200
0000
0010
0000
1300
0100
0010
0001
,
0020
0000
0000
0100
0000
0000
0031
0000
1000
0000
0010
0000
,
2000
0000
0100
0000
3001
0010
0001
1000
,
0002
0000
0100
0000
1003
0010
1000
0001
,
0200
0000
0010
0000
0301
0100
0010
1000
,
0010
0000
1000
0000
0001
0000
0100
0000
0001
0000
1000
0000
,
1001
0000
0011
0000
,
1010
0000
1001
0110
,
1001
0000
1010
0000
,
0011
0000
1001
0110
,
1001
0000
1100
0000
,
0101
0000
1001
0110
,
1001
0000
0101
0000
,
0000
0000
0000
0000
0001
0100
0010
1000
,
0010
0000
1000
0010
0000
0100
0010
0000
,
1000
0010
0100
0001
,
0010
0000
0100
0010
0000
0001
0010
0000
,
0001
0100
0010
1000
,
0001
0000
0010
0001
0000
1000
0010
0000
,
0100
1000
0100
0001
,
0010
0000
0100
0001
0000
0100
1000
0000
,
0010
0100
0001
0010
,
0001
0000
0100
0000
0001
0000
1000
0000
0001
0000
0100
0000
,
0001
0000
1000
0000
0100
0000
1000
0000
0001
0000
1000
0000
,
0010
0000
0100
0000
0001
0000
0100
0000
0010
0000
1000
0000
,
0100
0000
0010
0000
0001
0000
0010
0000
0100
0000
1000
0000
,
0001
0000
0010
0000
0100
0000
1000
0000
0010
0000
0100
0000
,
0001
0000
0100
0000
0010
0000
0100
0000
1000
0000
0100
0000
,
0001
0000
0100
0000
0010
0000
1000
0000
0100
0000
0010
0000
,
0100
0000
0001
0000
0100
0000
0010
0000
0100
0000
1000
0000
,
1001
0000
0001
0100
0001
0000
1000
0100
,
1000
0000
0000
0000
0010
0000
0000
0000
0100
0000
0000
0000
0001
0000
0000
1000
0000
0000
0001
0000
0000
1000
0000
0000
,
0001
0000
1000
0100
1000
0000
0001
0100
,
0001
0000
0000
0000
0010
0000
0000
0000
0100
0000
0000
0000
1000
0000
0000
0001
0000
0000
1000
0000
0000
0001
0000
0000
,
1000
0000
0001
0010
0001
0000
1000
0010
,
1000
0000
0000
0000
0100
0000
0000
0000
0010
0000
0000
0000
0001
0000
0000
1000
0000
0000
0001
0000
0000
1000
0000
0000
,
0001
0000
1000
0010
1000
0000
0001
0010
,
0000
0000
0000
0000
2002
0000
0000
3003
,
0001
0000
0001
0100
0010
0000
0010
1000
,
0100
0000
0100
1000
0001
0000
0001
0100
,
1000
0000
1000
0100
0010
0000
0010
1000
,
0002
0010
1000
0010
,
1003
0000
1000
0100
0010
0000
0010
0001
,
1000
0000
1000
0010
0100
0000
0100
0001
,
0010
0000
0010
0100
0001
0000
0001
0100
,
2000
0001
0100
0001
,
3100
0000
0100
1000
0001
0000
0001
0100
,
0010
0000
0010
1000
0001
0000
0001
0010
,
1000
0000
1000
0010
0001
0000
0001
0100
,
0020
1000
0100
1000
,
0130
0000
0100
0001
1000
0000
1000
0100
,
0001
0000
0001
0100
1000
0000
1000
0010
,
0100
0000
0001
0100
0010
0000
1000
0010
,
0100
0101
0110
1010
,
1000
0010
1000
0001
1000
0010
1000
0001
,
0100
0001
1000
0001
0100
0001
1000
0001
,
0100
0010
0100
0010
1000
0001
1000
0001
,
0010
0100
0010
0100
1000
0001
1000
0001
,
0010
0001
1000
0001
0010
0001
1000
0001
,
1000
0100
1000
0001
1000
0100
1000
0001
,
1000
0010
1000
0010
0100
0001
0100
0001
,
1000
0010
1000
0010
0100
0001
0100
0001
,
1000
0010
1000
0100
1000
0010
1000
0100
,
0010
0001
0100
0001
0010
0001
0100
0001
,
0010
0001
0010
0001
0010
0001
0010
0001
,
1000
0100
1000
0100
1000
0100
1000
0100
,
0010
0001
0100
0001
0010
0001
0100
0001
,
0010
0100
1000
0100
0010
0100
1000
0100
,
0010
0001
0100
0010
1000
0100
0010
0001
,
0100
0010
1000
0100
0010
0001
0100
0010
,
0000
0000
0000
0000
,
0000
0000
0000
0000
,
0000
0000
0000
0000
,
1000
0010
1000
0000
0010
0100
0010
0000
,
0100
0001
0100
0000
0001
1000
0001
0000
,
0010
0001
0010
0000
0100
0010
0100
0000
,
1000
0100
1000
0000
0001
0010
0001
0000
,
1000
0010
1000
0000
0001
0100
0001
0000
,
0010
0001
0010
0000
0100
1000
0100
0000
,
0010
0100
0010
0000
0001
1000
0001
0000
,
1000
0001
0100
0000
0001
1000
0100
0000
,
1000
0010
0100
0000
0010
0100
0001
0000
,
0010
0100
1000
0000
0100
1000
0010
0000
,
0100
0001
0010
0000
0001
1000
0010
0000
,
1000
0100
0001
0000
0100
1000
0010
0000
,
0001
0010
1000
0000
0001
0010
1000
0000
,
0001
0100
1000
0000
0001
0100
0010
0000
,
1000
0000
0010
0000
0100
0000
0001
0000
0100
0000
0010
0000
,
1000
0000
0001
0000
0010
0000
0100
0000
1000
0000
0010
0000
,
1000
0100
1000
0001
1000
0100
1000
0001
,
1000
0100
1000
0001
1000
0100
1000
0001
,
0100
0001
0100
0010
0100
0001
0100
0010
,
0100
0001
0100
0010
0100
0001
0100
0010
,
1000
0001
1000
0010
1000
0001
1000
0010
,
1000
0001
1000
0010
1000
0001
1000
0010
,
0100
0001
1000
0001
0100
0001
1000
0001
,
0100
0001
1000
0001
0100
0001
1000
0001
,
1000
0010
0100
0010
1000
0010
0100
0010
,
1000
0010
0100
0010
1000
0010
0100
0010
,
0100
0001
0010
0001
0100
0001
0010
0001
,
0100
0001
0010
0001
0100
0001
0010
0001
,
1000
0010
1000
0100
1000
0010
1000
0100
,
1000
0010
1000
0100
1000
0010
1000
0100
,
0010
0001
0100
0010
1000
0100
0010
0001
,
0100
0010
1000
0100
0010
0001
0100
0010
,
0000
0000
0000
0000
,
2000
0000
0100
0000
3001
0010
0001
1000
,
0002
0000
0100
0000
1003
0010
1000
0001
,
0200
0000
0010
0000
0301
0100
0010
1000
,
0020
0000
0100
0000
1030
0001
0010
0100
,
2000
0000
0010
0000
3001
0100
0001
1000
,
0002
0000
0010
0000
1003
0100
1000
0001
,
0020
0000
0100
0000
0031
0010
0100
1000
,
0200
0000
0010
0000
1300
0001
0100
0010
,
2000
0000
0100
0000
3001
0010
0001
1000
,
0002
0000
0100
0000
1003
0010
1000
0001
,
0200
0000
0010
0000
0301
0100
0010
1000
,
0020
0000
0100
0000
1030
0001
0010
0100
,
1000
0000
0100
0010
0001
0000
0100
0010
,
1000
0000
0010
0100
0001
0000
0010
0100
,
1000
0000
0010
1000
0100
0000
0010
0001
,
0100
0000
0010
1000
0001
0000
0100
0001
,
0010
0000
0000
0011
0000
1001
0000
0001
,
1000
0000
0000
1010
0000
1001
0000
0001
,
0100
0000
0000
0110
0000
1010
0000
1000
,
0100
0000
0110
0000
0011
0000
0001
1000
,
0200
0000
1000
0000
1000
0000
0310
0001
,
2000
0000
0010
0000
0010
0000
3001
0100
,
0020
0000
0100
0000
0100
0000
1030
0010
,
0200
0000
1000
0000
1000
0000
0310
1000
,
0001
0000
0000
0011
0000
0101
0000
0100
,
0010
0000
0000
1010
0000
1100
0000
0100
,
0010
0000
0000
0011
0000
1100
0000
0100
,
1000
1100
1001
0101
,
0100
0001
0100
0001
0100
0001
0100
0001
,
1000
0100
1000
0100
1000
0100
1000
0100
,
0010
0001
0010
0001
0010
0001
0010
0001
,
1000
0010
1000
0010
1000
0010
1000
0010
,
0100
0001
1000
0010
0100
0001
1000
0010
,
0100
0001
1000
0100
0010
0001
1000
0100
,
0010
0001
1000
0100
0010
0001
1000
0010
,
0100
0001
1000
0001
0010
0100
1000
0001
,
0010
0001
0010
0001
0010
0001
0010
0001
,
1000
0010
1000
0010
1000
0010
1000
0010
,
0100
0001
0100
0001
0100
0001
0100
0001
,
1000
0100
1000
0100
1000
0100
1000
0100
,
0010
0001
1000
0100
0010
0001
1000
0100
,
0010
0001
1000
0010
0100
0001
1000
0010
,
0100
0001
1000
0010
0100
0001
1000
0100
,
0010
0001
1000
0001
0100
0010
1000
0100
,
0020
0000
0000
0030
,
0000
0000
0000
0000
,
0001
0000
0001
0100
0000
0100
0001
0000
0001
0010
0000
0010
,
0001
0000
0001
0100
0000
0100
0010
0000
0010
1000
0000
1000
,
0010
0000
0010
1000
0000
1000
0100
0000
0100
1000
0000
1000
,
0010
0000
0010
0100
0000
0100
0001
0000
0001
1000
0000
1000
,
0001
0000
0001
0010
0000
0010
0100
0000
0100
1000
0000
1000
,
0001
0000
0001
0100
0000
0100
0010
0000
0010
1000
0000
1000
,
0100
0000
0100
0010
0000
0010
0001
0000
0001
0100
0000
0100
,
0010
0000
0010
1000
0000
1000
0001
0000
0001
0010
0000
0010
,
0001
0000
0001
0100
0000
0100
0001
0000
0001
0010
0000
0010
,
0001
0000
0001
0100
0000
0100
0010
0000
0010
1000
0000
1000
,
0010
0000
0010
1000
0000
1000
0100
0000
0100
1000
0000
1000
,
0010
0000
0010
0100
0000
0100
0001
0000
0001
1000
0000
1000
,
0001
0000
0001
0010
0000
0010
0100
0000
0100
1000
0000
1000
,
0001
0000
0001
0100
0000
0100
0010
0000
0010
1000
0000
1000
,
0100
0000
0100
0010
0000
0010
0001
0000
0001
0100
0000
0100
,
0010
0000
0010
1000
0000
1000
0001
0000
0001
0010
0000
0010
,
0001
0000
0001
0100
0000
0100
0001
0000
0001
0010
0000
0010
,
0001
0000
0001
0100
0000
0100
0010
0000
0010
1000
0000
1000
,
0010
0000
0010
1000
0000
1000
0100
0000
0100
1000
0000
1000
,
0010
0000
0010
0100
0000
0100
0001
0000
0001
1000
0000
1000
,
0001
0000
0001
0010
0000
0010
0100
0000
0100
1000
0000
1000
,
0001
0000
0001
0100
0000
0100
0010
0000
0010
1000
0000
1000
,
0100
0000
0100
0010
0000
0010
0001
0000
0001
0100
0000
0100
,
0010
0000
0010
1000
0000
1000
0001
0000
0001
0010
0000
0010
,
0001
0000
0001
0100
0000
0100
0001
0000
0001
0010
0000
0010
,
0001
0000
0001
0100
0000
0100
0010
0000
0010
1000
0000
1000
,
0010
0000
0010
1000
0000
1000
0100
0000
0100
1000
0000
1000
,
0010
0000
0010
0100
0000
0100
0001
0000
0001
1000
0000
1000
,
0001
0000
0001
0100
0000
0100
0001
0000
0001
0010
0000
0010
,
0001
0000
0001
0100
0000
0100
0010
0000
0010
1000
0000
1000
,
0010
0000
0010
1000
0000
1000
0100
0000
0100
1000
0000
1000
,
0010
0000
0010
0100
0000
0100
0001
0000
0001
1000
0000
1000
,
0001
0000
0001
0100
0000
0100
0001
0000
0001
0010
0000
0010
,
0001
0000
0001
0100
0000
0100
0010
0000
0010
1000
0000
1000
,
0001
0000
0001
0100
0000
0100
0001
0000
0001
0010
0000
0010
,
0001
0000
0001
0100
0000
0100
0010
0000
0010
1000
0000
1000
,
0001
0000
0100
0000
0001
0000
0010
0000
0001
0000
0100
0000
,
0010
0000
1000
0000
0100
0000
1000
0000
0010
0000
1000
0000
,
0001
0000
0100
0000
0001
0000
0010
0000
0001
0000
1000
0000
,
0100
1000
0001
0010
0100
1000
0001
0100
,
0020
0000
0000
0000
,
0000
0000
0000
0000
0130
0010
0100
0010
,
0100
0000
0001
0010
0000
0100
0010
0000
,
0001
0010
0001
0000
1000
0100
1000
0000
,
0010
0000
0100
0010
0000
1000
0010
0000
,
1000
0100
1000
0000
0001
0100
0001
0000
,
1000
0000
0010
1000
0000
0001
0010
0000
,
0100
0001
0100
0000
1000
0100
1000
0000
,
0010
0000
0100
1000
0000
0100
0001
0000
,
0010
0100
1000
0000
0010
0100
0001
0000
,
0010
0000
0001
0010
0000
0100
0010
0000
,
0001
0010
0001
0000
1000
0100
1000
0000
,
0010
0000
0100
0010
0000
1000
0010
0000
,
1000
0100
1000
0000
0001
0100
0001
0000
,
1000
0000
0010
1000
0000
0001
0010
0000
,
0100
0001
0100
0000
1000
0100
1000
0000
,
0010
0000
0100
1000
0000
0100
0001
0000
,
0010
0100
1000
0000
0010
0100
0001
0000
,
1000
0000
0100
0000
1000
0000
0001
0000
1000
0000
0100
0000
,
1000
0000
0001
0000
0100
0000
0001
0000
1000
0000
0001
0000
,
0010
0000
0100
0000
1000
0000
0100
0000
0010
0000
0001
0000
,
0100
0000
0010
0000
1000
0000
0010
0000
0100
0000
0001
0000
,
1000
0000
0010
0000
0100
0000
0001
0000
0010
0000
0100
0000
,
1000
0000
0100
0000
0010
0000
0100
0000
0001
0000
0100
0000
,
1000
0000
0100
0000
0010
0000
0001
0000
0100
0000
0010
0000
,
0100
0000
1000
0000
0100
0000
0010
0000
0100
0000
0001
0000
,
1000
0000
0100
0000
1000
0000
0001
0000
1000
0000
0100
0000
,
1000
0000
0001
0000
0100
0000
0001
0000
1000
0000
0001
0000
,
0010
0000
0100
0000
1000
0000
0100
0000
0010
0000
0001
0000
,
0100
0000
0010
0000
1000
0000
0010
0000
0100
0000
0001
0000
,
1000
0000
0010
0000
0100
0000
0001
0000
0010
0000
0100
0000
,
1000
0000
0100
0000
0010
0000
0100
0000
0001
0000
0100
0000
,
1000
0000
0100
0000
0010
0000
0001
0000
0100
0000
0010
0000
,
0100
0000
1000
0000
0100
0000
0010
0000
0100
0000
0001
0000
,
1001
1000
0100
0100
,
0010
0010
0001
0001
,
0101
0100
0010
0010
,
1000
1000
0001
0001
,
0011
0010
0100
0100
,
1000
1000
0010
0010
,
0110
0100
1000
1000
,
0100
0100
0001
0001
,
0011
0010
0100
0100
,
0001
0001
0100
0100
,
1100
1000
0010
0010
,
0100
0100
0001
0001
,
0011
0010
0100
0100
,
1000
1000
0010
0010
,
0110
0000
0000
1001
0000
0000
0110
0000
,
0000
1001
1010
0101
,
0001
0010
0001
0000
0010
0100
0010
0000
,
0100
1000
0100
0000
1000
0001
1000
0000
,
0010
1000
0010
0000
0100
0010
0100
0000
,
0001
0100
0001
0000
1000
0010
1000
0000
,
0001
0010
0001
0000
1000
0100
1000
0000
,
0010
1000
0010
0000
0100
0001
0100
0000
,
0010
0100
0010
0000
1000
0001
1000
0000
,
0001
1000
0100
0000
1000
0001
0100
0000
,
0001
0010
0100
0000
0010
0100
1000
0000
,
0010
0100
0001
0000
0100
0001
0010
0000
,
0100
1000
0010
0000
1000
0001
0010
0000
,
0001
0100
1000
0000
0100
0001
0010
0000
,
1000
0010
0001
0000
1000
0010
0001
0000
,
1000
0100
0001
0000
1000
0100
0010
0000
,
0001
0000
0010
0000
0100
0000
1000
0000
0100
0000
0010
0000
,
0001
0000
1000
0000
0010
0000
0100
0000
0001
0000
0010
0000
,
0001
0000
0001
0100
0010
0000
0010
1000
,
0100
0000
0100
1000
0001
0000
0001
0100
,
1000
0000
1000
0100
0010
0000
0010
1000
,
0100
0000
0100
1000
0010
0000
0100
0001
,
1000
0000
1000
0100
0010
0000
0010
0001
,
1000
0000
1000
0010
0100
0000
0100
0001
,
0010
0000
0010
0100
0001
0000
0001
0100
,
1000
0100
1000
0001
0010
0001
1000
0000
,
0100
0000
0100
1000
0001
0000
0001
0100
,
0010
0000
0010
1000
0001
0000
0001
0010
,
1000
0000
1000
0010
0001
0000
0001
0100
,
0010
0000
0010
1000
0100
0000
1000
0001
,
0100
0000
0100
0001
1000
0000
1000
0100
,
0001
0000
0001
0100
1000
0000
1000
0010
,
0100
0001
0100
0001
1000
0100
1000
0100
,
0010
0001
0100
0010
1000
0001
0100
0001
,
1000
0100
0010
0001
1000
0100
0010
0001
,
1000
0010
0100
0001
1000
0010
0100
0001
,
0100
0010
1000
0001
0100
0010
1000
0001
,
0010
0100
1000
0001
0010
0100
1000
0001
,
0010
0001
0100
0001
0010
0001
0100
0010
,
1000
0100
1000
0010
1000
0100
1000
0010
,
0100
0001
0010
0100
1000
0010
0100
0001
,
0010
0100
0010
0100
0001
0100
0010
0100
,
1000
0010
0100
0001
1000
0010
0100
0001
,
1000
0100
0010
0001
1000
0100
0010
0001
,
0010
0100
1000
0001
0010
0100
1000
0001
,
0100
0010
1000
0001
0100
0010
1000
0001
,
0100
0001
0010
0001
0100
0001
0010
0100
,
1000
0010
1000
0100
1000
0010
1000
0100
,
0010
0001
0100
0010
1000
0100
0010
0001
,
0100
0010
0100
0010
0001
0010
0100
0010
,
0200
0000
0000
0000
,
0300
0000
0000
0000
;

//---------------dance-single - ----------------
#NOTES:
     dance-single:
     Riakodoadm:
     Hard:
     19:
     1.420991,1.446546,0.064991,0.006499,2.263326,3061.000000,3041.000000,20.000000,2.000000,4.000000,0.000000,1.420991,1.446546,0.064991,0.006499,2.263326,3061.000000,3041.000000,20.000000,2.000000,4.000000,0.000000:
0000
0000
0000
0000
,
0000
0000
0000
0000
,
0000
0000
0000
0000
,
0000
0000
0000
0000
,
0001
0000
0000
1000
0100
1000
0100
0000
0000
0001
0100
0001
,
0100
0000
0000
0010
0001
1000
0010
0100
0001
1000
0010
0100
,
0001
0000
0000
1000
0010
1000
0010
0000
0000
0001
0010
0001
,
0010
0000
0000
0100
0001
1000
0100
0010
0001
1000
0100
0010
,
MMMM
0000
0000
0000
,
0000
0000
0000
0000
,
0001
0100
0001
1000
0010
1000
0001
0010
,
0100
1000
0001
1000
0010
0100
0001
1000
,
0100
1000
0010
0100
0001
0010
0100
0010
,
0001
1000
0100
0010
0001
1000
0010
0100
,
0001
0100
0001
1000
0010
1000
0001
0010
,
0100
1000
0001
1000
0010
0100
0001
1000
,
0100
1000
0010
0100
0001
0010
0100
0010
,
0001
1000
0100
0010
0001
1000
0010
0100
,
0001
0000
0100
0000
0001
0000
1000
0000
0010
1000
0001
0000
0010
0000
0100
0000
,
1000
0000
0100
0000
1000
0000
0001
0000
0010
0001
1000
0000
0010
0000
0100
0000
,
0001
1000
0010
0100
0001
0010
0100
1000
,
0010
0000
0010
0000
0010
0000
0100
0000
0100
0000
0100
0000
,
1001
0000
0001
0100
0101
0000
1000
0100
,
1100
0000
0000
0000
0000
0000
0000
0000
1000
0000
0000
0000
0000
0000
0000
0000
0001
0000
0000
0000
0000
0000
0000
0000
1001
0000
0000
0000
0000
0000
0000
0000
0000
1000
0000
0000
0100
0000
0000
1000
0000
0000
0100
0000
0000
1000
0000
0000
,
0001
0000
1000
0100
1100
0000
0001
0100
,
0101
0000
0000
0000
0000
0000
0000
0000
0001
0000
0000
0000
0000
0000
0000
0000
1000
0000
0000
0000
0000
0000
0000
0000
1001
0000
0000
0000
0000
0000
0000
0000
0000
0001
0000
0000
0100
0000
0000
0001
0000
0000
0100
0000
0000
0001
0000
0000
,
0100
0010
0100
0001
0010
0100
1000
0100
,
0010
0100
1000
0001
1000
0100
0010
0001
,
0010
0100
1000
0010
0100
0001
0100
0010
,
1000
0010
0100
0001
1000
0010
0100
0001
1000
0010
0100
0001
1000
0010
0100
0001
,
1000
0001
0100
0010
1000
0100
0010
0001
,
1000
0010
1000
0001
1000
0100
1000
0001
,
0010
0001
0100
0010
1000
0100
0010
0001
,
0100
0010
0100
0001
1000
0001
0100
0010
,
1000
0010
0100
0010
0001
0010
0100
0010
,
1000
0010
0100
0001
1000
0100
0010
0001
,
1000
0100
0010
0100
0001
0100
0010
0100
,
1000
0100
0010
0001
1000
0010
0100
0001
,
1000
0100
1000
0100
1000
0100
1000
0100
0010
0001
1000
0001
,
0100
0010
0100
0010
0100
0010
0100
0001
1000
0010
0100
0001
,
1000
0001
1000
0001
1000
0001
0100
0010
1000
0010
0100
0001
,
0010
0100
0010
0100
0010
0100
0010
0001
1000
0010
1000
0001
,
0100
0001
0100
0001
0100
0001
0010
0100
1000
0010
0100
0001
,
1000
0010
1000
0010
1000
0010
0100
0001
0010
0100
1000
0100
,
0010
0001
0010
0001
0010
0001
0100
0010
1000
0001
0010
0100
,
1000
0010
0100
0001
1000
0010
0100
0001
1000
0010
0100
0001
1000
0010
0100
0001
,
1000
0000
0001
0100
0101
0000
1000
0100
,
1100
0000
0000
0000
0000
0000
0000
0000
1000
0000
0000
0000
0000
0000
0000
0000
0001
0000
0000
0000
0000
0000
0000
0000
1001
0000
0000
0000
0000
0000
0000
0000
0000
1000
0000
0000
0100
0000
0000
1000
0000
0000
0100
0000
0000
1000
0000
0000
,
0001
0000
1000
0100
1100
0000
0001
0100
,
0101
0000
0000
0000
0000
0000
0000
0000
0001
0000
0000
0000
0000
0000
0000
0000
1000
0000
0000
0000
0000
0000
0000
0000
1001
0000
0000
0000
0000
0000
0000
0000
0000
0001
0000
0000
0100
0000
0000
0001
0000
0000
0100
0000
0000
0001
0000
0000
,
1000
0000
0001
0100
0101
0000
1000
0100
,
1100
0000
0000
0000
0000
0000
0000
0000
1000
0000
0000
0000
0000
0000
0000
0000
0001
0000
0000
0000
0000
0000
0000
0000
1001
0000
0000
0000
0000
0000
0000
0000
0000
1000
0000
0000
0100
0000
0000
1000
0000
0000
0100
0000
0000
1000
0000
0000
,
0001
0000
1000
0100
1100
0000
0001
0100
,
0000
0000
0000
0000
0000
0000
0000
0000
0001
0010
0100
1000
0001
0010
0100
1000
,
0100
1000
0001
1000
0100
1000
0001
1000
,
0100
0010
0100
0001
0100
0010
0100
1000
,
0001
0100
0001
1000
0001
0010
0001
1000
,
0010
0100
0010
0001
0010
0100
0010
1000
,
0001
0100
0001
0010
0001
1000
0001
0100
,
0010
0001
0010
1000
0010
0100
0010
1000
,
0100
0010
0100
0001
0100
1000
0100
0010
,
0100
1000
0010
1000
0100
1000
0001
0100
,
0010
0100
1000
0100
0010
0100
0001
0010
,
0100
0010
1000
0010
0100
0010
0001
1000
,
0010
0100
0010
0001
0010
0100
0010
1000
,
0100
0001
0100
0010
0100
1000
0100
0001
,
0100
0010
0001
0010
0100
0010
1000
0010
,
0001
0100
0001
1000
0001
0010
0001
0100
,
0010
0000
1000
0000
0001
0000
0010
0000
0001
0000
1000
0000
0010
1000
0001
0100
,
0010
1010
1001
0011
,
0001
0010
0001
1000
0100
1000
0001
0010
0001
1000
0100
1000
,
0001
0100
0001
0100
0010
0100
0001
0100
0001
0100
0010
0100
,
0010
1000
0001
1000
0010
1000
0001
1000
0010
1000
0001
1000
,
0100
1000
0100
0010
0001
0010
0100
1000
0100
0010
0001
0010
,
0001
0100
0001
1000
0010
1000
0001
0100
0001
1000
0010
1000
,
0001
0010
0001
0010
0100
0010
0001
0010
0001
0010
0100
0010
,
0100
1000
0100
1000
0001
1000
0100
1000
0100
1000
0001
1000
,
0010
1000
0010
0100
0001
0100
0010
1000
0010
0100
0001
0100
,
0010
1000
0010
0100
0001
0100
0010
1000
0010
0100
0001
0100
,
0010
1000
0010
1000
0100
1000
0010
1000
0010
1000
0100
1000
,
0001
0010
0001
1000
0001
1000
0001
0010
0001
1000
0001
1000
,
0001
0100
0001
1000
0010
1000
0001
0100
0001
1000
0010
1000
,
0001
0100
0001
1000
0010
1000
0001
0010
0100
1000
0010
0100
,
0001
0010
0001
1000
0100
1000
0001
0100
0010
1000
0100
0010
,
0001
0100
0001
1000
0010
1000
0001
0010
0001
1000
0100
1000
,
0010
0100
0001
0010
0100
1000
0010
0100
0001
0010
0100
1000
,
0000
0000
0000
0000
,
0000
0000
0000
0000
,
0000
0000
0000
0000
,
1000
0001
0010
0001
0100
0001
1000
0001
,
0100
0010
0100
1000
0100
0010
0100
0001
,
1000
0100
1000
0001
1000
0010
1000
0001
,
0010
0100
0010
1000
0010
0100
0010
0001
,
1000
0100
1000
0010
1000
0001
1000
0100
,
0010
1000
0010
0001
0010
0100
0010
0001
,
0100
0010
0100
1000
0100
0001
0100
0010
,
0100
0001
0010
0001
0100
0001
1000
0100
,
0010
0100
0001
0100
0010
0100
1000
0010
,
0100
0010
0001
0010
0100
0010
1000
0001
,
0010
0100
0010
1000
0010
0100
0010
0001
,
0100
1000
0100
0010
0100
0001
0100
1000
,
0100
0010
1000
0010
0100
0010
0001
0010
,
1000
0100
1000
0001
1000
0010
1000
0100
,
1000
0100
1000
0001
0100
0001
1000
0001
0100
0001
1000
0100
,
1000
0010
1000
0001
0010
0001
1000
0001
0010
0100
1000
0010
,
0100
0001
0100
0010
1000
0001
0100
0001
0100
0010
1000
0001
,
0100
0001
0100
0010
1000
0001
0100
0001
0100
0010
1000
0001
,
1000
0100
1000
0010
0100
0001
1000
0100
1000
0010
0100
0001
,
1000
0100
1000
0010
0100
0001
1000
0100
1000
0010
0100
0001
,
1000
0010
1000
0001
0100
0001
1000
0010
1000
0001
0100
0001
,
1000
0010
1000
0001
0100
0001
1000
0010
1000
0001
0100
0001
,
0010
0001
0010
0100
1000
0100
0010
0001
0010
0100
1000
0100
,
0010
0001
0010
0100
1000
0100
0010
0001
0010
0100
1000
0100
,
1000
0001
1000
0100
0010
0100
1000
0001
1000
0100
0010
0100
,
1000
0001
1000
0100
0010
0100
1000
0001
1000
0100
0010
0100
,
1000
0010
1000
0100
0010
0001
1000
0010
1000
0100
0010
0001
,
1000
0010
1000
0100
0010
0001
1000
0010
1000
0100
0010
0001
,
1000
0010
1000
0001
1000
0100
1000
0010
1000
0001
1000
0100
,
1000
0010
1000
0001
1000
0100
1000
0010
1000
0001
1000
0100
,
1000
0001
0100
0010
1000
0100
0010
0001
0010
0100
1000
0010
,
0100
0001
0100
0010
1000
0100
0010
0001
0010
0100
1000
0010
,
0000
0000
0000
0000
,
1000
0100
1000
0001
0010
0001
1000
0010
,
0100
0001
1000
0001
0010
0100
1000
0001
,
0100
0001
0010
0100
1000
0010
0100
0010
,
1000
0001
0100
0010
1000
0001
0010
0100
,
1000
0100
1000
0001
0010
0001
1000
0010
,
0100
0001
1000
0001
0010
0100
1000
0001
,
0100
0001
0010
0100
1000
0010
0100
0010
,
1000
0001
0100
0010
1000
0001
0010
0100
,
1000
0100
1000
0001
0010
0001
1000
0010
,
0100
0001
0100
0010
1000
0001
0010
0100
,
1000
0001
0010
0100
1000
0010
0100
0001
,
0010
1000
0010
0100
0010
0001
1000
0010
,
1000
0010
1000
0010
1000
0010
0100
0001
0100
0001
0100
0001
,
1000
0010
1000
0010
1000
0010
0100
0001
0100
0001
0100
0001
,
1000
0100
1000
0100
1000
0100
0010
0001
0010
0001
0010
0001
,
1000
0100
1000
0100
1000
0100
0010
0001
0010
0001
0010
0001
,
0010
0100
0010
0100
0010
0100
1000
0001
1000
0001
1000
0001
,
0010
0001
0010
0001
0010
0001
1000
0010
1000
0010
1000
0010
,
0100
0001
0100
0001
0100
0001
1000
0100
1000
0100
1000
0100
,
0010
0001
0010
0001
0010
0001
1000
0001
1000
0001
1000
0001
,
1000
0100
1000
0100
1000
0100
0010
0001
1000
0001
0010
0001
,
1000
0100
1000
0100
1000
0100
0010
0001
0100
0001
0010
0001
,
1000
0010
1000
0010
1000
0010
0100
0001
1000
0001
0100
0001
,
1000
0010
1000
0010
1000
0010
0100
0001
0010
0001
0100
0001
,
0100
0010
0100
0010
0100
0010
1000
0001
0010
0100
1000
0001
,
0100
0001
0100
0001
0100
0001
1000
0100
0010
0001
1000
0100
,
0010
0001
0010
0001
0010
0001
1000
0010
0100
0001
1000
0010
,
0100
0000
0000
0000
0001
0000
0000
0000
0100
0000
0000
0000
0001
0000
0000
0000
0100
0000
0000
0000
0001
0000
0000
0000
1000
0000
0000
0010
0000
0000
0100
0000
0000
0001
0000
0000
1000
0000
0000
0010
0000
0000
0100
0000
0000
0001
0000
0000
,
1000
0010
0100
0010
1000
0010
1000
0001
0010
0001
1000
0001
,
0010
0001
1000
0010
1000
0001
0100
0001
1000
0100
1000
0001
,
1000
0100
0010
0100
1000
0001
0010
0001
1000
0010
1000
0001
,
0010
0100
0010
0001
1000
0010
0100
0001
0100
0010
1000
0001
,
0010
0100
1000
0010
0100
0010
1000
0001
1000
0010
0100
0001
,
0010
0100
0010
0001
1000
0001
1000
0010
0100
0001
0010
0100
,
0010
0001
0100
0010
0100
0001
1000
0100
0010
0001
1000
0100
,
0010
0001
1000
0010
0100
0001
0010
0001
1000
0100
0010
0001
,
1000
0010
0100
0010
1000
0010
1000
0001
0010
0001
1000
0001
,
0010
0001
1000
0010
1000
0001
0100
0001
1000
0100
1000
0001
,
1000
0100
0010
0100
1000
0001
0010
0001
1000
0010
1000
0001
,
0010
0100
0010
0001
1000
0010
0100
0001
0100
0010
1000
0001
,
0010
0100
1000
0010
0100
0010
1000
0001
1000
0010
0100
0001
,
0010
0100
0010
0001
1000
0001
1000
0010
0100
0001
0010
0100
,
0010
0001
0100
0010
0100
0001
1000
0100
0010
0001
1000
0100
,
0010
0001
1000
0010
0100
0001
0010
0001
1000
0100
0010
0001
,
2000
0000
0000
3000
,
0000
0000
0000
0000
,
0001
0100
0001
1000
0100
1000
0010
0100
0001
0010
0100
1000
,
0010
1000
0010
1000
0100
1000
0100
0010
0001
0010
0100
1000
,
0001
0100
0001
1000
0010
1000
0010
0100
0001
0010
0100
1000
,
0100
1000
0100
0010
0001
0010
0001
0100
0010
1000
0100
0010
,
0001
0010
0100
0010
0001
0010
0100
1000
0001
0010
0100
1000
,
0010
0100
0010
1000
0010
0100
0001
0010
0100
1000
0001
0010
,
0100
1000
0001
0100
0001
1000
0010
0100
0001
0010
0100
1000
,
0001
0100
0001
1000
0100
1000
0010
0100
0001
0010
0100
1000
,
0001
0100
0001
1000
0100
1000
0010
0100
0001
0010
0100
1000
,
0010
1000
0010
1000
0100
1000
0100
0010
0001
0010
0100
1000
,
0001
0100
0001
1000
0010
1000
0010
0100
0001
0010
0100
1000
,
0100
1000
0100
0010
0001
0010
0001
0100
0010
1000
0100
0010
,
0001
0010
0100
0010
0001
0010
0100
1000
0001
0010
0100
1000
,
0010
0100
0010
1000
0010
0100
0001
0010
0100
1000
0001
0010
,
0100
1000
0001
0100
0001
1000
0010
0100
0001
0010
0100
1000
,
0001
0100
0001
1000
0100
1000
0010
0100
0001
0010
0100
1000
,
0001
0100
0001
1000
0100
1000
0010
0100
0001
0010
0100
1000
,
0010
1000
0010
1000
0100
1000
0100
0010
0001
0010
0100
1000
,
0001
0100
0001
1000
0010
1000
0010
0100
0001
0010
0100
1000
,
0100
1000
0100
0010
0001
0010
0001
0100
0010
1000
0100
0010
,
0001
0010
0100
0010
0001
0010
0100
1000
0001
0010
0100
1000
,
0010
0100
0010
1000
0010
0100
0001
0010
0100
1000
0001
0010
,
0100
1000
0001
0100
0001
1000
0010
0100
0001
0010
0100
1000
,
0001
0100
0001
1000
0100
1000
0010
0100
0001
0010
0100
1000
,
0001
0100
0001
1000
0100
1000
0010
0100
0001
0010
0100
1000
,
0010
1000
0010
1000
0100
1000
0100
0010
0001
0010
0100
1000
,
0001
0100
0001
1000
0010
1000
0010
0100
0001
0010
0100
1000
,
0100
1000
0100
0010
0001
0010
0001
0100
0010
1000
0100
0010
,
0001
0100
0001
1000
0100
1000
0010
0100
0001
0010
0100
1000
,
0010
1000
0010
1000
0100
1000
0100
0010
0001
0010
0100
1000
,
0001
0100
0001
1000
0010
1000
0010
0100
0001
0010
0100
1000
,
0100
1000
0100
0010
0001
0010
0001
0100
0010
1000
0100
0010
,
0001
0100
0001
1000
0100
1000
0010
0100
0001
0010
0100
1000
,
0010
1000
0010
1000
0100
1000
0100
0010
0001
0010
0100
1000
,
0001
0100
0001
1000
0100
1000
0010
0100
0001
0010
0100
1000
,
0010
1000
0010
1000
0100
1000
0100
0010
0001
0010
0100
1000
,
0001
0100
0001
1000
0100
1000
0010
0100
0001
0010
0100
1000
,
0001
0100
0001
1000
0100
1000
0010
0100
0001
0010
0100
1000
,
0001
0100
0001
1000
0100
1000
0010
0100
0001
0010
0100
1000
,
0001
0100
0001
1000
0100
1000
0010
0100
0001
0010
0100
1000
,
0010
0100
0010
0100
0010
0100
0010
0100
0010
0100
0010
0100
,
0010
0000
0000
0000
0100
0000
0000
0000
0010
0000
0000
0000
0100
0000
0000
0000
0010
0000
0000
0000
0100
0000
0000
0000
0010
0000
0000
1000
0000
0000
0001
0000
0000
0100
0000
0000
0010
0000
0000
1000
0000
0000
0001
0000
0000
0100
0000
0000
,
0010
1000
0100
0010
0001
0100
0010
1000
,
0001
0010
0001
1000
0001
0100
0001
1000
,
0010
1000
0100
0010
0001
0100
0010
1000
,
0100
0010
0100
1000
0001
1000
0100
0010
,
0001
0010
0100
0010
1000
0010
0100
0010
,
0001
0010
0100
1000
0001
0100
0010
1000
,
0001
0100
0010
0100
1000
0100
0010
0100
,
0001
0100
0010
1000
0001
0010
0100
1000
,
0010
1000
0100
0010
0001
0100
0010
1000
,
0001
0010
0001
1000
0001
0100
0001
1000
,
0010
1000
0100
0010
0001
0100
0010
1000
,
0100
0010
0100
1000
0001
1000
0100
0010
,
0001
0010
0100
0010
1000
0010
0100
0010
,
0001
0010
0100
1000
0001
0100
0010
1000
,
0001
0100
0010
0100
1000
0100
0010
0100
,
0001
0100
0010
1000
0001
0010
0100
1000
,
0001
0100
0001
0100
0001
0100
0001
0100
0010
1000
0001
1000
,
0100
0010
0100
0010
0100
0010
0100
1000
0001
0010
0100
1000
,
0001
1000
0001
1000
0001
1000
0100
0010
0001
0010
0100
1000
,
0010
0100
0010
0100
0010
0100
0010
1000
0001
0010
0001
1000
,
0100
1000
0100
1000
0100
1000
0010
0100
0001
0010
0100
1000
,
0001
0010
0001
0010
0001
0010
0100
1000
0010
0100
0001
0100
,
0010
1000
0010
1000
0010
1000
0100
0010
0001
1000
0010
0100
,
0001
0010
0100
1000
0001
0010
0100
1000
0001
0010
0100
1000
0001
0010
0100
1000
,
0001
0010
0001
0010
0001
0010
0001
0010
0100
1000
0001
1000
,
0010
0100
0010
0100
0010
0100
0010
1000
0001
0100
0010
1000
,
0001
1000
0001
1000
0001
1000
0010
0100
0001
0100
0010
1000
,
0100
0010
0100
0010
0100
0010
0100
1000
0001
0100
0001
1000
,
0010
1000
0010
1000
0010
1000
0100
0010
0001
0100
0010
1000
,
0001
0100
0001
0100
0001
0100
0010
1000
0100
0010
0001
0010
,
0100
1000
0100
1000
0100
1000
0010
0100
0001
1000
0100
0010
,
0001
0100
0010
1000
0001
0100
0010
1000
0001
0100
0010
1000
0001
0100
0010
1000
,
0010
1000
0001
1000
0100
1000
0001
1000
,
0100
0010
0100
0001
0100
0010
0100
1000
,
0001
0100
0001
1000
0001
0010
0001
1000
,
0010
0100
0010
0001
0010
0100
0010
1000
,
0001
0100
0001
0010
0001
1000
0001
0100
,
0010
0001
0010
1000
0010
0100
0010
1000
,
0100
0010
0100
0001
0100
1000
0100
0010
,
0100
1000
0010
1000
0100
1000
0001
0100
,
0010
0100
1000
0100
0010
0100
0001
0010
,
0100
0010
1000
0010
0100
0010
0001
1000
,
0010
0100
0010
0001
0010
0100
0010
1000
,
0100
0001
0100
0010
0100
1000
0100
0001
,
0100
0010
0001
0010
0100
0010
1000
0010
,
0001
0100
0001
1000
0001
0010
0001
0100
,
0010
1000
0001
0010
0001
1000
0010
0001
,
0010
1000
0100
0010
0100
0001
0100
1000
,
0001
1000
0010
1000
0100
1000
0001
1000
,
0100
0010
0100
0001
0100
0010
0100
1000
,
0001
0100
0001
1000
0001
0010
0001
1000
,
0010
0100
0010
0001
0010
0100
0010
1000
,
0001
0100
0001
0010
0001
1000
0001
0100
,
0010
0001
0010
1000
0010
0100
0010
1000
,
0100
0010
0100
0001
0100
1000
0100
0010
,
0100
1000
0010
1000
0100
1000
0001
0100
,
0010
0100
1000
0100
0010
0100
0001
0010
,
0100
0010
1000
0010
0100
0010
0001
1000
,
0010
0100
0010
0001
0010
0100
0010
1000
,
0100
0001
0100
0010
0100
1000
0100
0001
,
0100
0010
0001
0010
0100
0010
1000
0010
,
0001
0100
0001
1000
0001
0010
0001
0100
,
0001
0100
0001
1000
0100
1000
0001
1000
0100
1000
0001
0100
,
0001
0010
0001
1000
0010
1000
0001
1000
0010
0100
0001
0010
,
0001
0100
0001
0100
0001
0100
0010
1000
0010
1000
0010
1000
,
0001
0100
0001
0100
0001
0100
0010
1000
0010
1000
0010
1000
,
0001
0010
0001
0010
0001
0010
0100
1000
0100
1000
0100
1000
,
0001
0010
0001
0010
0001
0010
0100
1000
0100
1000
0100
1000
,
0100
0010
0100
0010
0100
0010
0001
1000
0001
1000
0001
1000
,
0100
1000
0100
1000
0100
1000
0001
0100
0001
0100
0001
0100
,
0010
1000
0010
1000
0010
1000
0001
0010
0001
0010
0001
0010
,
0100
1000
0100
1000
0100
1000
0001
1000
0001
1000
0001
1000
,
0001
0010
0001
0010
0001
0010
0100
1000
0001
1000
0100
1000
,
0001
0010
0001
0010
0001
0010
0100
1000
0010
1000
0100
1000
,
0001
0100
0001
0100
0001
0100
0010
1000
0001
1000
0010
1000
,
0001
0100
0001
0100
0001
0100
0010
1000
0100
1000
0010
1000
,
0010
0100
0010
0100
0010
0100
0001
1000
0100
0010
0001
1000
,
0010
1000
0010
1000
0010
1000
0001
0010
0100
1000
0001
0010
,
0100
1000
0100
1000
0100
1000
0001
0100
0010
1000
0001
0100
,
0010
1000
0010
1000
0010
1000
0001
0010
0001
1000
0010
1000
,
0001
0010
0100
0010
0001
0010
0001
1000
0010
1000
0001
1000
,
0010
1000
0001
0010
0001
1000
0100
1000
0001
0100
0001
1000
,
0001
0100
0010
0100
0001
1000
0010
1000
0001
0010
0001
1000
,
0010
0100
0010
1000
0001
0010
0100
1000
0100
0010
0001
1000
,
0010
0100
0001
0010
0100
0010
0001
1000
0001
0010
0100
1000
,
0010
0100
0010
1000
0001
1000
0001
0010
0100
1000
0010
0100
,
0010
1000
0100
0010
0100
1000
0001
0100
0010
1000
0001
0100
,
0010
1000
0100
0010
0001
0010
0100
1000
0010
0100
0001
1000
,
0001
0100
0010
0100
0001
0100
0001
1000
0100
1000
0001
1000
,
0100
1000
0001
0100
0001
1000
0010
1000
0001
0010
0001
1000
,
0001
0010
0100
0010
0001
1000
0100
1000
0001
0100
0001
1000
,
0100
0010
0100
1000
0001
0100
0010
1000
0010
0100
0001
1000
,
0100
0010
0001
0100
0010
0100
0001
1000
0001
0100
0010
1000
,
0100
0010
0100
1000
0001
1000
0001
0100
0010
1000
0100
0010
,
0100
1000
0010
0100
0010
1000
0001
0010
0100
1000
0001
1000
,
0010
0100
0010
1000
0001
0100
0010
1000
0010
0100
0001
1000
0010
0100
0001
1000
,
0020
0000
0000
0000
,
0030
0000
0000
0000
;
