#VERSION:0.83;
#TITLE:Rightful destination;
#SUBTITLE:;
#ARTIST:CHAOS_CUT;
#TITLETRANSLIT:;
#SUBTITLETRANSLIT:;
#ARTISTTRANSLIT:;
#GENRE:ABSTRACT SPEED DAYMARE;
#ORIGIN:;
#CREDIT:(this simfile, 2021/2022);
#BANNER:Rightful destination.png;
#BACKGROUND:Rightful destination-bg.png;
#PREVIEWVID:;
#JACKET:Rightful destination-jacket.png;
#CDIMAGE:;
#DISCIMAGE:;
#LYRICSPATH:;
#CDTITLE:;
#MUSIC:Rightful destination.ogg;
#OFFSET:0.000000;
#SAMPLESTART:69.056000;
#SAMPLELENGTH:12.000000;
#SELECTABLE:YES;
#DISPLAYBPM:122.000000:444.000000;
#BPMS:0.000=122.000,
36.000=444.000,
148.000=222.000,
216.000=444.000,
344.000=3552.000,
348.000=444.000,
460.000=122.000;
#STOPS:344.000=0.118,
345.000=0.118,
346.000=0.118,
347.000=0.118;
#DELAYS:;
#WARPS:;
#TIMESIGNATURES:0.000=4=4,
36.000=7=4,
148.000=4=4,
348.000=7=4,
460.000=4=4;
#TICKCOUNTS:0.000=4;
#COMBOS:0.000=1;
#SPEEDS:0.000=0.500=0.000=0,
33.500=0.550=0.500=0,
34.000=0.600=0.500=0,
34.500=0.700=0.500=0,
35.000=1.000=1.000=0;
#SCROLLS:0.000=2.000,
36.000=1.000;
#FAKES:;
#LABELS:0.000=Song Start,
504.000=Song End;
#BGCHANGES:;
#KEYSOUNDS:;
#ATTACKS:
;

//---------------dance-single - Good luck----------------
#NOTEDATA:;
#CHARTNAME:Challenge;
#STEPSTYPE:dance-single;
#DESCRIPTION:Good luck;
#CHARTSTYLE:;
#DIFFICULTY:Challenge;
#METER:20;
#RADARVALUES:0.971730,1.415234,0.143770,0.763777,0.071885,757.000000,741.000000,16.000000,85.000000,0.000000,0.000000,0.000000,0.000000,0.000000,0.971730,1.415234,0.143770,0.763777,0.071885,757.000000,741.000000,16.000000,85.000000,0.000000,0.000000,0.000000,0.000000,0.000000;
#CREDIT:Riakodoadm;
#DISPLAYBPM:122.000000:444.000000;
#NOTES:
// measure 0
0000
0000
0000
0000
,  // measure 1
0000
0000
0000
0000
,  // measure 2
0000
0000
0000
0000
,  // measure 3
0000
0000
0000
0000
,  // measure 4
0002
0000
1000
0000
0010
0000
1003
0100
,  // measure 5
2000
0000
3010
0200
0010
0302
1000
0000
,  // measure 6
0013
0000
0100
0000
0001
0000
0100
0000
2000
0000
0000
3000
0010
0000
0100
0000
,  // measure 7
0002
0000
0000
0003
,  // measure 8
0000
0000
0000
0000
,  // measure 9
1000
0100
0010
0001
,  // measure 10
0022
0033
1000
2200
,  // measure 11
3300
0100
0010
0001
,  // measure 12
1000
0010
0100
0001
,  // measure 13
1000
0010
0220
0330
,  // measure 14
0001
2002
3003
1000
,  // measure 15
0100
0010
0100
1000
,  // measure 16
0010
0100
0001
1000
,  // measure 17
2020
3030
0010
0220
,  // measure 18
0330
0100
1000
0100
,  // measure 19
0001
1000
0010
1000
,  // measure 20
0100
0010
0022
0033
,  // measure 21
0001
0202
0303
0100
,  // measure 22
0010
0000
1000
0000
0001
0000
0001
1000
,  // measure 23
0001
0100
0010
1000
,  // measure 24
2020
3030
0001
0202
,  // measure 25
0303
0100
0010
1000
,  // measure 26
0001
0010
0100
1000
,  // measure 27
0001
0010
0220
0330
,  // measure 28
1000
2002
3003
0001
,  // measure 29
0100
0010
0100
0001
,  // measure 30
0010
0100
1000
0001
,  // measure 31
0022
0033
0010
0220
,  // measure 32
0330
0100
0001
0100
,  // measure 33
1000
0000
0001
1000
0001
0000
0100
0000
,  // measure 34
1000
0100
0001
0010
,  // measure 35
1000
0000
0010
0000
0001
0000
1000
0100
,  // measure 36
1000
0000
0001
0100
0010
1000
0001
0010
,  // measure 37
0000
0000
0000
0000
,  // measure 38
0000
0000
0000
0000
,  // measure 39
0002
0000
0000
0003
0100
0000
0001
0000
2000
0000
0000
3000
0100
0000
1000
0000
,  // measure 40
0002
2003
3020
0230
,  // measure 41
0301
0010
0100
1000
0002
0003
1000
0100
,  // measure 42
1000
0010
0100
0001
0020
0000
0032
0000
,  // measure 43
2003
0000
0000
3000
0100
0000
1000
0000
0002
0000
0000
0003
0100
0000
0001
0000
,  // measure 44
2000
3002
0023
0230
,  // measure 45
1300
0010
0100
0001
2000
3000
0001
0100
,  // measure 46
0001
0010
0100
1000
0020
0000
2030
0000
,  // measure 47
3001
0100
0010
0001
0010
1000
0002
0000
,  // measure 48
1003
0100
0010
1000
0010
0001
2000
0000
,  // measure 49
3200
0000
0310
0000
0000
0100
0001
0100
,  // measure 50
0020
0000
0031
0100
0020
0000
2030
0000
,  // measure 51
3002
0000
0103
1000
0100
0010
1000
0001
,  // measure 52
1000
0010
0100
0001
0100
0010
0001
0010
,  // measure 53
1000
0100
0000
1000
0100
0000
0010
0100
0000
0010
0100
0000
0010
0001
0000
0010
0001
0000
1000
0001
0000
1000
0001
0000
,  // measure 54
1000
0100
1000
0001
0100
0001
1000
0100
,  // measure 55
1000
0001
0100
0001
1000
0001
0100
0001
,  // measure 56
1000
0100
0010
0001
1000
0100
0010
0001
,  // measure 57
0010
0100
0010
0001
1000
0010
0100
0001
,  // measure 58
1000
0010
1000
0001
0100
0001
1000
0010
,  // measure 59
1000
0001
0100
0001
1000
0100
0010
0001
,  // measure 60
1000
0010
1000
0001
0100
0010
1000
0001
,  // measure 61
0010
0100
1000
0010
0100
0001
0010
0100
,  // measure 62
1000
0001
0100
0001
1000
0100
1000
0001
,  // measure 63
0100
0001
1000
0010
1000
0001
0010
0100
,  // measure 64
0010
0001
1000
0010
1000
0001
0010
0001
,  // measure 65
0100
0010
1000
0100
1000
0010
0100
0001
,  // measure 66
0100
0010
1000
0010
0100
0010
0100
0010
,  // measure 67
1000
0010
0100
0010
0100
0010
1000
0100
,  // measure 68
1000
0001
0100
0001
0010
0100
1000
0001
,  // measure 69
0010
0001
1000
0010
1000
0010
0100
0001
,  // measure 70
1000
0100
1000
0001
0100
0010
1000
0100
,  // measure 71
1000
0001
0100
0010
1000
0100
1000
0001
,  // measure 72
0100
0010
1000
0100
1000
0001
1000
0010
,  // measure 73
0100
0010
1000
0001
0010
0100
1000
0001
,  // measure 74
0100
0001
0100
0001
0100
0010
0100
0010
,  // measure 75
1000
0010
1000
0010
1000
0001
1000
0001
,  // measure 76
1000
0010
0100
0001
0000
0000
0001
0100
0010
1000
0000
0000
,  // measure 77
1000
0100
0010
0001
0000
0000
0001
0010
0100
1000
0000
0000
,  // measure 78
0001
0100
0001
0100
0010
0100
0001
0100
,  // measure 79
0001
0100
0010
0100
0001
1000
0010
0100
,  // measure 80
0010
1000
0010
1000
0001
1000
0010
1000
,  // measure 81
0010
1000
0001
1000
0010
1000
0001
0100
,  // measure 82
0001
0100
0001
1000
0020
0000
1030
0100
,  // measure 83
1000
0001
0020
0000
0031
0100
0001
1000
,  // measure 84
0020
0000
0130
0001
1000
0010
0100
0001
,  // measure 85
0010
0100
1000
0010
0100
0001
0010
0100
,  // measure 86
2000
0000
0000
0000
,  // measure 87
3001
0100
0010
1000
0010
0100
0001
0100
,  // measure 88
0010
1000
0010
0100
0001
0100
0010
1000
,  // measure 89
0100
0010
0001
0010
0100
1000
0100
0010
,  // measure 90
0001
0010
0100
1000
0001
0010
0100
1000
,  // measure 91
0001
0100
0010
1000
0010
0100
0001
1000
,  // measure 92
0010
1000
0001
0010
0001
1000
0100
1000
,  // measure 93
0001
0100
0010
0100
0001
1000
0100
1000
,  // measure 94
0010
0100
0001
1000
0010
0100
0001
1000
,  // measure 95
0010
0100
0001
1000
0010
0100
0001
0010
,  // measure 96
0100
1000
0001
0010
0100
1000
0001
0010
,  // measure 97
0100
1000
0001
0010
0100
1000
0010
0100
,  // measure 98
0001
0100
0010
1000
0001
0010
0100
1000
,  // measure 99
0010
0100
0001
0100
0010
1000
0001
0010
,  // measure 100
0001
1000
0100
1000
0010
0100
0001
0010
,  // measure 101
0001
0100
0010
1000
0010
0100
0001
0100
,  // measure 102
0010
1000
0010
0100
0001
0100
0010
1000
,  // measure 103
0100
0010
0001
0010
0100
1000
0100
0010
,  // measure 104
0001
0010
0100
1000
0001
0010
0100
1000
,  // measure 105
0001
0100
0010
1000
0010
0100
0001
1000
,  // measure 106
0010
1000
0001
0010
0001
1000
0100
1000
,  // measure 107
0001
0100
0010
0100
0001
1000
0100
1000
,  // measure 108
0010
0100
0001
1000
0010
0100
0001
1000
,  // measure 109
0010
0100
0001
1000
0010
0100
0001
0010
,  // measure 110
0100
1000
0001
0010
0100
1000
0001
0010
,  // measure 111
0100
1000
0001
0010
0100
1000
0010
0100
,  // measure 112
0001
0100
0010
1000
0001
0010
0100
1000
,  // measure 113
0010
0100
0001
0100
0010
1000
0001
0010
,  // measure 114
0001
1000
0100
1000
0010
0100
0001
0010
,  // measure 115
0000
0000
0000
0000
,  // measure 116
0000
0000
0000
0000
,  // measure 117
0000
0000
2000
0001
,  // measure 118
0010
0000
3001
0100
0002
0000
0013
0200
,  // measure 119
0010
0000
2300
0000
0001
0000
0000
0000
3200
0000
0000
0300
0020
0000
0000
0030
,  // measure 120
0200
0000
0000
0300
0002
0000
0000
0003
0200
0000
0000
0000
1000
0000
0300
0000
,  // measure 121
0200
0000
2300
0000
3002
0003
0001
0100
,  // measure 122
0000
0000
1010
0000
0000
0000
0021
0000
0001
0030
0000
0000
0010
0000
0000
0000
,  // measure 123
0002
0023
0230
0001
,  // measure 124
2300
3020
0230
1000
,  // measure 125
0302
2003
3200
0001
,  // measure 126
0310
0000
0000
0000
;

//---------------dance-single - ----------------
#NOTEDATA:;
#CHARTNAME:Expert;
#STEPSTYPE:dance-single;
#DESCRIPTION:;
#CHARTSTYLE:;
#DIFFICULTY:Hard;
#METER:18;
#RADARVALUES:0.843364,0.962359,0.143770,0.907547,0.017971,657.000000,641.000000,16.000000,101.000000,0.000000,0.000000,0.000000,0.000000,0.000000,0.843364,0.962359,0.143770,0.907547,0.017971,657.000000,641.000000,16.000000,101.000000,0.000000,0.000000,0.000000,0.000000,0.000000;
#CREDIT:Riakodoadm;
#DISPLAYBPM:122.000000:444.000000;
#NOTES:
// measure 0
0000
0000
0000
0000
,  // measure 1
0000
0000
0000
0000
,  // measure 2
0000
0000
0000
0000
,  // measure 3
0000
0000
0000
0000
,  // measure 4
0002
0000
1000
0000
0010
0000
1003
0100
,  // measure 5
2000
0000
3010
0200
0010
0302
1000
0000
,  // measure 6
0013
0000
0100
0000
0001
0000
0100
0000
2000
0000
0000
3000
0010
0000
0100
0000
,  // measure 7
0002
0000
0000
0003
,  // measure 8
0000
0000
0000
0000
,  // measure 9
1000
0100
0010
0001
,  // measure 10
0022
0033
1000
2200
,  // measure 11
3300
0100
0010
0001
,  // measure 12
1000
0010
0100
0001
,  // measure 13
1000
0010
0220
0330
,  // measure 14
0001
2002
3003
1000
,  // measure 15
0100
0010
0100
1000
,  // measure 16
0010
0100
0001
1000
,  // measure 17
2020
3030
0010
0220
,  // measure 18
0330
0100
1000
0100
,  // measure 19
0001
1000
0010
1000
,  // measure 20
0100
0010
0022
0033
,  // measure 21
0001
0202
0303
0100
,  // measure 22
0010
0000
1000
0000
0001
0000
0001
1000
,  // measure 23
0001
0100
0010
1000
,  // measure 24
2020
3030
0001
0202
,  // measure 25
0303
0100
0010
1000
,  // measure 26
0001
0010
0100
1000
,  // measure 27
0001
0010
0220
0330
,  // measure 28
1000
2002
3003
0001
,  // measure 29
0100
0010
0100
0001
,  // measure 30
0010
0100
1000
0001
,  // measure 31
0022
0033
0010
0220
,  // measure 32
0330
0100
0001
0100
,  // measure 33
1000
0000
0001
1000
0001
0000
0100
0000
,  // measure 34
1000
0100
0001
0010
,  // measure 35
1000
0000
0010
0000
0001
0000
1000
0100
,  // measure 36
1000
0000
0001
0100
0010
1000
0001
0010
,  // measure 37
0000
0000
0000
0000
,  // measure 38
0000
0000
0000
0000
,  // measure 39
0002
0000
0000
0003
0100
0000
0001
0000
2000
0000
0000
3000
0100
0000
1000
0000
,  // measure 40
0002
2003
3020
0230
,  // measure 41
0301
0010
0100
1000
0002
0003
1000
0100
,  // measure 42
1000
0010
0100
0001
0020
0000
0032
0000
,  // measure 43
2003
0000
0000
3000
0100
0000
1000
0000
0002
0000
0000
0003
0100
0000
0001
0000
,  // measure 44
2000
3002
0023
0230
,  // measure 45
1300
0010
0100
0001
2000
3000
0001
0100
,  // measure 46
0001
0010
0100
1000
0020
0000
2030
0000
,  // measure 47
3001
0100
0010
0001
0010
1000
0002
0000
,  // measure 48
1003
0100
0010
1000
0010
0001
2000
0000
,  // measure 49
3200
0000
0310
0000
0000
0100
0001
0100
,  // measure 50
0020
0000
0031
0100
0020
0000
2030
0000
,  // measure 51
3002
0000
0103
1000
0100
0010
1000
0001
,  // measure 52
1000
0010
0100
0001
0100
0010
0001
0010
,  // measure 53
1000
1000
0100
0100
0010
0010
0001
0001
,  // measure 54
1000
0010
1000
0000
0001
1000
0000
0100
,  // measure 55
1000
0000
0100
0010
0000
0001
0010
0100
,  // measure 56
1000
0100
1000
0000
0001
0100
0000
0001
,  // measure 57
0010
0000
0100
0010
0001
1000
0100
0010
,  // measure 58
0001
1000
0001
0000
0100
0001
0000
0100
,  // measure 59
0010
0000
1000
0010
0000
1000
0010
1000
,  // measure 60
0001
1000
0100
1000
0001
0100
0000
0001
,  // measure 61
0010
0000
0100
1000
0001
1000
0010
0100
,  // measure 62
0001
0100
0001
0000
1000
0100
0000
1000
,  // measure 63
0001
0010
0100
0000
0010
0100
1000
0000
,  // measure 64
0100
1000
0000
0010
0100
0000
0001
0100
,  // measure 65
0000
0001
0010
0000
0100
1000
0001
0000
,  // measure 66
0010
0100
0000
0100
1000
0000
1000
0001
,  // measure 67
0000
0001
0100
0010
0000
1000
0010
0100
,  // measure 68
0001
0000
0100
0001
1000
0010
0000
0100
,  // measure 69
0010
1000
0100
0010
0001
0100
0010
1000
,  // measure 70
0001
0100
0010
1000
0010
0000
1000
0100
,  // measure 71
0010
0001
0010
0000
0001
0100
0010
1000
,  // measure 72
0010
0000
1000
0100
0010
0001
0010
0100
,  // measure 73
0010
0001
1000
0100
0010
0001
1000
0001
,  // measure 74
1000
0100
1000
0100
0010
0100
0010
0100
,  // measure 75
0010
0001
0010
0001
1000
0001
1000
0001
,  // measure 76
2000
0010
0000
0000
0000
0000
3002
0100
0000
0000
0000
0000
,  // measure 77
2003
0100
0000
0000
0000
0000
3002
0010
0000
0000
0000
0000
,  // measure 78
1003
0001
0000
0100
0001
0000
1000
0001
,  // measure 79
0000
1000
0100
0000
0010
0001
1000
0000
,  // measure 80
0001
0100
0000
0001
1000
0000
0010
1000
,  // measure 81
0000
0001
0100
0010
1000
0001
1000
0000
,  // measure 82
0001
0100
0001
1000
0020
0000
1030
0100
,  // measure 83
1000
0001
0020
0000
0031
0100
0001
1000
,  // measure 84
0020
0000
0130
0001
1000
0010
0100
0001
,  // measure 85
0010
0100
1000
0010
0100
0001
0010
0100
,  // measure 86
2000
0000
0000
0000
,  // measure 87
3001
0010
0100
0010
0001
0000
1000
0010
,  // measure 88
0200
0000
0010
0000
0310
1000
0002
0000
,  // measure 89
1000
0000
1003
0100
0020
0000
0001
0000
,  // measure 90
0031
0010
0100
1000
0001
1000
0010
0100
,  // measure 91
0001
0000
0100
0010
2000
0000
0001
0000
,  // measure 92
3001
0010
0200
0000
1000
0000
1300
0001
,  // measure 93
0020
0130
0010
0001
1000
0010
1000
0001
,  // measure 94
1000
0010
0100
0010
1000
0000
0001
0010
,  // measure 95
0200
0000
0010
0000
0310
0001
2000
0000
,  // measure 96
0001
0000
3001
0100
0020
0000
1000
0000
,  // measure 97
1030
0010
0100
0001
1000
0001
0010
0100
,  // measure 98
1000
0000
0100
0010
0002
0000
1000
0000
,  // measure 99
1003
0010
0200
0000
0001
0000
0301
1000
,  // measure 100
0020
0130
0010
1000
0001
0010
0001
1000
,  // measure 101
0010
0000
0100
0001
0100
0001
0100
0000
,  // measure 102
0010
0000
1000
0100
1000
0100
1000
0000
,  // measure 103
0001
0000
1000
0010
1000
0010
1000
0000
,  // measure 104
0100
0000
0010
0001
0010
0001
0010
0000
,  // measure 105
0100
0000
1000
0001
0100
0010
0100
0000
,  // measure 106
0001
0000
1000
0100
0010
0100
1000
0000
,  // measure 107
0001
0000
0010
0100
1000
0001
0100
0001
,  // measure 108
1000
0000
0010
0100
0001
1000
0010
0100
,  // measure 109
0001
0000
0010
0100
1000
0001
0010
0100
,  // measure 110
1000
0000
0100
0010
0001
1000
0010
0100
,  // measure 111
0001
0100
0010
1000
0010
0000
0010
0100
,  // measure 112
0010
0000
0010
0001
0010
0000
0010
0100
,  // measure 113
0010
0000
0010
1000
0010
1000
0001
0010
,  // measure 114
0001
1000
0100
1000
0010
0100
0001
0010
,  // measure 115
0000
0000
0000
0000
,  // measure 116
0000
0000
0000
0000
,  // measure 117
0000
0000
2000
0001
,  // measure 118
0010
0000
3001
0100
0002
0000
0013
0200
,  // measure 119
0010
0000
2300
0000
0001
0000
0000
0000
3200
0000
0000
0300
0020
0000
0000
0030
,  // measure 120
0200
0000
0000
0300
0002
0000
0000
0003
0200
0000
0000
0000
1000
0000
0300
0000
,  // measure 121
0200
0000
2300
0000
3002
0003
0001
0100
,  // measure 122
0000
0000
1010
0000
0000
0000
0021
0000
0001
0030
0000
0000
0010
0000
0000
0000
,  // measure 123
0002
0023
0230
0001
,  // measure 124
2300
3020
0230
1000
,  // measure 125
0302
2003
3200
0001
,  // measure 126
0310
0000
0000
0000
;

//---------------dance-single - ----------------
#NOTEDATA:;
#CHARTNAME:Difficult;
#STEPSTYPE:dance-single;
#DESCRIPTION:;
#CHARTSTYLE:;
#DIFFICULTY:Medium;
#METER:15;
#RADARVALUES:0.707296,0.962359,0.215655,0.934504,0.017971,551.000000,527.000000,24.000000,104.000000,0.000000,0.000000,0.000000,0.000000,0.000000,0.707296,0.962359,0.215655,0.934504,0.017971,551.000000,527.000000,24.000000,104.000000,0.000000,0.000000,0.000000,0.000000,0.000000;
#CREDIT:Riakodoadm;
#DISPLAYBPM:122.000000:444.000000;
#NOTES:
0000
0000
0000
0000
,
0000
0000
0000
0000
,
0000
0000
0000
0000
,
0000
0000
0000
0000
,
0002
0000
1000
0000
0010
0000
1003
0100
,
2000
0000
3010
0200
0010
0302
1000
0000
,
0013
0000
0100
0000
0001
0000
0100
0000
2000
0000
0000
3000
0010
0000
0100
0000
,
0002
0000
0000
0003
,
0000
0000
0000
0000
,
1000
0100
0010
0001
,
0022
0033
1000
2200
,
3300
0100
0010
0001
,
1000
0010
0100
0001
,
1000
0010
0220
0330
,
0001
2002
3003
1000
,
0100
0010
0100
1000
,
0010
0100
0001
1000
,
2020
3030
0010
0220
,
0330
0100
1000
0100
,
0001
1000
0010
1000
,
0100
0010
0022
0033
,
0001
0202
0303
0100
,
0010
0000
1000
0000
0001
0000
0001
1000
,
0001
0100
0010
1000
,
2020
3030
0001
0202
,
0303
0100
0010
1000
,
0001
0010
0100
1000
,
0001
0010
0220
0330
,
1000
2002
3003
0001
,
0100
0010
0100
0001
,
0010
0100
1000
0001
,
0022
0033
0010
0220
,
0330
0100
0001
0100
,
1000
0000
0001
1000
0001
0000
0100
0000
,
1000
0100
0001
0010
,
1000
0000
0010
0000
0001
0000
1000
0100
,
1000
0000
0001
0100
0001
0000
0100
0010
,
0000
0000
0000
0000
,
0000
0000
0000
0000
,
0002
0000
0000
0003
0100
0000
0001
0000
2000
0000
0000
3000
0100
0000
1000
0000
,
0002
2003
3020
0230
,
0301
0010
0100
1000
0002
0003
1000
0100
,
1000
0010
0100
0001
0020
0000
0032
0000
,
2003
0000
0000
3000
0100
0000
1000
0000
0002
0000
0000
0003
0100
0000
0001
0000
,
2000
3002
0023
0230
,
1300
0010
0100
0001
2000
3000
0001
0100
,
0001
0010
0100
1000
0020
0000
2030
0000
,
3001
0100
0010
0001
0010
1000
0002
0000
,
1003
0100
0010
1000
0010
0001
2000
0000
,
3200
0000
0310
0000
0000
0100
0001
0100
,
0020
0000
0031
0100
0020
0000
2030
0000
,
3002
0000
0103
1000
0100
0010
1000
0001
,
1000
0010
0100
0001
0100
0010
0001
0010
,
1000
1000
0100
0100
0010
0010
0001
0001
,
1000
0100
0000
1000
0100
0000
1000
0001
,
0000
1000
0001
0000
0100
0000
0010
0000
,
1000
0010
0000
1000
0001
0000
0010
0000
,
0001
0010
0100
1000
,
0001
0100
0000
0001
0100
0000
0001
1000
,
0000
0001
1000
0000
0001
0000
0010
0000
,
0100
1000
0100
0010
,
1000
0010
0001
1000
,
0001
0100
0000
0001
1000
0000
0100
1000
,
0000
0010
1000
0000
0010
0100
0010
0000
,
0100
0001
0000
0010
0001
0000
1000
0010
,
0000
0100
0010
0000
1000
0010
1000
0000
,
0010
0100
0000
0001
0100
0000
0001
1000
,
0000
0001
0010
0000
0100
0010
0000
0100
,
1000
0100
0010
1000
,
0010
0001
0100
0010
,
1000
0000
0010
0100
0010
0000
0001
0000
,
0010
0100
0010
0000
1000
0000
0010
0100
,
0010
0000
0001
0000
0010
0100
0010
0000
,
1000
0010
0100
0001
,
1000
0100
0001
0100
,
0010
1000
0010
0001
,
2000
0010
0000
0000
0000
0000
3002
0100
0000
0000
0000
0000
,
2003
0100
0000
0000
0000
0000
3002
0010
0000
0000
0000
0000
,
1003
0001
0000
0100
0001
0000
1000
0001
,
0000
1000
0100
0000
0010
0100
0010
0000
,
0001
0100
0000
0001
1000
0000
0001
0010
,
0000
0001
1000
0000
0010
0100
0010
0000
,
1000
0000
0001
0100
0001
0000
0010
0000
,
0100
1000
0100
0000
1000
0000
0001
0000
,
0020
0000
0031
0000
0010
0100
1000
0000
,
0020
0000
1030
0000
0010
0100
0001
0000
,
2000
0000
0000
0000
,
3001
0100
0010
1000
,
2020
3030
0001
0202
,
0303
0100
0010
1000
,
0001
0010
0100
1000
,
0001
0010
0220
0330
,
1000
2002
3003
0001
,
0100
0010
0100
0001
,
0010
0100
1000
0001
,
0022
0033
0010
0220
,
0330
0100
0001
0100
,
1000
0001
0010
0001
,
0100
0010
2020
3030
,
1000
2200
3300
0100
,
0010
0000
0001
0000
1000
0000
0001
1000
,
0001
0100
1000
0100
,
0001
0100
0010
1000
,
0010
0001
0010
1000
,
0010
0000
0100
0001
0100
0000
1000
0000
,
0100
0001
1000
0100
,
0001
0100
1000
0001
,
0010
0000
1000
0000
0010
0000
0100
0010
,
0100
0010
0001
1000
,
0010
0100
0001
0010
,
0100
0000
1000
0000
0010
0000
1000
0001
,
1000
0000
0001
0100
0001
0000
1000
0100
,
1000
0000
0010
1000
0010
0000
0100
0010
,
0100
0000
0001
1000
0001
0000
0010
0001
,
0010
0000
0100
0010
0100
0000
1000
0001
,
0000
0000
0000
0000
,
0000
0000
0000
0000
,
0000
0000
2000
0001
,
0010
0000
3001
0100
0002
0000
0013
0200
,
0010
0000
2300
0000
0001
0000
0000
0000
3200
0000
0000
0300
0020
0000
0000
0030
,
0200
0000
0000
0300
0002
0000
0000
0003
0200
0000
0000
0000
1000
0000
0300
0000
,
0200
0000
2300
0000
3002
0003
0001
0100
,
0000
0000
1010
0000
0000
0000
0021
0000
0001
0030
0000
0000
0010
0000
0000
0000
,
0002
0023
0230
0001
,
2300
3020
0230
1000
,
0302
2003
3200
0001
,
0310
0000
0000
0000
;

//---------------dance-single - ----------------
#NOTEDATA:;
#CHARTNAME:Basic;
#STEPSTYPE:dance-single;
#DESCRIPTION:;
#CHARTSTYLE:;
#DIFFICULTY:Easy;
#METER:10;
#RADARVALUES:0.546839,0.735922,0.305511,0.224640,0.000000,426.000000,392.000000,34.000000,25.000000,0.000000,0.000000,0.000000,0.000000,0.000000,0.546839,0.735922,0.305511,0.224640,0.000000,426.000000,392.000000,34.000000,25.000000,0.000000,0.000000,0.000000,0.000000,0.000000;
#CREDIT:Riakodoadm;
#DISPLAYBPM:122.000000:444.000000;
#NOTES:
0000
0000
0000
0000
,
0000
0000
0000
0000
,
0000
0000
0000
0000
,
0000
0000
0000
0000
,
0100
1000
0010
1000
,
0100
1000
0001
1000
,
0100
0010
0100
0002
,
0000
0000
0000
0003
,
0000
0000
0000
0000
,
1000
0100
1000
0001
,
0020
0000
0130
0020
,
0000
0031
0010
0001
,
1000
0000
0001
0100
,
1000
0100
0002
0000
,
1003
0002
0000
0013
,
0100
0010
0001
0000
,
1000
0100
0001
0100
,
2000
0000
3001
2000
,
0000
3010
0100
0010
,
1000
0000
0001
0100
,
0001
1000
0020
0000
,
0130
0020
0000
1030
,
0010
1000
0001
0000
,
1000
0010
0100
0001
,
0020
0000
0130
2000
,
0000
3001
0100
0001
,
1000
0100
0010
0001
,
1000
0010
0200
0000
,
0301
0020
0000
0130
,
0010
0001
1000
1000
,
0001
0010
0100
1000
,
0020
0000
0130
0002
,
0000
1003
0100
1000
,
0001
0100
0010
1000
,
0001
0010
0100
1000
,
0010
0100
0001
0100
,
0010
1000
0100
0100
,
0000
0000
0000
0000
,
0000
0000
0000
0000
,
1001
0100
0010
0100
,
0001
0100
1000
0100
,
0001
1000
0100
1000
,
0010
0100
0001
0010
,
1001
0100
0010
0100
,
1000
0100
0001
0100
,
1000
0001
0100
0001
,
0010
0100
1000
0010
,
1010
0000
1000
0001
1000
0000
0001
0100
,
0000
0001
0100
0000
0010
1000
0100
0000
,
1000
0000
0001
0100
0001
1000
0100
0000
,
0001
0000
0100
0000
1000
0100
0010
0000
,
0011
0000
0001
1000
0001
0000
1000
0100
,
0000
1000
0100
0000
0010
0001
0100
0000
,
0002
0000
0000
0000
0000
0000
0000
0003
,
0001
0000
0101
0000
,
1000
0000
1100
0000
,
0001
0000
0101
0000
,
1100
0000
0100
1000
,
0010
0000
0110
0000
,
1001
0000
0001
0010
,
0100
0000
0110
0000
,
1001
0000
0101
0000
,
1010
0000
1001
0000
,
0010
1000
0100
0000
,
1001
0000
0010
0001
,
0100
0000
1001
0000
,
1010
0000
0010
1000
,
0100
0000
0010
0001
,
0100
0000
0101
0000
,
0001
0010
0100
1000
,
1000
0000
1100
0000
,
0001
0000
0101
0000
,
1000
0000
1100
0000
,
0101
0000
0100
0001
,
0010
0000
0110
0000
,
1001
0000
1000
0010
,
0100
0000
0110
0000
,
1001
0000
1100
0000
,
0011
0000
1001
0000
,
0010
0001
0100
0000
,
1001
0000
0010
1000
,
0100
0000
1001
0000
,
0011
0000
0010
0001
,
0100
0000
0010
1000
,
0100
0000
1100
0000
,
1000
0010
0100
0001
,
2000
0000
0000
0000
,
3001
0100
0010
1000
,
0002
0000
0013
2000
,
0000
3010
0100
1000
,
0001
0010
0001
0100
,
0010
1000
0020
0000
,
1030
0200
0000
0310
,
0001
1000
0100
0100
,
1000
0100
0010
0001
,
2000
0000
3010
0002
,
0000
0013
0100
0001
,
1000
0010
1000
0100
,
0010
0001
0020
0000
,
0031
0200
0000
0310
,
1000
0001
0100
0100
,
0001
0100
0001
0100
,
0010
0100
0010
0100
,
0010
0001
0010
0001
,
0010
1000
0100
1000
,
0100
1000
0001
0010
,
0001
0010
0100
1000
,
0100
1000
0001
0100
,
0010
1000
0010
0100
,
0010
1000
0001
0010
,
0100
0010
0001
0010
,
0100
1000
0001
0010
,
0001
0100
0010
1000
,
0100
0010
0001
0100
,
0010
1000
0010
0010
,
0000
0000
0000
0000
,
0000
0000
0000
0000
,
0000
0000
0100
0001
,
0010
0001
0100
0001
,
1000
0001
0100
0010
,
0100
1000
0100
0001
,
1000
0001
0100
0001
,
1000
0010
1000
0100
,
1000
0010
0100
0010
,
0100
1000
0001
1000
,
0010
0001
0100
0001
,
0010
0000
0000
0000
;

//---------------dance-single - ----------------
#NOTEDATA:;
#CHARTNAME:Beginner;
#STEPSTYPE:dance-single;
#DESCRIPTION:;
#CHARTSTYLE:;
#DIFFICULTY:Beginner;
#METER:7;
#RADARVALUES:0.376112,0.566094,0.008986,0.035942,0.000000,293.000000,292.000000,1.000000,4.000000,0.000000,0.000000,0.000000,0.000000,0.000000,0.376112,0.566094,0.008986,0.035942,0.000000,293.000000,292.000000,1.000000,4.000000,0.000000,0.000000,0.000000,0.000000,0.000000;
#CREDIT:Riakodoadm;
#DISPLAYBPM:122.000000:444.000000;
#NOTES:
0000
0000
0000
0000
,
0000
0000
0000
0000
,
0000
0000
0000
0000
,
0000
0000
0000
0000
,
0100
1000
0010
1000
,
0100
1000
0001
1000
,
0100
0010
0100
0002
,
0000
0000
0000
0003
,
0000
0000
0000
0000
,
0001
0000
0010
0000
,
0001
0000
1000
0001
,
0000
1000
0001
0000
,
0100
0000
0010
0000
,
1000
0000
0010
0000
,
1000
0001
0000
1000
,
0001
0000
0100
0000
,
0001
0000
0100
0000
,
0001
0000
0010
0100
,
0000
0010
0100
0000
,
1000
0000
0010
0000
,
0100
0000
0010
0000
,
1000
0010
0000
0010
,
1000
0000
0100
0000
,
1000
0000
0010
0000
,
1000
0000
0001
1000
,
0000
0001
1000
0000
,
0100
0000
0010
0000
,
0001
0000
0010
0000
,
0001
1000
0000
0001
,
1000
0000
0100
0000
,
1000
0000
0100
0000
,
1000
0000
0010
0100
,
0000
0010
0100
0000
,
0001
0000
0010
0000
,
0100
0000
0010
0000
,
0001
0010
0000
0010
,
0001
0000
0100
0000
,
0000
0000
0000
0000
,
0000
0000
0000
0000
,
0001
0001
0010
0010
,
1000
1000
0010
0010
,
0001
1000
0100
1000
,
0010
0100
0001
0010
,
1000
1000
0010
0010
,
0001
0001
0010
0010
,
1000
0001
0100
0001
,
0010
0100
1000
0010
,
1001
0100
0001
0100
,
1000
0100
1000
0100
,
0020
0130
0000
0100
,
0010
0010
0001
0001
,
1000
0010
0100
0001
,
1000
0100
0010
0001
,
0200
0000
0000
0300
,
0001
0000
0100
0000
,
0010
0000
0100
0000
,
0001
0000
0010
0000
,
0001
0000
0100
0000
,
0010
0000
1000
0000
,
0100
0000
0010
0000
,
0001
0000
1000
0000
,
0010
0000
0100
0000
,
0010
0000
0010
0000
,
1000
0000
1000
0000
,
0001
0000
0001
0000
,
0010
0000
0010
0000
,
0100
0000
0010
0000
,
0001
0000
0100
0000
,
0010
0000
1000
0000
,
0100
0000
0100
0000
,
1000
0000
0100
0000
,
0010
0000
0100
0000
,
1000
0000
0010
0000
,
1000
0000
0100
0000
,
0010
0000
0001
0000
,
0100
0000
0010
0000
,
1000
0000
0001
0000
,
0010
0000
0100
0000
,
0010
0000
0010
0000
,
0001
0000
0001
0000
,
1000
0000
1000
0000
,
0010
0000
0010
0000
,
0100
0000
0010
0000
,
1000
0000
0100
0000
,
0010
0000
0001
0000
,
0100
0000
0100
0000
,
0020
0000
0000
0000
,
1030
0000
0010
0000
,
0100
0000
0001
0100
,
0000
0001
0100
0000
,
0001
0000
1000
0000
,
0100
0000
0010
0000
,
0100
1000
0000
1000
,
0100
0000
0010
0000
,
0001
0000
0010
0000
,
0100
0000
1000
0100
,
0000
1000
0100
0000
,
1000
0000
0001
0000
,
0100
0000
0010
0000
,
0100
0001
0000
0001
,
0100
0000
0010
0000
,
1000
0000
1000
0000
,
0010
0000
0010
0000
,
0001
0000
0001
0000
,
0100
0000
1000
0000
,
1000
0000
0100
0000
,
0100
0000
0001
0000
,
0001
0000
0010
0000
,
0001
0000
0100
0000
,
1000
0000
0010
0000
,
0001
0000
0100
0000
,
1000
0000
0001
0000
,
0010
0000
1000
0000
,
0100
0000
0001
0000
,
0010
0000
1000
0000
,
0000
0000
0000
0000
,
0000
0000
0000
0000
,
0000
0000
0100
0001
,
0010
0001
0100
0001
,
1000
0001
0100
0010
,
0100
1000
0100
0001
,
1000
0001
0100
0001
,
1000
0010
1000
0100
,
1000
0010
0100
0010
,
0100
1000
0001
1000
,
0010
0001
0100
0001
,
0010
0000
0000
0000
;
