#VERSION:0.83;
#TITLE:MINE DIAMONDS | miNECRAFT PARODY OF TAKE ON ME;
#SUBTITLE:;
#ARTIST:MineCraft Awesome Parodys;
#TITLETRANSLIT:;
#SUBTITLETRANSLIT:;
#ARTISTTRANSLIT:;
#GENRE:PARODY;
#ORIGIN:;
#CREDIT:(2016?);
#BANNER:MINE DIAMONDS - miNECRAFT PARODY OF TAKE ON ME.png;
#BACKGROUND:MINE DIAMONDS - miNECRAFT PARODY OF TAKE ON ME-bg.png;
#PREVIEWVID:;
#JACKET:MINE DIAMONDS - miNECRAFT PARODY OF TAKE ON ME-jacket.png;
#CDIMAGE:;
#DISCIMAGE:;
#LYRICSPATH:MINE DIAMONDS - miNECRAFT PARODY OF TAKE ON ME.lrc;
#CDTITLE:;
#MUSIC:MINE DIAMONDS - miNECRAFT PARODY OF TAKE ON ME.ogg;
#OFFSET:0.010000;
#SAMPLESTART:33.864998;
#SAMPLELENGTH:12.000000;
#SELECTABLE:YES;
#BPMS:0.000=169.000;
#STOPS:;
#DELAYS:;
#WARPS:;
#TIMESIGNATURES:0.000=4=4;
#TICKCOUNTS:0.000=4;
#COMBOS:0.000=1;
#SPEEDS:0.000=1.000=0.000=0;
#SCROLLS:0.000=1.000;
#FAKES:;
#LABELS:0.000=Song Start;
#BGCHANGES:;
#KEYSOUNDS:;
#ATTACKS:
;

//---------------dance-single - Do you like 32nds and 48ths----------------
#NOTEDATA:;
#CHARTNAME:a p p l e;
#STEPSTYPE:dance-single;
#DESCRIPTION:Do you like 32nds and 48ths;
#CHARTSTYLE:;
#DIFFICULTY:Challenge;
#METER:66;
#RADARVALUES:1.197416,3.413362,0.155442,0.065764,2.068574,1402.000000,1376.000000,26.000000,11.000000,0.000000,0.000000,0.000000,0.000000,0.000000,1.197416,3.413362,0.155442,0.065764,2.068574,1402.000000,1376.000000,26.000000,11.000000,0.000000,0.000000,0.000000,0.000000,0.000000;
#CREDIT:Omega;
#NOTES:
// measure 0
0000
0000
0000
0000
,  // measure 1
0000
0000
0000
0000
,  // measure 2
0000
0000
0000
0000
,  // measure 3
0000
0000
0000
0000
,  // measure 4
0000
0000
0000
0000
,  // measure 5
0000
0000
0000
0000
,  // measure 6
0000
0000
0000
0000
,  // measure 7
0000
0000
0000
0000
,  // measure 8
1000
0010
1000
0100
0000
0100
0000
0010
,  // measure 9
0000
0010
0000
0001
0010
0100
1000
0010
,  // measure 10
0100
0001
0010
0001
0000
0001
0000
1000
,  // measure 11
0000
1000
0000
0010
0100
0100
0100
0000
,  // measure 12
0002
0010
0000
0000
0000
0000
0103
0000
0000
0001
0000
0000
0000
0000
0000
1000
0000
0000
0100
0000
0000
1000
0000
0000
,  // measure 13
0010
0100
0000
0010
1000
0100
0000
0010
,  // measure 14
0001
0000
0000
0000
0000
0000
0010
0000
0000
0000
0000
0000
0000
0000
0000
0000
0000
0000
0000
0000
0100
0000
0000
0000
0000
0000
0000
0000
0000
0000
0000
0000
0000
1000
0000
0000
0000
0000
0000
0000
0000
0000
0010
0000
0000
0000
0000
0000
,  // measure 15
0000
0000
0000
0000
0000
1010
0000
0000
0000
0000
0000
0000
0001
0000
0000
0000
0011
0000
0000
0000
0000
0000
0000
0000
1001
0000
0000
0000
0000
0000
0000
0000
,  // measure 16
2010
0000
3100
1000
0000
0001
0100
0001
,  // measure 17
0010
0100
0000
0010
0001
0100
0000
0010
,  // measure 18
0000
0000
0000
1000
0000
0000
0000
0000
0000
0000
0000
0000
0000
0000
0010
0000
0000
0000
0000
0000
0100
0000
0000
0000
0000
0000
0000
0000
0000
0000
0001
0000
0000
0000
0000
0000
0000
0000
0000
0000
0000
0000
0010
0000
0000
0000
0000
0000
,  // measure 19
0000
0011
0000
1000
0010
1000
1001
0000
,  // measure 20
0000
0000
0000
0000
0001
0000
0000
0000
0000
0000
0000
0000
0100
0000
0000
0000
0000
0000
0000
0000
1000
0000
0000
0000
0000
0000
0000
0000
0000
0000
0000
0100
0000
0000
0000
0000
0000
0010
0000
0000
0000
0000
0001
0000
0000
0000
0000
0000
,  // measure 21
0010
0001
0000
0010
1000
0010
0000
1000
,  // measure 22
0100
0000
0010
0001
0010
0100
0010
1000
,  // measure 23
0001
0100
1000
0010
0100
0100
0001
0001
,  // measure 24
1000
0100
1000
0100
1000
0100
1000
0100
1000
0100
1000
0100
1000
0100
1000
0100
,  // measure 25
0010
0001
0010
0001
0010
0001
0010
0001
0010
0001
0010
0001
0010
0001
0010
0001
,  // measure 26
1000
0001
1000
0001
1000
0001
1000
0001
1000
0001
1000
0001
1000
0001
1000
0001
,  // measure 27
0100
0010
0010
0100
0010
0010
1000
0001
,  // measure 28
0100
0001
0100
0001
0100
0001
0100
0001
0100
0001
0100
0001
0100
0001
0100
0001
,  // measure 29
1000
0010
1000
0010
1000
0010
1000
0010
1000
0010
1000
0010
1000
0010
1000
0010
,  // measure 30
1000
0001
1000
0001
1000
0001
1000
0001
1000
0001
1000
0001
1000
0001
1000
0001
1000
0001
1000
0001
1000
0001
1000
0001
,  // measure 31
1000
0010
0010
0100
0010
0010
0100
0001
,  // measure 32
0010
0001
0010
0001
0010
0001
0010
0001
0010
0001
0010
0001
0010
0001
0010
0001
,  // measure 33
1000
0001
1000
0001
1000
0001
1000
0001
1000
0001
1000
0001
1000
0001
1000
0001
1000
0001
1000
0001
1000
0010
1000
0010
,  // measure 34
1000
0010
1000
0010
1000
0010
1000
0010
1000
0010
1000
0010
1000
0010
1000
0010
1000
0010
1000
0010
1000
0010
0000
0000
,  // measure 35
0100
0100
1001
0010
0010
1001
1000
0100
,  // measure 36
0010
0000
0000
0000
0001
0000
0000
0000
1000
0001
1000
0001
1000
0001
1000
0001
1000
0001
1000
0001
1000
0001
1000
0001
1000
0001
1000
0001
1000
0001
1000
0001
,  // measure 37
1000
0001
1000
0001
1000
0001
1000
0001
1000
0001
1000
0001
1000
0001
1000
0001
1000
0001
1000
0001
1000
0001
1000
0001
1000
0001
1000
0001
1000
0001
1000
0001
,  // measure 38
1000
0001
1000
0001
1000
0001
1000
0001
1000
0001
1000
0001
1000
0001
1000
0001
1000
0001
1000
0001
1000
0001
1000
0001
1000
0001
1000
0001
1000
0001
1000
0001
,  // measure 39
1000
0001
1000
0001
1000
0001
1000
0001
1000
0001
1000
0001
1000
0001
1000
0001
1000
0001
1000
0001
1000
0000
0000
0000
0001
0000
0000
0000
1000
0000
0000
0000
,  // measure 40
2000
0010
0000
0000
0000
0000
3100
0000
0000
1000
0000
0000
0000
0000
0000
0000
0000
0000
0010
0000
0000
1000
0000
0000
,  // measure 41
0010
0010
0000
1100
0000
0000
0010
0100
,  // measure 42
0010
0000
0000
0101
0000
0000
0010
0001
,  // measure 43
0010
0010
0000
0101
0000
0000
0001
0100
,  // measure 44
0010
0100
0010
0100
0001
0010
0100
1000
0010
0100
0010
0100
0001
0010
0100
1000
,  // measure 45
0010
0100
0010
0100
0001
0010
0100
1000
0010
0100
0010
0100
0001
0010
0100
1000
,  // measure 46
0010
0100
0010
0100
0001
0010
0100
1000
0010
0100
0010
0100
0001
0010
0100
1000
,  // measure 47
0010
0100
0010
0100
0001
0010
0100
1000
0010
0100
0010
0100
0001
0010
0100
1000
,  // measure 48
0001
0020
0100
0000
0001
0000
0130
1000
,  // measure 49
0100
1000
0001
0100
0020
0000
0100
0000
,  // measure 50
1030
0200
0010
0000
1000
0000
0310
0001
,  // measure 51
1000
0010
0100
0001
1000
0010
0100
0001
1000
0010
0100
0001
1000
0010
0100
0001
,  // measure 52
0000
0000
0000
0100
0100
0100
0000
0000
,  // measure 53
0000
0000
0000
0100
0100
0100
0000
0000
,  // measure 54
0000
0000
0000
0100
0100
0100
0000
0000
,  // measure 55
0000
0000
0000
0001
0010
0010
0100
0100
,  // measure 56
1000
0100
0010
0001
0000
0101
0000
1000
,  // measure 57
0000
1100
0000
0100
0001
0100
1000
0010
,  // measure 58
0100
0010
1000
0001
0000
0011
0000
1000
,  // measure 59
0000
1010
0000
0010
0001
0010
0100
0001
,  // measure 60
1000
0100
0010
0001
0000
0101
0000
1000
,  // measure 61
0000
1100
0000
0100
0001
0100
1000
0010
,  // measure 62
0100
0010
1000
0001
0000
0011
0000
1000
,  // measure 63
0000
0000
0000
1010
0000
0000
0000
0000
0000
0010
0000
0000
0001
0000
0000
0010
0000
0000
0100
0000
0000
0000
0001
0000
,  // measure 64
1000
0000
0000
0000
0000
0000
0000
0000
0000
0000
0000
0000
0000
0000
0000
0000
0000
0000
0000
0000
0000
0000
0000
0000
0000
0000
0000
0000
0000
0000
0000
0000
0000
0000
0000
0000
0000
0000
0000
0000
0000
0000
0000
0000
0000
0000
0000
0000
0100
0000
0000
0000
0000
0000
0000
0000
0000
0000
0000
0000
0000
0000
0000
0000
0001
0000
0000
0000
0000
0000
0000
0000
0000
0000
0000
0000
0000
0000
0000
0000
0000
0000
0000
0000
0000
0000
0000
0000
0000
0000
0000
0000
0000
0000
0000
0000
0000
0000
0000
0000
0000
0000
0000
0000
0000
0000
0000
0000
0000
0000
0000
0000
0000
0000
0000
0000
0000
0000
0000
0000
0000
0000
0000
0000
0000
0000
0100
0000
0000
0000
0000
0000
0000
0000
0000
0000
0000
0000
0000
0000
0000
0000
0000
0000
0000
0000
0000
0000
0000
0000
1000
0000
0000
0000
0000
0000
0000
0000
0000
0000
0000
0000
0000
0000
0000
0000
0000
0000
0010
0000
0000
0000
0000
0000
0000
0000
0000
0000
0000
0000
0000
0000
0000
0000
0000
0000
0000
0000
0000
0000
0000
0000
,  // measure 65
0100
0010
0000
1000
0001
1000
0000
0001
,  // measure 66
0010
0000
0000
0000
0000
0000
0000
0000
0100
0000
0000
0000
1000
0000
0000
0000
0000
0000
0000
0000
0010
0000
0000
0100
0000
0000
0000
0000
0010
0000
0000
0000
,  // measure 67
0100
0001
0000
0010
0001
0100
1000
0100
,  // measure 68
0000
0001
0000
0000
0000
0000
0000
0000
0100
0000
0000
0000
0000
1000
0000
0000
0000
0000
0000
0000
0100
0000
0000
0000
0001
0000
0000
0000
0010
0000
0000
0000
,  // measure 69
0100
0010
0000
0001
1000
0001
0000
1000
,  // measure 70
0010
0000
0100
0001
0000
0010
0100
0010
,  // measure 71
0100
0000
0000
0000
0000
0000
0000
0000
0000
0000
0000
0000
0000
0000
0000
0000
0000
0000
0000
0000
0000
0000
0000
0000
0000
0000
0000
0000
0000
0000
0000
0000
1000
0000
0000
0000
0000
0000
0000
0000
0000
0000
0000
0000
0000
0000
0000
0000
0000
0000
0000
0000
0000
0000
0000
0000
0000
0000
0000
0000
0000
0000
0000
0000
0000
0000
0000
0000
0000
0000
0000
0000
0010
0000
0000
0000
0000
0000
0000
0000
0000
0000
0000
0000
0000
0000
0000
0000
0000
0000
0000
0000
0000
0000
0000
0000
1000
0000
0000
0000
0000
0000
0000
0000
0000
0000
0000
0000
0000
0000
0000
0000
0000
0000
0000
0000
0000
0000
0000
0000
0100
0000
0000
0000
0000
0000
0000
0000
0000
0000
0000
0000
0000
0000
0000
0000
0000
0000
0000
0000
0000
0000
0000
0000
0000
0000
0000
0000
0000
0000
0010
0000
0000
0000
0000
0000
0000
0000
0000
0000
0000
0000
0000
0000
0000
0000
0000
0000
0000
0000
0000
0000
0000
0000
0000
0000
0000
0000
0000
0000
0000
0000
0000
0000
0000
0000
0000
0000
0000
0000
0000
0000
,  // measure 72
0001
0000
0010
1000
0010
0000
0001
0100
,  // measure 73
0010
0001
0000
0010
1000
0001
0000
0100
,  // measure 74
0010
0000
1000
0100
0000
1100
0000
0101
,  // measure 75
0000
0100
0001
0010
0001
0001
1000
1000
,  // measure 76
0001
0100
0001
0100
0001
0100
0001
0100
0001
0100
0001
0100
0001
0100
0001
0100
,  // measure 77
0010
1000
0010
1000
0010
1000
0010
1000
0010
1000
0010
1000
0010
1000
0010
1000
,  // measure 78
0001
1000
0001
1000
0001
1000
0001
1000
0001
1000
0001
1000
0001
1000
0001
1000
0001
1000
0001
1000
0001
1000
0001
1000
,  // measure 79
0100
0010
0010
0100
0010
0010
0100
1000
,  // measure 80
0010
1000
0010
1000
0010
1000
0010
1000
0010
1000
0010
1000
0010
1000
0010
1000
,  // measure 81
0001
1000
0001
1000
0001
1000
0001
1000
0001
1000
0001
1000
0001
1000
0001
1000
0001
1000
0001
1000
0000
0000
0000
0000
,  // measure 82
0001
0000
0000
0000
0000
0000
0000
0000
0010
0000
0000
0000
0000
0000
0000
0000
0001
0000
0000
0000
0000
0000
0000
0000
0010
0000
0000
0000
0000
0000
0000
0000
0001
0000
0000
0000
0000
0000
0000
0000
0010
0000
0000
0000
0000
0000
0000
0000
0001
0000
0000
0000
0000
0000
0000
0000
0010
0000
0000
0000
0000
0000
0000
0000
0001
0000
0000
0000
0000
0000
0000
0000
0010
0000
0000
0000
0000
0000
0000
0000
0001
0000
0000
0000
0000
0000
0000
0000
0010
0000
0000
0000
0000
0000
0000
0000
0001
0000
0000
0000
0000
0000
0010
0000
0000
0000
0000
0000
0001
0000
0000
0000
0000
0000
0010
0000
0000
0000
0000
0000
0001
0000
0000
0000
0000
0000
0000
0000
0000
0000
0000
0000
0000
0000
0000
0000
0000
0000
0000
0000
0000
0000
0000
0000
1000
0000
0000
0000
0000
0000
0000
0000
0000
0000
0000
0000
0000
0000
0000
0000
0000
0000
0000
0000
0000
0000
0000
0000
0010
0000
0000
0000
0000
0000
0000
0000
0000
0000
0000
0000
0000
0000
0000
0000
0000
0000
0000
0000
0000
0000
0000
0000
,  // measure 83
0100
0010
0010
0100
0010
0010
0100
0001
,  // measure 84
0010
0000
0100
0000
0010
0000
0100
0000
0000
0010
0000
0000
0100
0000
0010
0000
0100
0000
0010
0000
0000
0100
0000
0000
0010
0000
0100
0000
0010
0000
0100
0000
0010
0000
0100
0000
0010
0000
0000
0100
0000
0000
0010
0000
0000
0100
0000
0000
,  // measure 85
1000
0000
0000
0000
0000
0000
0001
0000
0000
0000
0000
0000
1000
0000
0000
0000
0000
0000
0001
0000
0000
0000
0000
0000
1000
0000
0000
0000
0000
0000
0000
0000
0001
0000
0000
0000
0000
0000
0000
0000
1000
0000
0000
0000
0000
0000
0000
0000
0001
0000
0000
0000
0000
0000
0000
0000
1000
0000
0000
0000
0000
0000
0000
0000
0001
0000
0000
0000
0000
0000
0000
0000
1000
0000
0000
0000
0000
0000
0001
0000
0000
0000
0000
0000
1000
0000
0000
0000
0000
0000
0001
0000
0000
0000
0000
0000
1000
0000
0000
0000
0000
0000
0000
0000
0001
0000
0000
0000
0000
0000
0000
0000
1000
0000
0000
0000
0000
0000
0000
0000
0001
0000
0000
0000
0000
0000
0000
0000
1000
0000
0000
0000
0000
0000
0000
0000
0001
0000
0000
0000
0000
0000
0000
0000
1000
0000
0000
0000
0000
0000
0001
0000
0000
0000
0000
0000
1000
0000
0000
0000
0000
0000
0000
0000
0000
0000
0000
0000
0000
0000
0000
0000
0000
0000
0000
0000
0000
0000
0000
0000
0000
0000
0000
0000
0000
0000
0000
0000
0000
0000
0000
0000
,  // measure 86
0001
0000
0000
0000
0000
0000
0100
0000
0000
0000
0000
0000
0001
0000
0000
0000
0000
0000
0100
0000
0000
0000
0000
0000
0001
0000
0000
0000
0000
0000
0100
0000
0000
0000
0000
0000
0001
0000
0000
0000
0000
0000
0100
0000
0000
0000
0000
0000
0001
0000
0000
0000
0000
0000
0000
0000
0100
0000
0000
0000
0000
0000
0000
0000
0001
0000
0000
0000
0000
0000
0000
0000
0100
0000
0000
0000
0000
0000
0000
0000
0001
0000
0000
0000
0000
0000
0000
0000
0100
0000
0000
0000
0000
0000
0000
0000
0001
0000
0000
0000
0000
0000
0000
0000
0100
0000
0000
0000
0000
0000
0000
0000
0001
0000
0000
0000
0000
0000
0000
0000
0100
0000
0000
0000
0000
0000
0000
0000
0000
0000
0000
0000
0001
0000
0000
0000
0000
0000
0000
0000
0000
0000
0000
0000
1000
0000
0000
0000
0000
0000
0000
0000
0000
0000
0000
0000
0000
0000
0000
0000
0000
0000
0000
0000
0000
0000
0000
0000
0001
0000
0000
0000
0000
0000
0000
0000
0000
0000
0000
0000
0000
0000
0000
0000
0000
0000
0000
0000
0000
0000
0000
0000
,  // measure 87
0100
0100
1001
0010
0010
1001
1000
0100
,  // measure 88
1000
0100
0010
0001
1000
0100
0010
0001
1000
0100
0010
0001
1000
0100
0010
0001
1000
0100
0010
0001
1000
0100
0010
0001
1000
0100
0010
0001
1000
0100
0010
0001
1000
0100
0010
0001
1000
0100
0010
0001
1000
0100
0010
0001
1000
0100
0010
0001
,  // measure 89
1000
0100
0010
0001
1000
0100
0010
0001
1000
0100
0010
0001
1000
0100
0010
0001
1000
0100
0010
0001
1000
0100
0010
0001
1000
0100
0010
0001
1000
0100
0010
0001
1000
0100
0010
0001
1000
0100
0010
0001
1000
0100
0010
0001
1000
0100
0010
0001
,  // measure 90
1000
0100
0010
0001
1000
0100
0010
0001
1000
0100
0010
0001
1000
0100
0010
0001
1000
0100
0010
0001
1000
0100
0010
0001
1000
0100
0010
0001
1000
0100
0010
0001
1000
0100
0010
0001
1000
0100
0010
0001
1000
0100
0010
0001
1000
0100
0010
0001
,  // measure 91
1000
0100
0010
0001
1000
0100
0010
0001
1000
0100
0010
0001
1000
0100
0010
0001
1000
0100
0010
0001
1000
0100
0010
0001
1000
0100
0010
0001
1000
0100
0010
0000
0000
0000
0000
0000
0000
0000
0000
0000
0000
0000
0000
0000
0000
0000
0000
0000
,  // measure 92
0001
0000
0000
0000
0000
0000
0100
0000
0000
0000
0000
0000
0010
0000
0000
0000
0000
0000
1000
0000
0000
0000
0000
0000
0001
0000
0000
0000
0000
0000
0100
0000
0000
0000
0000
0000
0010
0000
0000
0000
0000
0000
1000
0000
0000
0000
0000
0000
0001
0000
0000
0000
0000
0000
0000
0000
1000
0000
0000
0000
0000
0000
0000
0000
0001
0000
0000
0000
0000
0000
0000
0000
1000
0000
0000
0000
0000
0000
0000
0000
0001
0000
0000
0000
0000
0000
0000
0000
1000
0000
0000
0000
0000
0000
0000
0000
0001
0000
0000
0000
0000
0000
0000
0000
0000
0000
0000
0000
1000
0000
0000
0000
0000
0000
0000
0000
0000
0000
0000
0000
0000
0000
0000
0000
0000
0000
0000
0000
0000
0000
0000
0000
0000
0000
0000
0000
0000
0000
0000
0000
0000
0000
0000
0000
0000
0000
0000
0000
0000
0000
0000
0000
0000
0000
0000
0000
0000
0000
0000
0000
0000
0000
0000
0000
0000
0000
0000
0000
0000
0000
0000
0000
0000
0000
0000
0000
0000
0000
0000
0000
0000
0000
0000
0000
0000
0000
0000
0000
0000
0000
0000
0000
,  // measure 93
2000
0010
0100
0010
,  // measure 94
3200
0000
0010
0000
1000
0000
0310
0100
,  // measure 95
0010
0100
0001
0100
0010
0100
1000
0001
,  // measure 96
1000
0100
1000
0100
1000
0100
1000
0100
1000
0100
1000
0100
1000
0100
1000
0100
,  // measure 97
0010
0100
0010
0100
0010
0100
0010
0100
0010
0100
0010
0100
0010
0001
0010
0001
,  // measure 98
0100
0001
0100
0001
0100
0001
0100
0001
0100
0001
0100
0001
0100
0001
0100
0001
0100
0001
0100
0001
0100
0001
0100
0001
,  // measure 99
0100
0001
0100
0001
0100
0001
0100
0001
0100
0001
0100
0001
0100
0000
0000
0000
0000
0000
0000
0000
0000
0000
0000
0000
,  // measure 100
0001
0010
0100
1000
0001
0010
0100
1000
0001
0010
0100
1000
0001
0010
0100
1000
0001
0010
0100
1000
0001
0010
0100
1000
0001
0010
0100
1000
0001
0010
0100
1000
,  // measure 101
0001
0010
0100
1000
0001
0010
0100
1000
0001
0010
0100
1000
0001
0010
0100
1000
0001
0010
0100
1000
0001
0010
0100
1000
0001
0010
0100
1000
0001
0010
0100
1000
,  // measure 102
0001
0010
0100
1000
0001
0010
0100
1000
0001
0010
0100
1000
0001
0010
0100
1000
0001
0010
0100
1000
0001
0010
0100
1000
0001
0010
0100
1000
0001
0010
0100
1000
,  // measure 103
0001
0010
0100
1000
0001
0010
0100
1000
0001
0010
0100
1000
0001
0010
0100
1000
0001
0010
0100
1000
0001
0010
0100
1000
0000
0000
0000
0000
0000
0000
0000
0000
,  // measure 104
1000
0000
0100
0000
1000
0100
1000
0100
1000
0100
1000
0100
1000
0000
0000
0000
,  // measure 105
0000
0000
0000
0001
0000
0000
0100
0000
0000
0001
0000
0000
0100
0000
0000
0001
0000
0000
0100
0000
0000
0001
0000
0000
0100
0000
0000
0001
0000
0000
0100
0000
0000
0001
0000
0000
0100
0000
0000
0001
0000
0000
0010
0000
0001
0000
0010
0000
,  // measure 106
0001
0000
0010
0000
0001
0000
0010
0000
0000
0001
0000
0000
0010
0000
0000
0001
0000
0000
0010
0000
0000
0001
0000
0000
0000
0000
0000
0000
0000
0000
0000
0000
0000
0000
0000
0000
0000
0000
0000
0000
0000
0000
0000
0000
0000
0000
0000
0000
,  // measure 107
0000
0000
0000
0000
0000
0000
0000
1000
,  // measure 108
0010
1000
0010
1000
0010
1000
0010
1000
0010
1000
0010
1000
0010
1000
0010
1000
0010
1000
0010
1000
0010
1000
0010
1000
,  // measure 109
0001
0000
0000
0000
0000
0000
0000
0000
1000
0000
0000
0000
0000
0000
0000
0000
0001
0000
0000
0000
0000
0000
0000
0000
1000
0000
0000
0000
0000
0000
0000
0000
0001
0000
0000
0000
0000
0000
0000
0000
1000
0000
0000
0000
0000
0000
0000
0000
0001
0000
0000
0000
0000
0000
0000
0000
1000
0000
0000
0000
0000
0000
0000
0000
0001
0000
0000
0000
0000
0000
0000
0000
1000
0000
0000
0000
0000
0000
0000
0000
0001
0000
0000
0000
0000
0000
0000
0000
1000
0000
0000
0000
0000
0000
0000
0000
0001
0000
0000
0000
0000
0000
0000
0000
1000
0000
0000
0000
0000
0000
0000
0000
0001
0000
0000
0000
0000
0000
0000
0000
1000
0000
0000
0000
0000
0000
0000
0000
0001
0000
0000
0000
0000
0000
0000
0000
1000
0000
0000
0000
0000
0000
0000
0000
0001
0000
0000
0000
0000
0000
0000
0000
0000
0000
0000
0000
0000
0000
0000
0000
0000
0000
0000
0000
0000
0000
0000
0000
0000
0000
0000
0000
0000
0000
0000
0000
0000
0000
0000
0000
0000
0000
0000
0000
0000
0000
1000
0000
0000
0000
0000
0000
,  // measure 110
0001
0010
0100
1000
0001
0010
0100
1000
0001
0010
0100
1000
0001
0010
0100
1000
0001
0010
0100
1000
0001
0010
0100
0000
0000
0000
0000
0000
0000
0000
0000
0000
,  // measure 111
0000
0000
0000
0000
,  // measure 112
1000
0010
2000
0000
0010
0000
0100
0000
,  // measure 113
3002
0010
0100
0010
,  // measure 114
0203
0000
0010
0000
0001
0000
0310
0100
,  // measure 115
0010
0100
1000
0100
0010
0100
0001
1000
,  // measure 116
1001
1001
1001
0000
0000
0000
0000
0000
,  // measure 117
0000
0000
0000
0000
0000
0000
0000
0000
0000
0000
0000
0000
0000
0000
0000
0000
0000
0000
0000
0000
0000
0000
0000
0100
0000
0000
0000
0000
0000
0000
0000
0000
;

//---------------dance-single - 24ths at worst----------------
#NOTEDATA:;
#CHARTNAME:The nerfed one;
#STEPSTYPE:dance-single;
#DESCRIPTION:24ths at worst;
#CHARTSTYLE:;
#DIFFICULTY:Hard;
#METER:65;
#RADARVALUES:1.005248,1.724275,0.155442,0.065764,1.392999,1177.000000,1151.000000,26.000000,11.000000,0.000000,0.000000,0.000000,0.000000,0.000000,1.005248,1.724275,0.155442,0.065764,1.392999,1177.000000,1151.000000,26.000000,11.000000,0.000000,0.000000,0.000000,0.000000,0.000000;
#CREDIT:Riakodoadm;
#NOTES:
// measure 0
0000
0000
0000
0000
,  // measure 1
0000
0000
0000
0000
,  // measure 2
0000
0000
0000
0000
,  // measure 3
0000
0000
0000
0000
,  // measure 4
0000
0000
0000
0000
,  // measure 5
0000
0000
0000
0000
,  // measure 6
0000
0000
0000
0000
,  // measure 7
0000
0000
0000
0000
,  // measure 8
1000
0010
1000
0100
0000
0100
0000
0010
,  // measure 9
0000
0010
0000
0001
0010
0100
1000
0010
,  // measure 10
0100
0001
0010
0001
0000
0001
0000
1000
,  // measure 11
0000
1000
0000
0010
0100
0100
0100
0000
,  // measure 12
0002
0010
0000
0000
0000
0000
0103
0000
0000
0001
0000
0000
0000
0000
0000
1000
0000
0000
0100
0000
0000
1000
0000
0000
,  // measure 13
0010
0100
0000
0010
1000
0100
0000
0010
,  // measure 14
0001
0000
0000
0000
0000
0000
0010
0000
0000
0000
0000
0000
0000
0000
0000
0000
0000
0000
0000
0000
0100
0000
0000
0000
0000
0000
0000
0000
0000
0000
0000
0000
0000
1000
0000
0000
0000
0000
0000
0000
0000
0000
0010
0000
0000
0000
0000
0000
,  // measure 15
0000
0000
0000
0000
0000
1010
0000
0000
0000
0000
0000
0000
0001
0000
0000
0000
0011
0000
0000
0000
0000
0000
0000
0000
1001
0000
0000
0000
0000
0000
0000
0000
,  // measure 16
2010
0000
3100
1000
0000
0001
0100
0001
,  // measure 17
0010
0100
0000
0010
0001
0100
0000
0010
,  // measure 18
0000
0000
0000
1000
0000
0000
0000
0000
0000
0000
0000
0000
0000
0000
0010
0000
0000
0000
0000
0000
0100
0000
0000
0000
0000
0000
0000
0000
0000
0000
0001
0000
0000
0000
0000
0000
0000
0000
0000
0000
0000
0000
0010
0000
0000
0000
0000
0000
,  // measure 19
0000
0011
0000
1000
0010
1000
1001
0000
,  // measure 20
0000
0000
0000
0000
0001
0000
0000
0000
0000
0000
0000
0000
0100
0000
0000
0000
0000
0000
0000
0000
1000
0000
0000
0000
0000
0000
0000
0000
0000
0000
0000
0100
0000
0000
0000
0000
0000
0010
0000
0000
0000
0000
0001
0000
0000
0000
0000
0000
,  // measure 21
0010
0001
0000
0010
1000
0010
0000
1000
,  // measure 22
0100
0000
0010
0001
0010
0100
0010
1000
,  // measure 23
0001
0100
1000
0010
0100
0100
0001
0001
,  // measure 24
1000
0100
1000
0100
1000
0100
1000
0100
1000
0100
1000
0100
1000
0100
1000
0100
,  // measure 25
0010
0001
0010
0001
0010
0001
0010
0001
0010
0001
0010
0001
0010
0001
0010
0001
,  // measure 26
1000
0001
1000
0001
1000
0001
1000
0001
1000
0001
1000
0001
1000
0001
1000
0001
,  // measure 27
0100
0010
0010
0100
0010
0010
1000
0001
,  // measure 28
0100
0001
0100
0001
0100
0001
0100
0001
0100
0001
0100
0001
0100
0001
0100
0001
,  // measure 29
1000
0010
1000
0010
1000
0010
1000
0010
1000
0010
1000
0010
1000
0010
1000
0010
,  // measure 30
1000
0001
1000
0001
1000
0001
1000
0001
1000
0001
1000
0001
1000
0001
1000
0001
,  // measure 31
1000
0010
0010
0100
0010
0010
0100
0001
,  // measure 32
0010
0001
0010
0001
0010
0001
0010
0001
0010
0001
0010
0001
0010
0001
0010
0001
,  // measure 33
1000
0001
1000
0001
1000
0001
1000
0001
1000
0001
1000
0001
1000
0001
1000
0001
,  // measure 34
1000
0010
1000
0010
1000
0010
1000
0010
1000
0010
1000
0010
1000
0010
1000
0010
,  // measure 35
0100
0100
1001
0010
0010
1001
1000
0100
,  // measure 36
0010
0000
0000
0001
0000
0000
1000
0100
0010
0001
1000
0100
0010
0001
1000
0100
0010
0001
1000
0100
0010
0001
1000
0100
,  // measure 37
0010
0001
1000
0100
0010
0001
1000
0100
0010
0001
1000
0100
0010
0001
1000
0100
0010
0001
1000
0100
0010
0001
1000
0100
,  // measure 38
0010
0001
1000
0100
0010
0001
1000
0100
0010
0001
1000
0100
0010
0001
1000
0100
0010
0001
1000
0100
0010
0001
1000
0100
,  // measure 39
0010
0001
1000
0100
0010
0001
1000
0100
0010
0001
1000
0100
0010
0001
1000
0100
0010
0001
0000
0000
0000
1000
0000
0000
,  // measure 40
2000
0010
0000
0000
0000
0000
3100
0000
0000
1000
0000
0000
0000
0000
0000
0000
0000
0000
0010
0000
0000
1000
0000
0000
,  // measure 41
0010
0010
0000
1100
0000
0000
0010
0100
,  // measure 42
0010
0000
0000
0101
0000
0000
0010
0001
,  // measure 43
0010
0010
0000
0101
0000
0000
0001
0100
,  // measure 44
0010
0100
0010
0100
0001
0010
0100
1000
0010
0100
0010
0100
0001
0010
0100
1000
,  // measure 45
0010
0100
0010
0100
0001
0010
0100
1000
0010
0100
0010
0100
0001
0010
0100
1000
,  // measure 46
0010
0100
0010
0100
0001
0010
0100
1000
0010
0100
0010
0100
0001
0010
0100
1000
,  // measure 47
0010
0100
0010
0100
0001
0010
0100
1000
0010
0100
0010
0100
0001
0010
0100
1000
,  // measure 48
0001
0020
0100
0000
0001
0000
0130
1000
,  // measure 49
0100
1000
0001
0100
0020
0000
0100
0000
,  // measure 50
1030
0200
0010
0000
1000
0000
0310
0001
,  // measure 51
1000
0010
0100
0001
1000
0010
0100
0001
1000
0010
0100
0001
1000
0010
0100
0001
,  // measure 52
0000
0000
0000
0100
0100
0100
0000
0000
,  // measure 53
0000
0000
0000
0100
0100
0100
0000
0000
,  // measure 54
0000
0000
0000
0100
0100
0100
0000
0000
,  // measure 55
0000
0000
0000
0001
0010
0010
0100
0100
,  // measure 56
1000
0100
0010
0001
0000
0101
0000
1000
,  // measure 57
0000
1100
0000
0100
0001
0100
1000
0010
,  // measure 58
0100
0010
1000
0001
0000
0011
0000
1000
,  // measure 59
0000
1010
0000
0010
0001
0010
0100
0001
,  // measure 60
1000
0100
0010
0001
0000
0101
0000
1000
,  // measure 61
0000
1100
0000
0100
0001
0100
1000
0010
,  // measure 62
0100
0010
1000
0001
0000
0011
0000
1000
,  // measure 63
0000
0000
0000
1010
0000
0000
0000
0000
0000
0010
0000
0000
0001
0000
0000
0010
0000
0000
0100
0000
0000
0000
0001
0000
,  // measure 64
1000
0000
0000
0000
0000
0000
0000
0000
0000
0000
0000
0000
0000
0000
0000
0000
0000
0000
0000
0000
0000
0000
0000
0000
0000
0000
0000
0000
0000
0000
0000
0000
0000
0000
0000
0000
0000
0000
0000
0000
0000
0000
0000
0000
0000
0000
0000
0000
0100
0000
0000
0000
0000
0000
0000
0000
0000
0000
0000
0000
0000
0000
0000
0000
0001
0000
0000
0000
0000
0000
0000
0000
0000
0000
0000
0000
0000
0000
0000
0000
0000
0000
0000
0000
0000
0000
0000
0000
0000
0000
0000
0000
0000
0000
0000
0000
0000
0000
0000
0000
0000
0000
0000
0000
0000
0000
0000
0000
0000
0000
0000
0000
0000
0000
0000
0000
0000
0000
0000
0000
0000
0000
0000
0000
0000
0000
0100
0000
0000
0000
0000
0000
0000
0000
0000
0000
0000
0000
0000
0000
0000
0000
0000
0000
0000
0000
0000
0000
0000
0000
1000
0000
0000
0000
0000
0000
0000
0000
0000
0000
0000
0000
0000
0000
0000
0000
0000
0000
0010
0000
0000
0000
0000
0000
0000
0000
0000
0000
0000
0000
0000
0000
0000
0000
0000
0000
0000
0000
0000
0000
0000
0000
,  // measure 65
0100
0010
0000
1000
0001
1000
0000
0001
,  // measure 66
0010
0000
0000
0000
0000
0000
0000
0000
0100
0000
0000
0000
1000
0000
0000
0000
0000
0000
0000
0000
0010
0000
0000
0100
0000
0000
0000
0000
0010
0000
0000
0000
,  // measure 67
0100
0001
0000
0010
0001
0100
1000
0100
,  // measure 68
0000
0001
0000
0000
0000
0000
0000
0000
0100
0000
0000
0000
0000
1000
0000
0000
0000
0000
0000
0000
0100
0000
0000
0000
0001
0000
0000
0000
0010
0000
0000
0000
,  // measure 69
0100
0010
0000
0001
1000
0001
0000
1000
,  // measure 70
0010
0000
0100
0001
0000
0010
0100
0010
,  // measure 71
0100
0000
0000
0000
0000
0000
0000
0000
0000
0000
0000
0000
0000
0000
0000
0000
0000
0000
0000
0000
0000
0000
0000
0000
0000
0000
0000
0000
0000
0000
0000
0000
1000
0000
0000
0000
0000
0000
0000
0000
0000
0000
0000
0000
0000
0000
0000
0000
0000
0000
0000
0000
0000
0000
0000
0000
0000
0000
0000
0000
0000
0000
0000
0000
0000
0000
0000
0000
0000
0000
0000
0000
0010
0000
0000
0000
0000
0000
0000
0000
0000
0000
0000
0000
0000
0000
0000
0000
0000
0000
0000
0000
0000
0000
0000
0000
1000
0000
0000
0000
0000
0000
0000
0000
0000
0000
0000
0000
0000
0000
0000
0000
0000
0000
0000
0000
0000
0000
0000
0000
0100
0000
0000
0000
0000
0000
0000
0000
0000
0000
0000
0000
0000
0000
0000
0000
0000
0000
0000
0000
0000
0000
0000
0000
0000
0000
0000
0000
0000
0000
0010
0000
0000
0000
0000
0000
0000
0000
0000
0000
0000
0000
0000
0000
0000
0000
0000
0000
0000
0000
0000
0000
0000
0000
0000
0000
0000
0000
0000
0000
0000
0000
0000
0000
0000
0000
0000
0000
0000
0000
0000
0000
,  // measure 72
0001
0000
0010
1000
0010
0000
0001
0100
,  // measure 73
0010
0001
0000
0010
1000
0001
0000
0100
,  // measure 74
0010
0000
1000
0100
0000
1100
0000
0101
,  // measure 75
0000
0100
0001
0010
0001
0001
1000
1000
,  // measure 76
0001
0100
0001
0100
0001
0100
0001
0100
0001
0100
0001
0100
0001
0100
0001
0100
,  // measure 77
0010
1000
0010
1000
0010
1000
0010
1000
0010
1000
0010
1000
0010
1000
0010
1000
,  // measure 78
0001
1000
0001
1000
0001
1000
0001
1000
0001
1000
0001
1000
0001
1000
0001
1000
,  // measure 79
0100
0010
0010
0100
0010
0010
0100
1000
,  // measure 80
0010
1000
0010
1000
0010
1000
0010
1000
0010
1000
0010
1000
0010
1000
0010
1000
,  // measure 81
0001
1000
0001
1000
0001
1000
0001
1000
0001
1000
0001
1000
0001
1000
0000
0000
,  // measure 82
0001
0010
0001
0010
0001
0010
0001
0010
0001
0010
0001
0000
1000
0000
0010
0000
,  // measure 83
0100
0010
0010
0100
0010
0010
0100
0001
,  // measure 84
0010
0001
0010
0100
0010
0001
0010
0100
0010
0001
0010
0100
0010
0001
0010
0100
,  // measure 85
1000
0010
1000
0001
1000
0010
1000
0001
1000
0010
1000
0001
1000
0010
1000
0001
,  // measure 86
0100
0010
1000
0010
0100
0010
1000
0010
0100
0010
1000
0010
0100
0000
0001
0000
,  // measure 87
0100
0100
1001
0010
0010
1001
1000
0100
,  // measure 88
1000
0100
0010
0001
1000
0100
0010
0001
1000
0100
0010
0001
1000
0100
0010
0001
1000
0100
0010
0001
1000
0100
0010
0001
,  // measure 89
1000
0100
0010
0001
1000
0100
0010
0001
1000
0100
0010
0001
1000
0100
0010
0001
1000
0100
0010
0001
1000
0100
0010
0001
,  // measure 90
1000
0100
0010
0001
1000
0100
0010
0001
1000
0100
0010
0001
1000
0100
0010
0001
1000
0100
0010
0001
1000
0100
0010
0001
,  // measure 91
1000
0100
0010
0001
1000
0100
0010
0001
1000
0100
0010
0001
1000
0100
0010
0001
0000
0000
0000
0000
0000
0000
0000
0000
,  // measure 92
0001
0100
0010
1000
0001
0100
0010
1000
0001
0100
0010
1000
0001
0000
0000
0000
0000
0000
0000
0000
0000
0000
0000
0000
,  // measure 93
2000
0010
0100
0010
,  // measure 94
3200
0000
0010
0000
1000
0000
0310
0100
,  // measure 95
0010
0100
0001
0100
0010
0100
1000
0001
,  // measure 96
1000
0100
1000
0100
1000
0100
1000
0100
1000
0100
1000
0100
1000
0100
1000
0100
,  // measure 97
0010
0100
0010
0100
0010
0100
0010
0100
0010
0100
0010
0100
0010
0001
0010
0001
,  // measure 98
0100
0001
0100
0001
0100
0001
0100
0001
0100
0001
0100
0001
0100
0001
0100
0001
,  // measure 99
0100
0001
0100
0001
0100
0001
0100
0001
0100
0000
0000
0000
0000
0000
0000
0000
,  // measure 100
0001
0010
0100
1000
0001
0010
0100
1000
0001
0010
0100
1000
0001
0010
0100
1000
0001
0010
0100
1000
0001
0010
0100
1000
,  // measure 101
0001
0010
0100
1000
0001
0010
0100
1000
0001
0010
0100
1000
0001
0010
0100
1000
0001
0010
0100
1000
0001
0010
0100
1000
,  // measure 102
0001
0010
0100
1000
0001
0010
0100
1000
0001
0010
0100
1000
0001
0010
0100
1000
0001
0010
0100
1000
0001
0010
0100
1000
,  // measure 103
0001
0010
0100
1000
0001
0010
0100
1000
0001
0010
0100
1000
0001
0010
0100
1000
0001
0010
0100
0000
0000
0000
0000
0000
,  // measure 104
1000
0000
0100
0000
1000
0100
1000
0100
1000
0100
1000
0100
1000
0000
0000
0000
,  // measure 105
0000
0000
0000
0001
0000
0000
0100
0000
0000
0001
0000
0000
0100
0000
0000
0001
0000
0000
0100
0000
0000
0001
0000
0000
0100
0000
0000
0001
0000
0000
0100
0000
0000
0001
0000
0000
0100
0000
0000
0001
0000
0000
0010
0000
0001
0000
0010
0000
,  // measure 106
0001
0000
0010
0000
0001
0000
0010
0000
0000
0001
0000
0000
0010
0000
0000
0001
0000
0000
0010
0000
0000
0001
0000
0000
0000
0000
0000
0000
0000
0000
0000
0000
0000
0000
0000
0000
0000
0000
0000
0000
0000
0000
0000
0000
0000
0000
0000
0000
,  // measure 107
0000
0000
0000
0000
0000
0000
0000
1000
,  // measure 108
0010
1000
0010
1000
0010
1000
0010
1000
0010
1000
0010
1000
0010
1000
0010
1000
0010
1000
0010
1000
0010
1000
0010
1000
,  // measure 109
0001
1000
0001
1000
0001
1000
0001
1000
0001
1000
0001
1000
0001
1000
0001
1000
0001
1000
0001
0000
0000
0000
0000
0000
,  // measure 110
0001
0010
0100
1000
0001
0010
0100
1000
0001
0010
0100
1000
0001
0010
0100
1000
0000
0000
0000
0000
0000
0000
0000
0000
,  // measure 111
0000
0000
0000
0000
,  // measure 112
1000
0010
2000
0000
0010
0000
0100
0000
,  // measure 113
3002
0010
0100
0010
,  // measure 114
0203
0000
0010
0000
0001
0000
0310
0100
,  // measure 115
0010
0100
1000
0100
0010
0100
0001
1000
,  // measure 116
1001
1001
1001
0000
0000
0000
0000
0000
,  // measure 117
0000
0000
0000
0000
0000
0000
0000
0000
0000
0000
0000
0000
0000
0000
0000
0000
0000
0000
0000
0000
0000
0000
0000
0100
0000
0000
0000
0000
0000
0000
0000
0000
;

//---------------dance-single - ----------------
#NOTEDATA:;
#CHARTNAME:The playable one;
#STEPSTYPE:dance-single;
#DESCRIPTION:;
#CHARTSTYLE:;
#DIFFICULTY:Medium;
#METER:11;
#RADARVALUES:0.597000,0.625504,0.508176,0.113592,0.000000,699.000000,614.000000,85.000000,19.000000,60.000000,0.000000,0.000000,0.000000,0.000000,0.597000,0.625504,0.508176,0.113592,0.000000,699.000000,614.000000,85.000000,19.000000,60.000000,0.000000,0.000000,0.000000,0.000000;
#CREDIT:Riakodoadm;
#NOTES:
// measure 0
0000
0000
0000
0000
,  // measure 1
0000
0000
0000
0000
,  // measure 2
0000
0000
0000
0000
,  // measure 3
0000
0000
0000
0000
,  // measure 4
0000
0000
0000
0000
,  // measure 5
0000
0000
0000
0000
,  // measure 6
0000
0000
0000
0000
,  // measure 7
0000
0000
0000
0000
,  // measure 8
1000
0010
1000
0100
0000
0100
0000
0010
,  // measure 9
0000
0010
0000
0001
0010
0100
1000
0010
,  // measure 10
0100
0001
0010
0001
0000
0001
0000
1000
,  // measure 11
0000
1000
0000
0010
0100
0100
0100
0000
,  // measure 12
0012
0000
0103
0001
0000
1000
0100
1000
,  // measure 13
0010
0100
0000
0010
1000
0100
0000
0010
,  // measure 14
0001
0000
0010
0100
0000
1000
0000
0010
,  // measure 15
0000
1010
0000
0001
0011
0000
1001
0000
,  // measure 16
2010
0000
3100
1000
0000
0001
0100
0001
,  // measure 17
0010
0100
0000
0010
0001
0100
0000
0010
,  // measure 18
1000
0000
0010
0100
0000
0001
0000
0010
,  // measure 19
0000
0011
0000
1000
0010
1000
1001
0000
,  // measure 20
0001
0100
1000
0100
0000
0010
0000
0001
,  // measure 21
0010
0001
0000
0010
1000
0010
0000
1000
,  // measure 22
0100
0000
0010
0001
0010
0100
0010
1000
,  // measure 23
0001
0100
1000
0010
0100
0100
0001
0001
,  // measure 24
1000
0100
2000
0000
0010
0000
3010
0000
,  // measure 25
1010
1010
0110
0110
,  // measure 26
0101
0000
0101
0000
1001
0000
1001
1000
,  // measure 27
0100
0010
0100
0001
0100
0010
0100
1000
,  // measure 28
0001
0100
0002
0000
0010
0000
0013
0000
,  // measure 29
0011
0011
0110
0110
,  // measure 30
1100
0000
1100
0000
1001
0000
1001
0001
,  // measure 31
0100
0010
0100
1000
0100
0010
0100
0001
,  // measure 32
0010
0001
0100
0000
1010
0000
0000
1000
,  // measure 33
0010
1000
0100
0000
0011
0000
0000
0010
,  // measure 34
0001
0100
0010
0000
1010
0010
0100
0101
,  // measure 35
0000
0001
0010
0100
0001
0100
0010
0100
,  // measure 36
1000
0010
1000
0000
1010
0000
0110
0000
,  // measure 37
0001
0010
0001
0000
0011
0000
0110
0000
,  // measure 38
1000
0100
0010
0001
1000
0010
0100
0001
,  // measure 39
0100
0010
1000
0001
0010
0100
1000
0001
,  // measure 40
2000
0000
3100
1000
0000
0000
0010
1000
,  // measure 41
0010
0010
0000
1100
0000
0000
0010
0100
,  // measure 42
0010
0000
0000
0101
0000
0000
0010
0001
,  // measure 43
0010
0010
0000
0101
0000
0000
0001
0100
,  // measure 44
0002
0000
0103
0001
0000
0000
0010
0001
,  // measure 45
0010
0010
0000
0101
0000
0000
0010
0100
,  // measure 46
0010
0000
0000
1100
0000
0000
0010
1000
,  // measure 47
0010
0010
0000
1100
2000
0000
3001
0100
,  // measure 48
0010
2000
0010
0010
0000
3001
1000
0010
,  // measure 49
0100
0020
0000
0100
0100
0000
1030
0100
,  // measure 50
0010
0002
0010
0010
0000
1003
0001
0010
,  // measure 51
0100
1000
1001
0000
1001
0000
1001
0000
,  // measure 52
0000
0000
0000
0100
0100
0100
0000
0000
,  // measure 53
0000
0000
0000
0100
0100
0100
0000
0000
,  // measure 54
0000
0000
0000
0100
0100
0100
0000
0000
,  // measure 55
0000
0000
0000
0001
0010
0010
0100
0100
,  // measure 56
1000
0100
0010
0001
0000
0101
0000
1000
,  // measure 57
0000
1100
0000
0100
0001
0100
1000
0010
,  // measure 58
0100
0010
1000
0001
0000
0011
0000
1000
,  // measure 59
0000
1010
0000
0010
0001
0010
0100
0001
,  // measure 60
1000
0100
0010
0001
0000
0101
0000
1000
,  // measure 61
0000
1100
0000
0100
0001
0100
1000
0010
,  // measure 62
0100
0010
1000
0001
0000
0011
0000
1000
,  // measure 63
0000
1010
0000
0010
0001
0010
0100
0001
,  // measure 64
1000
0000
0100
0001
0000
0100
1000
0010
,  // measure 65
0100
0010
0000
1000
0001
1000
0000
0001
,  // measure 66
0010
0000
0100
1000
0000
0010
0100
0010
,  // measure 67
0100
0001
0000
0010
0001
0100
1000
0100
,  // measure 68
0001
0000
0100
1000
0000
0100
0001
0010
,  // measure 69
0100
0010
0000
0001
1000
0001
0000
1000
,  // measure 70
0010
0000
0100
0001
0000
0010
0100
0010
,  // measure 71
0100
1000
0000
0010
1000
0100
0010
0000
,  // measure 72
0001
0000
0010
1000
0010
0000
0001
0100
,  // measure 73
0010
0001
0000
0010
1000
0001
0000
0100
,  // measure 74
0010
0000
1000
0100
0000
1100
0000
0101
,  // measure 75
0000
0100
0001
0010
0001
0001
1000
1000
,  // measure 76
0001
0010
0100
0000
1100
0000
1MMM
0000
,  // measure 77
1010
1MMM
1001
MMM1
,  // measure 78
0011
0000
MM1M
0000
0110
0000
MM1M
0001
,  // measure 79
0010
0100
0010
1000
0010
0001
1000
0010
,  // measure 80
1000
0010
0100
0000
0101
0000
MMM1
0000
,  // measure 81
0011
MMM1
1001
1MMM
,  // measure 82
1010
0000
MM1M
0000
0110
0000
MM1M
1000
,  // measure 83
0010
0100
0010
0001
0010
1000
0001
0010
,  // measure 84
0100
1000
0010
0000
0101
0000
0000
0001
,  // measure 85
0100
0001
0010
0000
1100
0000
0000
0100
,  // measure 86
1000
0010
0100
0000
0101
0100
0010
1010
,  // measure 87
0000
1000
0100
0010
1000
0010
0100
0010
,  // measure 88
0001
0100
0001
0000
0011
0000
MM1M
0000
,  // measure 89
1010
MM1M
0110
M1MM
,  // measure 90
1100
0000
1MMM
0000
0101
0000
MMM1
0010
,  // measure 91
1000
0001
0100
1000
0001
0010
0100
1000
,  // measure 92
0100
1000
0100
0000
1010
0000
MM1M
0000
,  // measure 93
0011
MM1M
0110
M1MM
,  // measure 94
0101
0000
MMM1
0000
1100
0000
1MMM
0010
,  // measure 95
0001
1000
0100
0001
1000
0010
0100
0001
,  // measure 96
1000
0010
1000
0000
1010
0000
0010
0100
,  // measure 97
0001
0010
0001
0000
0011
0000
0010
0100
,  // measure 98
1000
0001
0100
0000
0101
0000
0001
0010
,  // measure 99
0001
0100
0001
0100
0010
1000
0010
1000
,  // measure 100
0001
0010
0001
0000
0011
0000
0010
0100
,  // measure 101
1000
0010
1000
0000
1010
0000
0010
0100
,  // measure 102
0001
1000
0100
0000
1100
0000
1000
0010
,  // measure 103
1000
0100
1000
0100
0010
0001
0010
0001
,  // measure 104
1000
0001
2000
0000
0100
0000
0010
0000
,  // measure 105
3002
0010
0100
0010
,  // measure 106
2003
0010
0100
3001
,  // measure 107
1000
0110
0001
0110
,  // measure 108
0001
0010
0002
0000
0010
0000
0100
0000
,  // measure 109
2003
0010
0100
0010
,  // measure 110
3200
0000
0010
0000
1000
0000
0310
0100
,  // measure 111
0010
0100
0001
0100
0010
0100
1000
0001
,  // measure 112
1000
0010
2000
0000
0010
0000
0100
0000
,  // measure 113
3002
0010
0100
0010
,  // measure 114
0203
0000
0010
0000
0001
0000
0310
0100
,  // measure 115
0010
0100
1000
0100
0010
0100
0001
1000
,  // measure 116
1001
1001
1001
0000
0000
0000
0000
0000
;
