#VERSION:0.83;
#TITLE:IOSYS framed Marisa for theft;
#SUBTITLE:;
#ARTIST:CHAOS_CUT;
#TITLETRANSLIT:;
#SUBTITLETRANSLIT:;
#ARTISTTRANSLIT:;
#GENRE:WITCHES' SPEEDCORE;
#ORIGIN:;
#CREDIT:(this simfile, 2021/2023);
#BANNER:IOSYS framed Marisa for theft.png;
#BACKGROUND:IOSYS framed Marisa for theft-bg.png;
#PREVIEWVID:;
#JACKET:IOSYS framed Marisa for theft-jacket.png;
#CDIMAGE:;
#DISCIMAGE:;
#LYRICSPATH:;
#CDTITLE:;
#MUSIC:IOSYS framed Marisa for theft.ogg;
#OFFSET:0.000000;
#SAMPLESTART:17.561001;
#SAMPLELENGTH:15.000000;
#SELECTABLE:YES;
#BPMS:0.000=164.000,
48.000=328.000,
110.000=164.000,
111.000=328.000,
175.000=164.000,
231.000=328.000,
295.000=164.000,
367.000=328.000,
495.000=164.000;
#STOPS:;
#DELAYS:;
#WARPS:;
#TIMESIGNATURES:0.000=4=4;
#TICKCOUNTS:0.000=4;
#COMBOS:0.000=1;
#SPEEDS:0.000=1.000=0.000=0;
#SCROLLS:0.000=1.000;
#FAKES:;
#LABELS:0.000=Song Start,
32.000=Pre-verse 1,
48.000=Verse 1a,
111.000=Verse 1b,
183.000=Bridge 1,
215.000=Pre-verse 2,
231.000=Verse 2,
303.000=Bridge 2,
335.000=Pre-verse 3,
367.000=Verse 3a,
431.000=Verse 3b,
495.000=Song End;
#BGCHANGES:;
#KEYSOUNDS:;
#ATTACKS:
;

//---------------dance-single - ----------------
#NOTEDATA:;
#CHARTNAME:Challenge;
#STEPSTYPE:dance-single;
#DESCRIPTION:;
#CHARTSTYLE:;
#DIFFICULTY:Challenge;
#METER:18;
#RADARVALUES:0.996047,1.343119,1.150473,0.671752,0.474860,903.000000,754.000000,149.000000,87.000000,4.000000,0.000000,0.000000,0.000000,0.000000,0.996047,1.343119,1.150473,0.671752,0.474860,903.000000,754.000000,149.000000,87.000000,4.000000,0.000000,0.000000,0.000000,0.000000;
#CREDIT:Riakodoadm;
#NOTES:
0000
0000
0000
0000
,
0000
0000
0000
0000
,
0000
0000
0000
0000
,
0000
0000
0000
0000
,
1000
0010
0100
0010
1000
0010
0100
0010
,
1000
0001
0010
0100
0010
0001
0010
0100
,
0010
0001
0100
0001
0010
0001
0100
0001
,
0010
0100
1000
0010
1000
0100
MMMM
0000
,
0110
0110
0110
0110
,
1001
0010
1001
0100
1001
0010
1001
0100
,
0110
0110
0110
0110
,
1001
0000
0000
0010
0000
0000
1001
0000
0000
0100
0000
0000
1001
0000
0000
0000
0000
0000
1000
0100
0010
0001
0010
0100
,
1000
0000
0000
0000
0100
0000
0000
0000
0210
0300
0000
0000
0010
0000
0000
0000
,
0120
0030
0000
0000
0100
0000
0000
0000
1200
0300
0000
0000
1000
0000
0000
0000
,
1002
0003
0000
0000
0100
0000
0000
0000
2001
3000
0000
0000
0001
0000
0000
0000
,
0012
0003
0000
0000
1000
0000
0000
0000
0021
0030
0000
0000
0001
0000
1000
0000
,
0001
0000
0000
0000
0100
0000
0000
0000
0210
0300
0000
0000
0010
0000
0000
0000
,
2010
3000
0000
0000
0001
0000
0000
0000
1020
0030
0000
0000
1000
0000
0000
0000
,
2100
3000
0000
0000
0100
0000
0000
0000
0210
0300
0000
0000
0010
0000
0000
0000
,
2001
3000
0000
0000
0001
0000
0000
0000
0100
0000
0010
0000
1000
0000
0001
0000
,
0010
0000
0000
0000
0100
0000
0000
0000
0210
0300
0000
0000
0010
0000
0000
0000
,
0012
0003
0000
0000
0100
0000
0000
0000
0021
0030
0000
0000
0001
0000
0000
0000
,
2001
3000
0000
0000
0100
0000
0000
0000
1002
0003
0000
0000
1000
0000
0000
0000
,
2010
3000
0000
0000
0001
0000
0000
0000
1020
0030
0000
0000
1000
0000
0001
0000
,
1000
0000
0000
0000
0100
0000
0000
0000
0210
0300
0000
0000
1000
0000
0000
0000
,
0102
0003
0000
0000
1000
0000
0000
0000
2010
3000
0000
0000
0001
0000
0000
0000
,
0102
0003
0000
0000
0100
0000
0000
0000
0210
0300
0000
0000
0010
0000
0000
0000
,
1002
0000
0000
0003
0000
0000
0000
0000
0000
0000
0000
0000
1000
0000
0000
0000
0000
0000
0000
0000
0000
0000
0000
0000
0100
0000
0000
0000
0010
0000
0000
0000
0001
0000
1000
0000
0001
0000
0000
0000
0000
0000
0000
0000
0000
0000
0000
0000
,
0010
0110
0100
0110
,
0010
0011
0001
1001
,
0010
1001
1000
1100
,
0001
0000
1100
0000
1000
0001
1000
0000
,
0010
0110
0100
0101
,
1000
0101
0001
0011
,
0010
0110
0100
1001
,
1000
0000
0010
0100
0001
1000
0100
0000
,
0010
0110
0100
1100
,
0010
1100
1000
1001
,
0010
1001
0001
0101
,
1000
0000
0101
0000
0001
1000
0001
0000
,
0010
0110
0001
1010
,
0001
0101
1000
1010
,
0010
0110
0100
1001
,
0001
0000
0100
0010
1000
0100
0000
0000
,
0000
0000
0000
0000
,
0000
0000
0000
0000
0000
0000
0001
0010
,
0001
0000
0100
0010
0000
0100
0010
0000
1000
0010
1000
0010
0100
0000
0001
1000
,
0000
0000
0000
0100
0000
0000
0010
0000
0000
0000
0000
0000
0001
0000
0000
0100
0000
0000
0001
0000
0000
0000
0000
0000
1001
0000
0000
0000
0000
0000
1000
0000
0100
0000
0010
0000
0001
0000
0000
0000
0000
0000
0000
0000
0000
0000
0000
0000
,
1000
0000
0000
0010
0000
0000
1000
0000
0000
0010
0000
0000
0000
0000
0000
0100
0000
0000
0010
0000
0000
0000
0000
0000
0100
0000
0000
0001
0000
0000
0010
0000
0000
0100
0000
0000
1000
0000
0100
0000
0010
0000
0000
0000
0000
0001
0000
0000
,
0100
0000
0000
0000
0000
0000
0010
0000
0000
1000
0000
0000
0000
0000
0000
0001
0000
0000
0010
0000
0000
0100
0000
0000
0010
0000
0001
0000
1000
0000
0010
0000
0000
0100
0000
0000
0001
0000
0000
0000
0000
0000
0000
0000
0000
0000
0000
0000
,
0010
0001
0100
0010
0000
0100
0010
0000
1010
0000
0000
1000
0100
0000
0010
0000
,
1000
0000
0000
0010
0000
0000
1000
0000
0000
0010
0000
0000
0001
0000
0000
1000
0000
0000
0010
0000
0100
0000
0001
0000
1000
0000
0000
0000
0000
0000
1001
0000
0000
0000
0000
0000
0001
0000
0000
0000
0000
0000
0000
0000
0000
0000
0000
0000
,
0100
0000
0000
0000
0000
0000
0010
0000
0000
0100
0000
0000
0000
0000
0000
0010
0000
0000
0100
0000
0001
0000
1000
0000
0010
0000
0000
0000
0000
0000
1000
0000
0100
0000
0010
0000
0001
0000
0000
0100
0000
0000
0000
0000
0000
1000
0000
0000
,
0100
0000
0001
0100
0010
1000
0000
0010
0000
0001
0010
0000
0110
0000
0000
0000
,
0110
0000
0110
0000
0110
0000
1001
0100
,
1001
0010
1001
0100
1001
0010
0110
0000
,
0110
0000
0110
0000
0110
0000
1001
0010
,
1001
0000
0000
0100
0000
0000
1001
0000
0000
0000
0000
0000
0001
0100
0010
1000
0010
0100
0001
0000
0000
0000
0000
0000
,
0101
1000
0101
1000
,
0010
1000
0001
0000
0010
0001
0100
0000
,
0010
1000
0100
0000
0001
0100
0010
0000
,
0001
0010
0100
0000
1000
0010
0100
0000
,
0110
1000
0110
0001
,
0100
0010
1000
0000
0001
0010
0100
0000
,
0001
0100
0010
0000
0011
0000
0001
0000
,
0101
0000
0100
0010
1000
0001
1000
0000
,
1100
0001
1100
0001
,
0010
0001
1000
0000
0010
1000
0100
0000
,
0010
0001
0100
0000
1000
0100
0010
0000
,
1000
0010
0100
0000
0001
0010
0100
0000
,
0110
0001
0110
1000
,
0100
0010
0001
0000
1000
0010
0100
0000
,
1000
0100
0010
0000
1010
0000
1000
0000
,
1100
0000
0100
0010
0001
1000
0000
0000
,
0000
0000
0000
0000
,
0000
0000
0000
0000
0000
0000
2000
3020
,
0032
0023
2030
3200
0320
0031
0202
0303
,
2020
0000
3030
0000
1001
0000
1000
0001
0100
0000
0001
1000
0200
0000
0320
0000
,
2030
3020
0032
0203
0320
2030
3020
0230
,
0320
0000
0000
2030
0000
0000
3001
0000
0001
0000
0001
0000
1000
0000
1000
0000
1000
0000
0002
0000
0000
0023
0000
0000
,
2030
3020
0032
0203
0320
1030
2200
3300
,
0022
0000
0033
0000
1001
0000
0001
1000
0100
0000
1000
0001
0200
0000
0320
0000
,
0032
0023
2030
3200
0320
0032
0023
0230
,
0320
0000
0000
0032
0000
0000
1003
0000
1000
0000
1000
0000
0001
0000
0001
0000
0001
0000
0102
0000
0000
1003
0000
0000
,
2001
0000
3010
0000
1010
0000
1000
0000
0010
0100
0001
0010
0100
0000
0010
0001
,
0000
0001
1000
0000
0010
0000
0010
1000
0001
1000
0100
0000
0210
0000
1300
0000
,
2001
0000
3010
0000
0110
0000
0100
0000
1000
0100
0010
1000
0010
0000
0100
0001
,
0000
0001
0010
0000
0110
0000
0100
1000
0000
0010
1000
0000
2100
0000
3001
0000
,
1002
0000
0013
0000
0011
0000
0001
0000
0010
0100
1000
0010
0100
0000
0010
1000
,
0000
1000
0001
0000
0010
0000
0010
0001
1000
0001
0100
0000
0210
0000
0301
0000
,
1002
0000
0000
0013
0000
0000
0110
0000
0000
0100
0000
0000
1000
0100
0010
0001
0000
0000
0000
0000
0000
0011
0000
0000
,
0000
0000
0000
1010
0000
0000
0000
0000
0000
1001
0000
0000
1000
0100
0010
0001
0010
0100
1000
0000
0000
0000
0000
0000
,
1100
0110
0011
0001
,
0011
0000
0010
0100
1000
0001
0010
0000
,
0001
0010
0001
1000
0100
0000
1000
0000
,
0010
0100
0001
0100
0010
0000
1010
0000
,
0110
0101
0110
0010
,
1010
0000
1000
0010
0100
0001
1000
0000
,
0100
0010
0000
0010
0001
0000
1001
0000
,
1000
0010
1000
0100
0010
0000
0011
0000
,
0101
0110
1010
1000
,
1010
0000
0010
0100
0001
1000
0010
0000
,
1000
0010
1000
0001
0100
0000
0001
0000
,
0010
0100
1000
0100
0010
0000
0011
0000
,
0110
1100
0110
0010
,
0011
0000
0001
0010
0100
1000
0001
0000
,
0101
1001
1100
1001
,
0110
0000
0000
0000
0000
0000
1001
0000
0000
1000
0000
0000
0100
0000
0000
0010
0000
0000
0001
0000
0000
0000
0100
0000
,
0000
0000
1000
0000
0000
0000
0100
0000
0000
0000
0001
0000
0000
0000
0100
0000
0000
0000
0010
0000
0000
1000
0000
0000
,
0001
0000
0010
0000
0100
0000
1000
0000
0000
0010
0000
0000
0100
0000
0000
0001
0000
0000
0010
0000
0000
0100
0000
0000
,
0010
0000
0000
1000
0000
0000
0010
0000
0000
0000
0100
0000
0000
0000
0010
0000
0001
0000
1000
0000
0000
0000
0010
0000
,
0100
0000
0000
0000
0000
0000
0010
0000
0000
1000
0000
0000
0001
0000
0010
0000
0001
0000
1000
0000
0000
0001
0000
0000
,
0010
0000
0000
0000
0010
0000
0001
0000
0000
1000
0000
0000
0010
0000
0000
0000
0010
0000
0100
0000
0000
0001
0000
0000
,
1000
0000
0000
0000
0000
0000
0100
0000
0010
0000
0001
0000
1000
0000
0000
0010
0000
0000
0100
0000
0010
0000
1000
0000
,
0001
0000
0000
1000
0000
0000
0100
0000
0000
0000
0010
0000
0000
0000
0001
0000
0000
0000
0100
0000
0000
0000
0000
0000
,
0010
0000
0000
1000
0000
0000
0001
0000
0000
0010
0000
0000
0100
0000
0000
1000
0000
0000
0001
0000
0000
0000
0010
0000
,
0000
0000
1000
0000
0000
0000
0010
0000
0000
0000
0001
0000
0000
0000
1000
0000
0000
0000
0010
0000
0000
0100
0000
0000
,
0001
0000
0100
0000
0010
0000
1000
0000
0000
0000
0000
0000
0100
0000
0000
1000
0000
0000
0010
0000
0000
1000
0000
0000
,
0001
0000
0000
0010
0000
0000
0001
0000
0000
1000
0000
0000
0010
0000
0000
1000
0000
0000
0100
0000
0010
0000
0001
0000
,
0010
0000
0001
0100
0010
1000
0001
0010
,
0100
1000
0010
0100
0001
0100
0010
1000
,
0001
0010
0100
1000
0001
0010
0200
0000
0000
0300
0000
0000
,
0202
0303
0022
0033
,
1010
0000
0010
0000
0100
0001
2002
0000
,
0000
3003
0000
0000
;

//---------------dance-single - ----------------
#NOTEDATA:;
#CHARTNAME:Basic;
#STEPSTYPE:dance-single;
#DESCRIPTION:;
#CHARTSTYLE:;
#DIFFICULTY:Easy;
#METER:9;
#RADARVALUES:0.531666,0.815465,0.934276,0.108098,0.000000,482.000000,361.000000,121.000000,14.000000,0.000000,0.000000,0.000000,0.000000,0.000000,0.531666,0.815465,0.934276,0.108098,0.000000,482.000000,361.000000,121.000000,14.000000,0.000000,0.000000,0.000000,0.000000,0.000000;
#CREDIT:Riakodoadm;
#NOTES:
0000
0000
0000
0000
,
0000
0000
0000
0000
,
0000
0000
0000
0000
,
0000
0000
0000
0000
,
1000
0010
1000
0010
,
0001
0010
0001
0010
,
1000
0100
1000
0100
,
0001
0100
0001
0000
,
1001
1001
1001
1001
,
0010
0100
0010
0100
0010
0100
0010
0000
,
1001
1001
1001
1001
,
0010
0100
0010
0100
0010
0000
0000
0000
,
1010
0000
1000
0000
,
1100
0000
0100
0000
,
0110
0000
0010
0000
,
0011
0000
0001
0000
,
0101
0000
0100
0000
,
0110
0000
0010
0000
,
1010
0000
1000
0000
,
1001
0000
0001
0000
,
0101
0000
0100
0000
,
1010
0000
0010
0000
,
1100
0000
1000
0000
,
0011
0000
0001
0000
,
1100
0000
0100
0000
,
0101
0000
0001
0000
,
0011
0000
0010
0000
,
1010
0000
1000
0011
,
0000
0001
0000
0101
,
0000
0100
0000
0110
,
0000
0010
0000
1010
,
0000
1000
0000
1100
,
0000
0100
0000
0110
,
0000
0010
0000
0011
,
0000
0001
0000
1001
,
0000
1000
0000
1100
,
0000
0100
0000
0011
,
0000
0010
0000
0101
,
0000
0001
0000
1010
,
0000
1000
0000
0101
,
0000
0100
0000
1100
,
0000
1000
0000
1010
,
0000
0010
0000
0011
,
0000
0001
0000
2002
,
0000
0000
0000
3003
,
0000
0000
0000
0011
,
0010
0000
0100
1000
0100
0000
0010
0000
,
0001
0000
1000
0010
1000
0000
1010
0000
,
0010
0000
0100
0001
1000
0000
0100
0000
,
0010
0000
0100
1000
0010
0000
1010
0000
,
0010
0000
0100
0001
0100
0000
0010
0000
,
1000
0000
0001
0010
0001
0000
0011
0000
,
0010
0000
0100
1000
0001
0000
0100
0000
,
0010
0000
0100
0001
0010
0000
0011
0000
,
0011
0000
1001
0000
1001
0000
0010
0100
,
0010
0100
0010
0100
0010
0000
1010
0000
,
1010
0000
1001
0000
1001
0000
0010
0100
,
0010
0100
0010
0000
0000
0000
1001
0000
,
0000
1001
0000
1010
,
0000
1010
0000
0101
,
0000
0011
0000
0101
,
0000
0011
0000
1001
,
0000
1001
0000
0011
,
0000
0011
0000
0101
,
0000
1100
0000
1010
,
0000
0011
0000
1001
,
0000
1001
0000
0011
,
0000
0011
0000
1100
,
0000
1010
0000
1100
,
0000
1010
0000
1001
,
0000
1001
0000
1010
,
0000
1010
0000
1100
,
0000
0101
0000
0011
,
0000
1010
0000
2002
,
0000
0000
0000
3003
,
0000
0000
0000
2000
,
0010
0100
3002
0100
,
0010
0100
0010
2003
,
0010
0001
3200
0010
,
1000
0000
0310
0000
0100
1000
0002
0000
,
0010
0100
2003
0100
,
0010
0100
0010
3002
,
0010
1000
0203
0010
,
0001
0010
0301
0101
,
0101
0000
1001
0000
1001
0000
1000
0010
,
1000
0010
1000
0010
1000
0000
1001
0000
,
1001
0000
0011
0000
0011
0000
0010
0100
,
0010
0100
0010
0100
0010
0000
1100
0000
,
1100
0000
1001
0000
1001
0000
0001
0010
,
0001
0010
0001
0010
0001
0000
1001
0000
,
1001
0000
1010
0000
1000
0010
0000
0110
,
0000
1001
0000
0110
0000
0001
1000
0000
,
0010
1000
0010
0000
,
0100
0001
1000
0001
,
0000
0011
0000
1100
,
0000
0011
0000
0001
,
0010
0001
0010
0000
,
0100
1000
0001
0100
,
0000
0110
0000
1001
,
0000
0101
0000
0001
,
0010
0001
0010
0000
,
0100
1000
0001
1000
,
0000
1010
0000
0101
,
0000
1010
0000
1000
,
0010
1000
0010
0000
,
0100
0001
1000
0100
,
0000
0110
0000
1001
,
0000
1100
0000
1000
,
0010
1000
0010
0000
,
0100
0001
1000
0010
,
0000
0100
0000
0001
,
1000
0100
0000
0010
,
0001
0010
0001
0000
,
0010
0100
1000
0000
,
0100
0000
0010
0001
,
1000
0010
1000
0001
,
0010
0001
0010
0000
,
0100
1000
0001
0010
,
0000
0100
0000
1000
,
0001
0100
0000
0010
,
1000
0010
1000
0000
,
0001
1000
0010
0000
,
0110
0000
1001
0000
,
0110
0000
1001
2002
,
0000
3003
0000
0000
;

//---------------dance-single - ----------------
#NOTEDATA:;
#CHARTNAME:Expert;
#STEPSTYPE:dance-single;
#DESCRIPTION:;
#CHARTSTYLE:;
#DIFFICULTY:Hard;
#METER:16;
#RADARVALUES:0.832797,1.247182,0.594540,0.625425,0.223917,755.000000,678.000000,77.000000,81.000000,0.000000,0.000000,0.000000,0.000000,0.000000,0.832797,1.247182,0.594540,0.625425,0.223917,755.000000,678.000000,77.000000,81.000000,0.000000,0.000000,0.000000,0.000000,0.000000;
#CREDIT:Riakodoadm;
#NOTES:
0000
0000
0000
0000
,
0000
0000
0000
0000
,
0000
0000
0000
0000
,
0000
0000
0000
0000
,
1000
0010
0100
0010
1000
0010
0100
0010
,
1000
0001
0010
0100
0010
0001
0010
0100
,
0010
0001
0100
0001
0010
0001
0100
0001
,
0010
0100
1000
0010
1000
0100
0100
0000
,
0110
0110
0110
0110
,
1001
0010
1001
0100
1001
0010
1001
0100
,
0110
0110
0110
0110
,
1001
0010
1001
0100
1001
0000
0000
0000
,
1000
0010
1000
0001
,
0100
1000
0100
0001
,
0100
0010
1000
0010
,
0100
0000
0001
0000
1000
0000
0100
1000
,
0100
1000
0001
1000
,
0010
0001
0010
1000
,
0010
0100
0001
0010
,
0100
0000
1000
0000
0001
1000
0001
1000
,
0001
0010
0001
1000
,
0100
0001
0100
1000
,
0100
0010
0001
0010
,
0100
0000
1000
0000
0001
0000
0100
0001
,
0100
0001
1000
0001
,
0010
1000
0010
0001
,
0010
0100
1000
0010
,
0100
0000
0000
0001
0000
0000
0100
0010
1000
0001
0000
0000
,
0010
0001
1000
0100
,
0001
0100
1000
0100
,
0010
0001
0010
0100
,
1000
0000
0001
0000
0100
0001
0100
0000
,
0001
1000
0001
0010
,
1000
0010
0001
0010
,
0100
1000
0010
0100
,
0001
0000
1000
0001
1000
0001
1000
0000
,
0010
1000
0001
0100
,
1000
0100
0001
0100
,
0010
1000
0010
0100
,
0001
0000
1000
0000
0100
1000
0100
0000
,
1000
0001
1000
0010
,
0001
0010
1000
0010
,
0100
0001
0010
0100
,
1000
0000
0001
0100
0010
1000
0000
0000
,
0000
0000
0000
0000
,
0000
0000
0000
0000
0000
0000
0001
0010
,
0001
0000
0100
0010
0000
0100
0010
0000
1000
0010
1000
0010
0100
0000
0001
1000
,
0000
0100
0010
0000
0001
0100
0001
0000
1000
0000
0100
0010
0001
0000
0000
0000
,
1000
0010
1000
0010
0000
0100
0010
0000
0100
0001
0010
0100
1000
0100
0000
0010
,
0100
0000
0001
0100
0000
0010
0001
1000
0010
1000
0010
0100
0001
0000
0000
0000
,
0010
0001
0100
0010
0000
0100
0010
0000
1010
0000
0000
1000
0100
0000
0010
0000
,
0100
0010
0100
0010
0001
1000
0010
0000
1000
0000
1001
0000
0001
0000
0000
0000
,
0100
0000
0010
0100
0000
0010
0100
0001
1000
0000
0100
1000
0001
0100
0000
1000
,
0100
0000
0001
0100
0010
1000
0000
0010
0000
0001
0010
0000
0110
0000
0000
0000
,
0110
0000
0110
0000
0110
0000
1001
0100
,
1001
0010
1001
0100
1001
0010
0110
0000
,
0110
0000
0110
0000
0110
0000
1001
0010
,
1001
0100
1001
0000
0000
0000
0001
0000
,
0100
1000
0100
0001
,
1000
0010
0100
0000
0010
1000
0001
0000
,
0010
0100
1000
0000
0100
1000
0010
0000
,
0100
0001
0010
0000
0100
0010
0001
0000
,
0100
1000
0100
0001
,
0010
0001
0100
0000
0010
1000
0100
0000
,
0001
0100
0010
0000
1000
0000
0010
0000
,
0001
0000
1000
0010
0100
0001
1000
0000
,
0100
0001
0100
1000
,
0001
0010
0100
0000
0010
0001
1000
0000
,
0010
0100
0001
0000
0100
0001
0010
0000
,
0100
1000
0010
0000
0100
0010
1000
0000
,
0100
0001
0100
1000
,
0010
1000
0100
0000
0010
0001
0100
0000
,
1000
0100
0010
0000
0001
0000
0010
0000
,
1000
0000
0001
0010
0100
1000
0000
0000
,
0000
0000
0000
0000
,
0000
0000
0000
0000
0000
0000
2000
3020
,
0032
0023
2030
3200
0320
0031
0202
0303
,
2020
0000
3030
0000
1001
0000
1000
0001
0100
0000
0001
1000
0200
0000
0320
0000
,
2030
3020
0032
0203
0320
2030
3020
0230
,
0320
0000
0000
2030
0000
0000
3001
0000
0010
0000
0001
0000
1000
0000
0100
0000
1000
0000
0002
0000
0000
0023
0000
0000
,
2030
3020
0032
0203
0320
1030
2200
3300
,
0022
0000
0033
0000
1001
0000
0001
1000
0100
0000
1000
0001
0200
0000
0320
0000
,
0032
0023
2030
3200
0320
0032
0023
0230
,
0320
0000
0000
0032
0000
0000
1003
0000
0010
0000
1000
0000
0001
0000
0100
0000
0001
0000
2000
0000
0000
3020
0000
0000
,
0230
0000
0320
0000
1030
0000
0010
0000
0100
0001
1000
0000
2001
0000
3100
0000
,
1002
0013
2001
3100
1002
0013
0002
0023
,
0230
0000
0320
0000
0031
0000
0010
0000
0001
0100
0010
0000
0120
0000
1030
0000
,
0210
0000
0301
0000
0120
0000
1030
0000
0210
0000
0301
0100
0002
0000
0023
0000
,
0230
0000
0320
0000
0031
0000
0010
0000
0100
1000
0001
0000
1002
0000
0103
0000
,
2001
3010
1002
0103
2001
3010
2000
3020
,
0230
0000
0320
0000
1030
0000
0010
0000
1000
0100
0010
0000
0000
0000
1010
0000
,
0000
0000
1100
0000
0000
0000
0101
0000
0001
0100
0010
1000
0001
0000
0000
0000
,
0010
1000
0010
0001
,
0010
0000
0100
1000
0001
0000
0010
0000
,
0001
0100
0000
0010
1000
0000
0010
0000
,
0100
0010
0000
1000
0001
0000
0010
0000
,
1000
0010
0001
0100
,
0010
0000
1000
0010
0100
0000
1000
0000
,
0100
0010
0000
0100
0001
0000
0010
0000
,
0001
1000
0000
1000
0100
0000
1000
0000
,
0010
0001
0010
1000
,
0010
0000
0100
0001
1000
0000
0010
0000
,
1000
0100
0000
0010
0001
0000
0010
0000
,
0100
0010
0000
0001
1000
0000
0010
0000
,
0001
0010
1000
0100
,
0010
0000
0001
0010
0100
0000
0001
0000
,
0100
0010
0100
1000
,
0010
0000
0100
0010
1000
0001
1000
0000
,
1100
0110
0011
0001
,
0011
0000
0010
0100
1000
0001
0010
0000
,
0001
0010
0001
1000
0100
0000
1000
0000
,
0010
0100
0001
0100
0010
0000
1010
0000
,
0110
0101
0110
0010
,
1010
0000
1000
0010
0100
0001
1000
0000
,
0100
0010
0000
0010
0001
0000
1001
0000
,
1000
0010
1000
0100
0010
0000
0011
0000
,
0101
0110
1010
1000
,
1010
0000
0010
0100
0001
1000
0010
0000
,
1000
0010
1000
0001
0100
0000
0001
0000
,
0010
0100
1000
0100
0010
0000
0011
0000
,
0110
1100
0110
0010
,
0011
0000
0001
0010
0200
0000
0300
0000
,
0202
0303
0022
0033
,
1010
0000
0010
0000
0100
0001
2002
0000
,
0000
3003
0000
0000
;

//---------------dance-single - ----------------
#NOTEDATA:;
#CHARTNAME:Difficult;
#STEPSTYPE:dance-single;
#DESCRIPTION:;
#CHARTSTYLE:;
#DIFFICULTY:Medium;
#METER:12;
#RADARVALUES:0.694916,0.959371,0.656310,0.470999,0.034746,630.000000,545.000000,85.000000,61.000000,24.000000,0.000000,0.000000,0.000000,0.000000,0.694916,0.959371,0.656310,0.470999,0.034746,630.000000,545.000000,85.000000,61.000000,24.000000,0.000000,0.000000,0.000000,0.000000;
#CREDIT:Riakodoadm;
#NOTES:
0000
0000
0000
0000
,
0000
0000
0000
0000
,
0000
0000
0000
0000
,
0000
0000
0000
0000
,
1000
0010
1000
0010
0100
0001
0100
0001
,
0010
0001
0010
0001
0010
1000
0010
1000
,
0001
0100
0001
0100
1000
0100
1000
0100
,
0010
0001
0010
0001
1000
0010
0000
0000
,
0011
0101
0011
0101
,
1010
1100
1010
1100
,
1001
0110
1001
0110
,
1001
1001
1001
MMMM
,
0000
1010
0000
1010
,
0000
0000
0010
0100
0000
0000
0100
0001
,
0000
0000
0001
1000
0000
0000
1000
0100
,
0000
0000
0100
0010
0000
0000
0011
0000
,
0000
0101
0000
0101
,
0000
0000
0100
0010
0000
0000
0010
1000
,
0000
0000
1000
0001
0000
0000
0011
0000
,
0000
0000
1010
0000
0000
0000
1000
0001
,
0000
0011
0000
0011
,
0000
0000
0010
0100
0000
0000
0100
1000
,
0000
0000
1000
0001
0000
0000
0001
0100
,
0000
0000
0100
0010
0000
0000
1010
0000
,
0000
1100
0000
1100
,
0000
0000
0100
0010
0000
0000
0010
0001
,
0000
0000
0001
1000
0000
0000
1010
0000
,
0000
0000
0000
0011
0000
0000
0010
0000
0100
0000
0000
0000
,
1100
0000
1010
0000
,
0010
0100
0000
0000
0001
0100
0000
0000
,
0010
1000
0000
0000
0001
0010
0000
0000
,
0100
1000
0000
0000
1100
0000
0000
0000
,
0011
0000
1001
0000
,
1000
0010
0000
0000
0100
0010
0000
0000
,
0001
0010
0000
0000
1010
0000
0000
0000
,
1001
0000
0000
0000
0001
0100
0000
0000
,
0101
0000
0011
0000
,
0010
0100
0000
0000
1000
0100
0000
0000
,
0010
0001
0000
0000
1000
0010
0000
0000
,
0100
0001
0000
0000
0101
0000
0000
0000
,
1010
0000
1001
0000
,
0001
0010
0000
0000
0100
0010
0000
0000
,
1000
0010
0000
0000
0011
0000
0000
0000
,
0101
0000
0000
0000
0100
0010
0000
0000
,
0000
0000
0000
0000
,
0000
0000
0000
0000
0000
0000
1000
0010
,
1000
0100
0010
1000
0010
0001
0100
0001
,
0010
0001
0100
1000
0100
0001
1000
0010
,
0001
0010
1000
0100
0001
0100
1000
0010
,
0100
0001
0010
0100
1000
0001
0001
0010
,
0001
0100
0010
0001
0010
1000
0100
1000
,
0010
1000
0100
0001
0100
1000
0001
0010
,
1000
0010
0001
0100
1000
0100
0001
0010
,
0100
1000
0010
0100
0001
1000
1010
0000
,
1100
1010
1100
0011
,
0101
0011
0101
1001
,
0110
1001
0110
1001
,
1001
1001
MMMM
1000
,
0010
0100
0010
1000
,
0001
0010
0100
1000
,
0001
0010
0100
0010
,
0001
0000
0100
0000
0001
1000
0001
0000
,
1000
0010
0100
0001
,
0010
0001
1000
0100
,
1000
0010
0001
0010
,
0100
0000
0001
1000
0001
1000
0001
0000
,
0010
0100
0010
0001
,
1000
0010
0100
0001
,
1000
0010
0100
0010
,
1000
0000
0100
0000
1000
0001
1000
0000
,
0001
0010
0100
1000
,
0010
1000
0001
0100
,
0001
0010
1000
0010
,
0100
0000
1000
0001
1000
0001
0000
0000
,
0000
0000
0000
0000
,
0000
0000
0000
0000
0000
0000
2000
3020
,
0032
0023
2030
3200
0320
0031
0202
0303
,
2020
3030
2002
3003
2200
3300
0200
0320
,
2030
3020
0032
0203
0320
2030
3020
0230
,
0320
0000
0000
2030
0000
0000
3001
0000
0010
0000
0001
0000
1000
0000
0100
0000
1000
0000
0002
0000
0000
0023
0000
0000
,
2030
3020
0032
0203
0320
1030
2200
3300
,
0022
0033
2002
3003
0202
0303
0200
0320
,
0032
0023
2030
3200
0320
0032
0023
0230
,
0320
0000
0000
0032
0000
0000
1003
0000
0010
0000
1000
0000
0001
0000
0100
0000
0001
0000
1000
0000
0000
0010
0000
0000
,
0100
0010
MMMM
0001
0010
0100
1100
0000
,
0011
0000
1100
0000
0011
0000
0010
0100
,
1000
0100
MMMM
0001
0100
0010
1010
0000
,
0011
0000
1010
0000
0011
0000
0001
0010
,
0100
0010
MMMM
1000
0010
0100
0101
0000
,
1010
0000
0101
0000
1010
0000
0010
0100
,
0001
0100
MMMM
1000
0100
0011
0000
1010
,
0000
0011
0000
1010
0001
1000
0001
0000
,
0010
0100
0010
1000
,
0010
0100
1000
0010
,
0001
0010
1000
0100
,
0001
0000
0100
0000
1000
0001
1000
0000
,
0010
0001
1000
0100
,
0001
0010
0100
0001
,
1000
0010
0001
0010
,
0100
0000
1000
0001
1000
0001
1000
0000
,
0010
0100
0010
0001
,
0010
0100
0001
0010
,
1000
0010
0001
0100
,
1000
0000
0100
0000
0001
1000
0001
0000
,
0010
1000
0001
0100
,
1000
0010
0100
1000
,
0001
0010
1000
0010
,
0100
0000
0001
1000
0001
1000
0001
0000
,
0010
0000
0001
0000
1000
0010
1000
0000
,
0001
0000
1000
0100
1000
0000
0010
0000
,
0100
1000
0100
0001
,
0010
0100
0010
0100
0010
0000
0001
0000
,
0010
0000
0001
0000
1000
0100
1000
0000
,
0010
0000
0100
0001
0100
0000
0010
0000
,
1000
0010
0001
0010
,
0100
0010
0000
0100
0010
0000
1000
0000
,
0010
0000
1000
0000
0001
0010
0001
0000
,
1000
0000
0001
0100
0001
0000
0010
0000
,
0100
0001
0100
1000
,
0010
0100
0010
0100
0010
0000
1000
0000
,
0010
0000
1000
0000
0001
0100
0001
0000
,
0010
0000
0100
1000
0200
0000
0300
0000
,
0202
0303
0022
0033
,
1010
0000
0010
0000
0100
0002
2000
0000
,
0000
3003
0000
0000
;

//---------------dance-single - ----------------
#NOTEDATA:;
#CHARTNAME:Beginner;
#STEPSTYPE:dance-single;
#DESCRIPTION:;
#CHARTSTYLE:;
#DIFFICULTY:Beginner;
#METER:6;
#RADARVALUES:0.362901,0.575622,0.432392,0.077213,0.000000,329.000000,273.000000,56.000000,10.000000,0.000000,0.000000,0.000000,0.000000,0.000000,0.362901,0.575622,0.432392,0.077213,0.000000,329.000000,273.000000,56.000000,10.000000,0.000000,0.000000,0.000000,0.000000,0.000000;
#CREDIT:Riakodoadm;
#NOTES:
// measure 0
0000
0000
0000
0000
,  // measure 1
0000
0000
0000
0000
,  // measure 2
0000
0000
0000
0000
,  // measure 3
0000
0000
0000
0000
,  // measure 4
1000
1000
1000
0000
,  // measure 5
0001
0001
0001
0000
,  // measure 6
1000
1000
1000
0000
,  // measure 7
0001
0001
0001
0000
,  // measure 8
1001
0000
1001
0000
,  // measure 9
1001
1001
1001
0000
,  // measure 10
1001
0000
1001
0000
,  // measure 11
1001
1001
1001
0000
,  // measure 12
0010
0000
0010
0000
,  // measure 13
0001
0000
1000
0000
,  // measure 14
0010
0000
0010
0000
,  // measure 15
1000
0000
0001
0000
,  // measure 16
0100
0000
0100
0000
,  // measure 17
0001
0000
1000
0000
,  // measure 18
0100
0000
0100
0000
,  // measure 19
1000
0000
0001
0000
,  // measure 20
1000
0000
1000
0000
,  // measure 21
0010
0000
0100
0000
,  // measure 22
0001
0000
0001
0000
,  // measure 23
0010
0000
0100
0000
,  // measure 24
1000
0000
1000
0000
,  // measure 25
0100
0000
0010
0000
,  // measure 26
0001
0000
0001
0000
,  // measure 27
0100
0000
0000
0010
,  // measure 28
0000
0010
0000
1000
,  // measure 29
0000
0001
0000
0010
,  // measure 30
0000
0010
0000
0001
,  // measure 31
0000
1000
0000
0100
,  // measure 32
0000
0100
0000
1000
,  // measure 33
0000
0001
0000
0100
,  // measure 34
0000
0100
0000
0001
,  // measure 35
0000
1000
0000
0001
,  // measure 36
0000
0001
0000
0010
,  // measure 37
0000
0100
0000
1000
,  // measure 38
0000
1000
0000
0010
,  // measure 39
0000
0100
0000
0001
,  // measure 40
0000
0001
0000
0100
,  // measure 41
0000
0010
0000
1000
,  // measure 42
0000
1000
0000
0100
,  // measure 43
0000
0010
0000
0000
,  // measure 44
0000
0000
0000
0000
,  // measure 45
0000
0000
0000
0001
,  // measure 46
0001
1000
1000
0001
,  // measure 47
1000
0001
1000
0010
,  // measure 48
0010
0100
0100
0010
,  // measure 49
0100
0010
0000
1000
,  // measure 50
1000
0001
0001
1000
,  // measure 51
0001
1000
0001
0010
,  // measure 52
0010
0100
0100
0010
,  // measure 53
0100
0010
0000
1001
,  // measure 54
0000
1001
0000
1001
,  // measure 55
1001
1001
0000
1001
,  // measure 56
0000
1001
0000
1001
,  // measure 57
1001
1001
0000
1000
,  // measure 58
0000
1000
0000
0001
,  // measure 59
0000
1000
0000
0010
,  // measure 60
0000
0100
0000
0001
,  // measure 61
0000
1000
0000
0100
,  // measure 62
0000
1000
0000
0001
,  // measure 63
0000
1000
0000
0010
,  // measure 64
0000
0100
0000
0010
,  // measure 65
0000
1000
0000
0001
,  // measure 66
0000
0001
0000
1000
,  // measure 67
0000
0001
0000
0010
,  // measure 68
0000
0100
0000
1000
,  // measure 69
0000
0001
0000
0100
,  // measure 70
0000
0001
0000
1000
,  // measure 71
0000
0001
0000
0010
,  // measure 72
0000
0100
0000
0010
,  // measure 73
0000
0001
0000
0000
,  // measure 74
0000
0000
0000
0000
,  // measure 75
0000
0000
0000
1000
,  // measure 76
1000
0001
0001
0200
,  // measure 77
0300
0200
0300
0001
,  // measure 78
0100
0001
0020
0030
,  // measure 79
0200
0300
0010
0001
,  // measure 80
0001
1000
1000
0200
,  // measure 81
0300
0200
0300
1000
,  // measure 82
0100
1000
0020
0030
,  // measure 83
0200
0300
0010
1000
,  // measure 84
1000
0001
0001
1001
,  // measure 85
1001
1001
0000
0010
,  // measure 86
0010
0100
0100
0110
,  // measure 87
0110
0110
0000
0001
,  // measure 88
0001
1000
1000
1001
,  // measure 89
1001
1001
0000
0100
,  // measure 90
0100
0010
0010
0110
,  // measure 91
0000
0110
0000
1000
,  // measure 92
0000
1000
0000
0010
,  // measure 93
0000
0010
0000
1001
,  // measure 94
0000
1000
0000
1001
,  // measure 95
0000
0001
0000
0010
,  // measure 96
0000
0010
0000
0100
,  // measure 97
0000
0100
0000
0110
,  // measure 98
0000
0001
0000
0110
,  // measure 99
0000
1000
0000
0001
,  // measure 100
0000
0001
0000
0010
,  // measure 101
0000
0010
0000
1001
,  // measure 102
0000
0001
0000
1001
,  // measure 103
0000
1000
0000
0010
,  // measure 104
0000
0010
0000
0100
,  // measure 105
0000
0100
0000
0110
,  // measure 106
0000
1000
0000
0110
,  // measure 107
0000
0001
0000
1000
,  // measure 108
0000
0100
0000
0010
,  // measure 109
0000
0001
0000
1001
,  // measure 110
0000
0110
0000
1001
,  // measure 111
0000
0110
0000
0001
,  // measure 112
0000
0010
0000
0100
,  // measure 113
0000
1000
0000
0110
,  // measure 114
0000
1001
0000
0110
,  // measure 115
0000
1001
0000
0001
,  // measure 116
0000
0100
0000
0010
,  // measure 117
0000
1000
0000
1001
,  // measure 118
0000
0110
0000
1001
,  // measure 119
0000
0110
0000
1000
,  // measure 120
0000
0010
0000
0100
,  // measure 121
0000
0001
0000
0110
,  // measure 122
0000
1001
0000
0110
,  // measure 123
0000
1001
0000
2002
,  // measure 124
0000
3003
0000
0000
;
