#VERSION:0.83;
#TITLE:Humpty Dumpty Sat On The Wall;
#SUBTITLE:;
#ARTIST:kidszone;
#TITLETRANSLIT:;
#SUBTITLETRANSLIT:;
#ARTISTTRANSLIT:;
#GENRE:OFFSYNC NURSERY RHYME;
#ORIGIN:;
#CREDIT:kidszone;
#BANNER:Humpty Dumpty Sat On The Wall.png;
#BACKGROUND:Humpty Dumpty Sat On The Wall-bg.png;
#PREVIEWVID:;
#JACKET:Humpty Dumpty Sat On The Wall-jacket.png;
#CDIMAGE:;
#DISCIMAGE:;
#LYRICSPATH:Humpty Dumpty Sat On The Wall.lrc;
#CDTITLE:;
#MUSIC:Humpty Dumpty Sat On The Wall.ogg;
#OFFSET:0.000000;
#SAMPLESTART:0.000000;
#SAMPLELENGTH:3.630000;
#SELECTABLE:YES;
#BPMS:0.000=165.300;
#STOPS:;
#DELAYS:;
#WARPS:;
#TIMESIGNATURES:0.000=3=4;
#TICKCOUNTS:0.000=4;
#COMBOS:0.000=1;
#SPEEDS:0.000=1.000=0.000=0;
#SCROLLS:0.000=1.000;
#FAKES:;
#LABELS:0.000=Song Start;
#BGCHANGES:-0.709=Humpty Dumpty Sat On The Wall.avi=1.000=0=0=0=StretchNoLoop====,
99999=-nosongbg-=1.000=0=0=0 // don't automatically add -songbackground-
;
#KEYSOUNDS:;
#ATTACKS:
;

//---------------dance-single - WHY----------------
#NOTEDATA:;
#CHARTNAME:EVERYTHING;
#STEPSTYPE:dance-single;
#DESCRIPTION:WHY;
#CHARTSTYLE:;
#DIFFICULTY:Hard;
#METER:17;
#RADARVALUES:0.782680,0.921696,1.078894,0.775455,0.783884,325.000000,257.000000,64.000000,46.000000,0.000000,17.000000,2.000000,0.000000,0.000000,0.782680,0.921696,1.078894,0.775455,0.783884,325.000000,257.000000,64.000000,46.000000,0.000000,17.000000,2.000000,0.000000,0.000000;
#CREDIT:Riakodoadm;
#NOTES:
1000
0100
0010
0001
,
0100
0010
1000
0100
,
0001
0000
0000
0000
0000
0000
0000
0000
0020
0000
0000
0000
0000
0000
0000
0000
0000
0000
0000
0000
0000
0000
0000
0000
0000
0002
0000
0000
0000
0000
0000
0000
,
0000
0000
0003
0000
0000
0000
0000
0000
0100
0000
0000
0000
0000
0000
0000
0000
2030
0000
0000
0000
0000
0000
0000
0000
0100
0000
0000
3000
0000
0000
0000
0000
,
0000
0000
0100
0000
0000
0000
0000
0000
1000
0000
0000
0020
0000
0000
0000
0030
0100
0000
0000
0000
0002
0000
0000
0000
0000
0003
0000
0000
0000
0000
2000
0000
,
0001
0000
0000
0000
0000
3000
0000
0000
1100
0000
0000
0000
0000
0000
0000
0000
0100
0000
0000
0000
0000
0000
0000
0000
0010
0000
0000
0000
0000
0000
0000
0000
,
0002
0020
0000
0000
0000
0000
0000
0000
0000
0000
0000
0000
0030
0000
0000
0000
0003
0000
0000
0100
0000
0000
0000
0000
0020
0000
0000
0000
2000
0000
0000
0000
,
0000
0000
0000
0000
0000
0000
0000
3000
0031
0000
0000
0000
0000
0000
0020
0000
1200
0000
0000
0030
0000
0000
0000
0000
0001
0000
0000
0000
0000
0000
0000
0000
,
0301
0000
1000
0000
0000
0000
0000
0000
0100
0000
0010
0000
0000
0000
0000
0000
0010
0000
0000
0000
0000
0200
0000
0000
1000
0000
0000
0000
0300
0000
0000
0000
,
0200
0000
0000
0000
0000
0000
0000
0000
0000
0000
0000
0000
0000
0001
0000
0000
0300
0000
0000
0000
0000
0000
0000
0100
0020
0000
0000
0000
0000
0000
0000
0000
,
0000
1000
0000
0000
0000
0000
0000
0000
1030
0010
0000
0000
0000
0000
0000
0000
0200
0000
0000
1000
0000
0000
0000
0000
0000
0000
0000
0000
0001
0000
0000
0000
,
0301
0000
0000
0000
0010
0000
0000
0000
0001
0000
0000
0000
0000
1000
0000
0000
0010
0000
0000
0000
0000
0000
0010
0000
1000
0000
0000
0000
0000
0000
0000
0000
,
0202
0000
0000
0000
0000
0000
0000
0000
0000
0000
0000
0000
0000
0000
0000
0000
0300
0003
0000
0000
0000
0000
0000
0000
0110
0000
0100
0000
0000
0000
0000
0000
,
0010
0000
0000
1000
0000
0000
0000
0000
1000
0000
0000
0000
0001
0000
0000
0000
0011
0000
0000
0000
0000
0000
0100
0000
0010
0000
0000
0000
0000
0000
0100
0000
,
1000
0000
0000
0000
0000
0000
0000
0000
1100
0010
0000
0000
0000
0000
0001
0000
0011
0000
0100
0000
0000
0000
0000
0000
0101
0000
1000
0000
0000
0000
0000
0000
,
2020
0000
0000
0000
0100
0000
0000
0000
0000
0000
0000
0000
0000
0002
0000
0000
3000
0000
0000
0000
0000
0000
0000
0000
0000
0000
0000
0000
0000
0000
0000
0000
,
0003
0000
0000
0000
0000
0000
0000
0000
1030
0000
0000
0000
0000
0000
0000
0000
0101
0000
0000
0000
0000
0100
0000
0000
0010
0000
1000
0000
0000
0001
0000
0000
,
0110
0000
0010
0000
0000
0000
0000
0000
1100
0000
0000
0000
0000
0000
0000
0000
1001
0000
0000
0000
0000
0001
0000
0000
0110
0000
0100
0000
0000
1000
0000
0000
,
0011
0010
0000
0000
0101
0010
0000
0000
1101
0000
0000
0000
1001
0100
0000
0000
,
0100
0000
0000
0000
0001
0000
0000
0000
1010
0000
0000
0200
1000
0000
0000
0300
,
0110
0000
0000
0000
0000
0000
0000
0010
0101
0000
0000
0000
0000
0000
0002
0000
0010
0000
0100
0000
0000
0000
0000
0000
1100
0003
0000
0000
0000
0000
0000
1000
,
0011
0000
0000
0000
1110
0000
0000
0000
1001
0010
0000
0000
0101
0000
1000
0000
,
0010
0000
0000
0000
0000
0000
0200
0000
0001
0000
0000
0000
0300
0000
0000
0000
0101
0000
0000
0000
0000
0000
0000
0000
1000
0000
0000
0000
0100
0000
0000
1000
,
0110
0000
0000
0000
1000
0000
0000
0000
0011
0000
0100
0000
0000
0000
0000
0000
0001
0000
0000
0000
0010
0000
0000
0000
1100
0000
0000
0000
0000
0001
0000
0000
,
1001
0000
0000
0000
0000
0000
0000
0000
0011
0000
0000
0000
0000
0020
0000
0000
1001
0000
0030
0000
0000
0000
0000
1000
0110
0000
0000
0000
0000
0000
0000
0000
,
0100
0010
0000
0000
0000
0000
0000
0000
0001
0100
0000
0000
0000
0000
0000
0000
1010
0000
0000
0000
0020
0000
0000
0000
0100
0000
0000
0000
1030
0000
0000
0000
,
0101
0010
0000
0000
0000
0000
0100
0000
0011
0000
0000
0100
0000
0000
0000
1000
0010
0000
0000
0000
0000
0000
0000
0000
1110
0000
0000
0000
0000
0000
0000
0000
,
1001
0010
0000
0000
0000
0000
0000
0000
0110
1000
0000
0000
0000
0000
0000
0000
0101
0000
0100
0000
0000
0000
0000
0000
1100
0000
0002
0000
0000
0000
0000
0000
,
0010
0000
0000
0000
1003
0000
0000
0000
0001
0000
0000
0000
0000
0000
0000
0001
0440
0000
0000
0000
0000
0000
0000
0000
1000
0000
0000
0000
0000
0000
0000
0000
,
0332
0000
0000
0000
0000
0000
0000
0000
2010
0000
0000
0003
0000
0000
0000
0000
3001
0000
0000
0000
0000
0000
0000
0000
0100
1000
0000
0000
0000
0000
0000
0000
,
0021
0000
0000
0000
0100
0000
0000
0000
1030
0000
0000
0000
0010
0000
0000
0000
0100
0000
0000
0000
0000
0000
0001
0000
2000
0000
0000
0000
0000
0000
0000
0010
,
3200
0000
0000
0000
1302
0000
0000
0000
0123
0000
0000
0000
0130
1000
0000
0000
,
0001
0000
0000
0010
0000
0000
0000
0000
0102
0000
0000
0000
1000
0000
0000
0000
1003
0000
0000
0000
0000
0000
0000
0000
0010
0000
0000
0000
0100
0000
0000
0000
,
1210
0000
0000
0000
0010
0000
0000
0000
0311
0000
0000
0000
0000
0000
0000
0000
0001
0000
0000
0001
0000
0000
0100
0000
2000
0000
0000
0001
0000
0000
0100
0000
,
3020
0000
1000
0000
0032
0000
0000
0000
0213
0000
0000
0000
0310
1000
0000
0000
,
0101
0000
0010
0000
0000
0000
0100
0000
2010
0000
0000
0001
0000
0000
0000
0000
3010
0000
0100
0000
0000
0000
0000
0000
0110
0000
0000
0000
0000
0000
0000
0000
,
0021
0001
0000
0000
0000
0000
0000
0000
0031
0000
0000
0000
0000
0000
0000
0000
1100
0000
0010
0000
0000
0000
0000
0000
1002
0000
0000
0000
0000
0000
0000
0000
,
0203
0010
0000
0000
0000
0000
0000
0000
2300
0100
0000
0000
0000
0010
0000
0000
3120
0000
0000
0000
0000
0000
0000
0000
0130
0000
0000
0000
0000
0000
0000
0010
,
0001
0000
0000
1000
0000
0000
0000
0000
0110
0010
0000
0010
0000
0000
0001
1000
0001
0000
0010
1000
0000
0000
0000
0000
0100
0000
0000
0000
0000
0001
0000
0000
,
1010
0000
1000
0000
0000
0000
0000
0000
0001
0000
0001
0000
0000
0000
0000
0100
0010
0000
0000
0000
0000
0000
0000
0001
1100
0000
0000
0000
0000
0000
0000
0000
,
0011
0000
0100
0000
0000
0000
0000
0000
1010
0001
0000
0000
0000
0000
0000
0000
1001
0000
0000
0000
0000
0000
0000
0000
0000
0000
0000
0000
0000
0000
0000
0000
;

//---------------dance-single - Normal----------------
#NOTEDATA:;
#CHARTNAME:BGM;
#STEPSTYPE:dance-single;
#DESCRIPTION:Normal;
#CHARTSTYLE:;
#DIFFICULTY:Easy;
#METER:4;
#RADARVALUES:0.474424,0.580327,0.960890,0.472016,0.000000,197.000000,140.000000,57.000000,28.000000,0.000000,0.000000,2.000000,0.000000,0.000000,0.474424,0.580327,0.960890,0.472016,0.000000,197.000000,140.000000,57.000000,28.000000,0.000000,0.000000,2.000000,0.000000,0.000000;
#CREDIT:Riakodoadm;
#NOTES:
1000
0100
0010
0001
,
0100
0010
1000
0100
,
0001
0020
0000
0000
,
0000
0000
0030
0100
,
0000
1000
0100
0000
,
0001
1000
0100
0010
,
0002
0000
0003
0020
,
0000
0031
1200
0000
,
0301
0100
0010
1000
,
0200
0000
0300
0020
,
0000
1030
0200
0000
,
0301
0001
0010
1000
,
0002
0000
0000
0000
0000
0000
0000
0000
0000
0000
0000
0000
0000
0000
0000
0000
0000
0003
0000
0000
0000
0000
0000
0000
0110
0000
0000
0000
0000
0000
0000
0000
,
0010
1000
0011
0010
,
1000
1100
0011
0101
,
2020
0000
3000
0000
,
0000
1030
0101
0010
,
0110
1100
1001
0110
,
0011
0101
1100
1001
,
0100
0001
1010
1000
,
0110
0101
0010
1100
,
0011
1010
1001
0101
,
0010
0001
0101
1000
,
0110
0011
0001
1100
,
1001
0011
1001
0110
,
0100
0001
1010
0100
,
0101
0011
0010
1010
,
1001
0110
0101
1100
,
0010
0001
0440
0000
,
0330
2010
3001
0100
,
0021
1030
0100
2000
,
3200
0302
0023
0130
,
0001
0102
1003
0010
,
1200
0310
0001
2000
,
3020
0032
0203
0310
,
0101
2010
3010
0110
,
0021
0031
1100
1002
,
0203
2300
3020
0130
,
0001
0110
0001
0100
,
1010
0001
0010
1100
,
0011
1010
1001
0000
;

//---------------dance-single - Off-beat----------------
#NOTEDATA:;
#CHARTNAME:Vocals and guitar;
#STEPSTYPE:dance-single;
#DESCRIPTION:Off-beat;
#CHARTSTYLE:;
#DIFFICULTY:Medium;
#METER:8;
#RADARVALUES:0.334746,0.477916,0.016858,0.320297,0.817599,139.000000,138.000000,1.000000,19.000000,0.000000,0.000000,0.000000,0.000000,0.000000,0.334746,0.477916,0.016858,0.320297,0.817599,139.000000,138.000000,1.000000,19.000000,0.000000,0.000000,0.000000,0.000000,0.000000;
#CREDIT:Riakodoadm;
#NOTES:
0000
0000
0000
0000
,
0000
0000
0000
0000
,
0000
0000
0000
0000
0000
0000
0000
0000
0000
0000
0000
0000
0000
0000
0000
0000
0000
0000
0000
0000
0000
0000
0000
0000
0000
0002
0000
0000
0000
0000
0000
0000
,
0000
0000
0003
0000
0000
0000
0000
0000
0100
0000
0000
0000
0000
0000
0000
0000
2000
0000
0000
0000
0000
0000
0000
0000
0000
0000
0000
3000
0000
0000
0000
0000
,
0000
0000
0100
0000
0000
0000
0000
0000
0000
0000
0000
0020
0000
0000
0000
0030
0000
0000
0000
0000
0002
0000
0000
0000
0000
0003
0000
0000
0000
0000
2000
0000
,
0000
0000
0000
0000
0000
3000
0000
0000
0200
0000
0000
0000
0000
0000
0000
0000
0000
0300
0000
0000
0000
0000
0000
0000
0000
0000
0000
0000
0000
0000
0000
0000
,
0000
0020
0000
0000
0000
0000
0000
0000
0000
0000
0000
0000
0030
0000
0000
0000
0000
0000
0000
0100
0000
0000
0000
0000
0000
0000
0000
0000
2000
0000
0000
0000
,
0000
0000
0000
0000
0000
0000
0000
3000
0000
0000
0000
0000
0000
0000
0020
0000
0000
0000
0000
0030
0000
0000
0000
0000
0001
0000
0000
0000
0000
0000
0000
0000
,
0000
0000
1000
0000
0000
0000
0000
0000
0000
0000
0010
0000
0000
0000
0000
0000
0000
0000
0000
0000
0000
0200
0000
0000
0000
0000
0000
0000
0300
0000
0000
0000
,
0000
0000
0000
0000
0000
0000
0000
0000
0000
0000
0000
0000
0000
0001
0000
0000
0000
0000
0000
0000
0000
0000
0000
0100
0000
0000
0000
0000
0000
0000
0000
0000
,
0000
1000
0000
0000
0000
0000
0000
0000
0000
0010
0000
0000
0000
0000
0000
0000
0000
0000
0000
1000
0000
0000
0000
0000
0000
0000
0000
0000
0001
0000
0000
0000
,
0000
0000
0000
0000
0010
0000
0000
0000
0000
0000
0000
0000
0000
1000
0000
0000
0000
0000
0000
0000
0000
0000
0010
0000
0000
0000
0000
0000
0000
0000
0000
0000
,
0200
0000
0000
0000
0000
0000
0000
0000
0300
0000
0000
0000
0000
0100
0000
0000
,
0000
0000
0000
1000
0000
0000
0000
0000
0000
0000
0000
0000
0001
0000
0000
0000
0000
0000
0000
0000
0000
0000
0100
0000
0000
0000
0000
0000
0000
0000
0100
0000
,
0000
0000
0000
0000
0000
0000
0000
0000
0000
0010
0000
0000
0000
0000
0001
0000
0000
0000
0100
0000
0000
0000
0000
0000
0000
0000
1000
0000
0000
0000
0000
0000
,
0000
0000
0000
0000
0100
0000
0000
0000
0000
0000
0000
0000
0000
0002
0000
0000
0000
0000
0000
0000
0000
0000
0000
0000
0000
0000
0000
0000
0000
0000
0000
0000
,
0003
0000
0000
0000
0000
0000
0000
0000
0100
0000
0000
0000
0000
0000
0000
0000
0000
0000
0000
0000
0000
0100
0000
0000
0000
0000
1000
0000
0000
0001
0000
0000
,
0000
0000
0010
0000
0000
0000
0000
0000
0000
0000
0000
0001
0000
0000
0000
0000
0001
0000
0000
0000
0000
0001
0000
0000
0000
0000
0100
0000
0000
1000
0000
0000
,
0000
0010
0000
0000
0000
0010
0000
0000
0001
0000
0000
0000
0000
0100
0000
0000
,
0000
0000
0000
0000
0000
0000
0000
0000
0000
0000
0000
0000
0000
0000
0000
0000
0000
0000
0000
0000
0000
0000
0200
0000
0000
0000
0000
0000
0000
0010
0300
0000
,
0000
0000
0000
0000
0000
0000
0000
0010
0000
0000
0000
0000
0000
0000
0002
0000
0000
0000
0100
0000
0000
0000
0000
0000
0000
0003
0000
0000
0000
0000
0000
1000
,
0000
0000
0000
0000
0100
0000
0000
0000
0000
0010
0000
0000
0000
0000
1000
0000
,
0000
0000
0000
0000
0000
0000
0200
0000
0000
0000
0000
0000
0300
0000
0000
0000
0000
0001
0000
0000
0000
0000
0000
0100
0000
0000
0000
0000
0100
0000
0000
1000
,
0000
0000
0000
0000
1000
0000
0000
0000
0000
0000
0100
0000
0000
0000
0000
0000
0000
0000
0000
0000
0010
0000
0000
0000
0000
0000
0000
0000
0000
0001
0000
0000
,
0000
0000
0000
0000
0000
0000
0000
0000
0000
0000
0000
0000
0000
0020
0000
0000
0000
0000
0030
0000
0000
0000
0000
1000
0000
0000
0000
0000
0000
0000
0000
0000
,
0000
0010
0000
0000
0000
0000
0000
0000
0000
0100
0000
0000
0000
0000
0000
0000
0000
0000
0000
0000
0020
0000
0000
0000
0000
0000
0000
0000
1030
0000
0000
0000
,
0000
0010
0000
0000
0000
0000
0100
0000
0000
0000
0000
0100
0000
0000
0000
1000
0000
0000
0000
0000
0000
0000
0000
0000
0100
0000
0000
0000
0000
0000
0000
0000
,
0000
0010
0000
0000
0000
0000
0000
0000
0000
1000
0000
0000
0000
0000
0000
0000
0000
0000
0100
0000
0000
0000
0000
0000
0000
0000
0002
0000
0000
0000
0000
0000
,
0000
0000
0000
0000
1003
0000
0000
0000
0000
0000
0000
0000
0000
0000
0000
0001
0000
0000
0000
0000
0000
0000
0000
0000
1000
0000
0000
0000
0000
0000
0000
0000
,
0002
0000
0000
0000
0000
0000
0000
0000
0000
0000
0000
0003
1000
0000
0000
0000
0010
0000
0000
0000
0000
0000
0000
0000
0000
1000
0000
0000
0000
0000
0000
0000
,
0000
0000
0000
0000
0100
0000
0000
0000
0000
0000
0000
0000
0010
0000
0000
0000
0000
0000
0000
0000
0000
0000
0001
0000
0000
0000
0000
0000
0000
0000
0000
0010
,
0000
0000
0000
0000
1000
0000
0000
0000
0100
0000
0000
0000
0000
1000
0000
0000
,
0000
0000
0000
0010
0000
0000
0000
0000
0000
0000
0000
0000
1000
0000
0000
0000
0000
0000
0000
0000
0000
0000
0000
0000
0000
0000
0000
0000
0010
0000
0000
0000
,
0100
0000
0000
0000
0100
0000
0000
0000
0001
0000
0000
0000
0000
0000
0000
0000
0000
0000
0000
0001
0000
0000
0100
0000
0000
0000
0000
0001
0000
0000
0100
0000
,
0000
0000
1000
0000
0000
0000
0000
0000
0010
0000
0000
0000
0000
1000
0000
0000
,
0000
0000
0010
0000
0000
0000
0100
0000
0000
0000
0000
0001
0000
0000
0000
0000
0000
0000
0100
0000
0000
0000
0000
0000
0000
0000
0000
0000
0000
0000
0000
0000
,
0000
0001
0000
0000
0000
0000
0000
0000
0000
0000
0000
0000
0000
0000
0000
0000
0000
0000
0010
0000
0000
0000
0000
0000
0000
0000
0000
0000
0000
0000
0000
0000
,
0000
0010
0000
0000
0000
0000
0000
0000
0000
0100
0000
0000
0000
0010
0000
0000
0100
0000
0000
0000
0000
0000
0000
0000
0000
0000
0000
0000
0000
0000
0000
0010
,
0000
0000
0000
1000
0000
0000
0000
0000
0000
0010
0000
0010
0000
0000
0001
1000
0001
0000
0010
1000
0000
0000
0000
0000
0000
0000
0000
0000
0000
0001
0000
0000
,
0000
0000
1000
0000
0000
0000
0000
0000
0000
0000
0001
0000
0000
0000
0000
0100
0000
0000
0000
0000
0000
0000
0000
0001
0000
0000
0000
0000
0000
0000
0000
0000
,
0000
0000
0100
0000
0000
0000
0000
0000
0000
0001
0000
0000
0000
0000
0000
0000
1001
0000
0000
0000
0000
0000
0000
0000
0000
0000
0000
0000
0000
0000
0000
0000
;

//---------------dance-single - Nothing----------------
#NOTEDATA:;
#CHARTNAME:Beginner;
#STEPSTYPE:dance-single;
#DESCRIPTION:Nothing;
#CHARTSTYLE:;
#DIFFICULTY:Beginner;
#METER:1;
#RADARVALUES:0.040940,0.067009,0.000000,0.000000,0.000000,17.000000,17.000000,0.000000,0.000000,0.000000,0.000000,0.000000,0.000000,0.000000,0.040940,0.067009,0.000000,0.000000,0.000000,17.000000,17.000000,0.000000,0.000000,0.000000,0.000000,0.000000,0.000000,0.000000;
#CREDIT:Riakodoadm;
#NOTES:
0000
0000
0000
0000
,
0000
0000
0000
0000
,
0000
0100
0000
0000
,
0000
0000
0000
0000
,
0000
0000
0000
0000
,
0000
0000
0000
0000
,
0100
0000
0000
0000
,
0000
0000
0000
0000
,
0000
0000
0000
0000
,
0100
0000
0000
0000
,
0000
0000
0000
0000
,
0000
0000
0000
0000
,
0100
0000
0000
0000
,
0000
0000
0000
0000
,
0000
0000
0000
0000
,
0100
0000
0000
0000
,
0000
0000
0000
0000
,
0000
0000
0000
0000
,
0100
0000
0000
0000
,
0000
0000
0000
0000
,
0000
0000
0000
0000
,
0100
0000
0000
0000
,
0000
0000
0000
0000
,
0000
0000
0000
0000
,
0100
0000
0000
0000
,
0000
0000
0000
0000
,
0000
0000
0000
0000
,
0100
0000
0000
0000
,
0000
0000
0000
0000
,
0000
0100
0000
0000
,
0000
0000
0000
0100
,
0000
0000
0000
0000
,
0000
0100
0000
0000
,
0000
0000
0000
0100
,
0000
0000
0000
0000
,
0000
0100
0000
0000
,
0000
0000
0000
0100
,
0000
0000
0000
0000
,
0000
0100
0000
0000
,
0000
0000
0000
0100
;

//---------------dance-single - everything and more----------------
#NOTEDATA:;
#CHARTNAME:the next SRT;
#STEPSTYPE:dance-single;
#DESCRIPTION:everything and more;
#CHARTSTYLE:;
#DIFFICULTY:Challenge;
#METER:66;
#RADARVALUES:0.782680,0.921696,1.078894,0.775455,0.783884,325.000000,257.000000,64.000000,46.000000,0.000000,17.000000,2.000000,0.000000,0.000000,0.782680,0.921696,1.078894,0.775455,0.783884,325.000000,257.000000,64.000000,46.000000,0.000000,17.000000,2.000000,0.000000,0.000000;
#CREDIT:Riakodoadm feat. TaroNuke;
#OFFSET:0.000000;
#BPMS:0.000000=165.300003
;
#STOPS:;
#DELAYS:;
#WARPS:;
#TIMESIGNATURES:0.000000=3=4
;
#TICKCOUNTS:0.000000=4
;
#COMBOS:0.000000=1
;
#SPEEDS:0.000000=1.000000=0.000000=0
;
#SCROLLS:0.000000=1.000010
;
#FAKES:;
#LABELS:0.000000=Song Start
;
#ATTACKS:TIME=0.000000:LEN=59.000000:MODS=*99 0.05x,*99 C8000,*0.1666 500000% wave,*0.1666 200% tornado;
#NOTES:
// measure 0
1000
0100
0010
0001
,  // measure 1
0100
0010
1000
0100
,  // measure 2
0001
0000
0000
0000
0000
0000
0000
0000
0020
0000
0000
0000
0000
0000
0000
0000
0000
0000
0000
0000
0000
0000
0000
0000
0000
0002
0000
0000
0000
0000
0000
0000
,  // measure 3
0000
0000
0003
0000
0000
0000
0000
0000
0100
0000
0000
0000
0000
0000
0000
0000
2030
0000
0000
0000
0000
0000
0000
0000
0100
0000
0000
3000
0000
0000
0000
0000
,  // measure 4
0000
0000
0100
0000
0000
0000
0000
0000
1000
0000
0000
0020
0000
0000
0000
0030
0100
0000
0000
0000
0002
0000
0000
0000
0000
0003
0000
0000
0000
0000
2000
0000
,  // measure 5
0001
0000
0000
0000
0000
3000
0000
0000
1100
0000
0000
0000
0000
0000
0000
0000
0100
0000
0000
0000
0000
0000
0000
0000
0010
0000
0000
0000
0000
0000
0000
0000
,  // measure 6
0002
0020
0000
0000
0000
0000
0000
0000
0000
0000
0000
0000
0030
0000
0000
0000
0003
0000
0000
0100
0000
0000
0000
0000
0020
0000
0000
0000
2000
0000
0000
0000
,  // measure 7
0000
0000
0000
0000
0000
0000
0000
3000
0031
0000
0000
0000
0000
0000
0020
0000
1200
0000
0000
0030
0000
0000
0000
0000
0001
0000
0000
0000
0000
0000
0000
0000
,  // measure 8
0301
0000
1000
0000
0000
0000
0000
0000
0100
0000
0010
0000
0000
0000
0000
0000
0010
0000
0000
0000
0000
0200
0000
0000
1000
0000
0000
0000
0300
0000
0000
0000
,  // measure 9
0200
0000
0000
0000
0000
0000
0000
0000
0000
0000
0000
0000
0000
0001
0000
0000
0300
0000
0000
0000
0000
0000
0000
0100
0020
0000
0000
0000
0000
0000
0000
0000
,  // measure 10
0000
1000
0000
0000
0000
0000
0000
0000
1030
0010
0000
0000
0000
0000
0000
0000
0200
0000
0000
1000
0000
0000
0000
0000
0000
0000
0000
0000
0001
0000
0000
0000
,  // measure 11
0301
0000
0000
0000
0010
0000
0000
0000
0001
0000
0000
0000
0000
1000
0000
0000
0010
0000
0000
0000
0000
0000
0010
0000
1000
0000
0000
0000
0000
0000
0000
0000
,  // measure 12
0202
0000
0000
0000
0000
0000
0000
0000
0000
0000
0000
0000
0000
0000
0000
0000
0300
0003
0000
0000
0000
0000
0000
0000
0110
0000
0100
0000
0000
0000
0000
0000
,  // measure 13
0010
0000
0000
1000
0000
0000
0000
0000
1000
0000
0000
0000
0001
0000
0000
0000
0011
0000
0000
0000
0000
0000
0100
0000
0010
0000
0000
0000
0000
0000
0100
0000
,  // measure 14
1000
0000
0000
0000
0000
0000
0000
0000
1100
0010
0000
0000
0000
0000
0001
0000
0011
0000
0100
0000
0000
0000
0000
0000
0101
0000
1000
0000
0000
0000
0000
0000
,  // measure 15
2020
0000
0000
0000
0100
0000
0000
0000
0000
0000
0000
0000
0000
0002
0000
0000
3000
0000
0000
0000
0000
0000
0000
0000
0000
0000
0000
0000
0000
0000
0000
0000
,  // measure 16
0003
0000
0000
0000
0000
0000
0000
0000
1030
0000
0000
0000
0000
0000
0000
0000
0101
0000
0000
0000
0000
0100
0000
0000
0010
0000
1000
0000
0000
0001
0000
0000
,  // measure 17
0110
0000
0010
0000
0000
0000
0000
0000
1100
0000
0000
0000
0000
0000
0000
0000
1001
0000
0000
0000
0000
0001
0000
0000
0110
0000
0100
0000
0000
1000
0000
0000
,  // measure 18
0011
0010
0000
0000
0101
0010
0000
0000
1101
0000
0000
0000
1001
0100
0000
0000
,  // measure 19
0100
0000
0000
0000
0001
0000
0000
0000
1010
0000
0000
0200
1000
0000
0000
0300
,  // measure 20
0110
0000
0000
0000
0000
0000
0000
0010
0101
0000
0000
0000
0000
0000
0002
0000
0010
0000
0100
0000
0000
0000
0000
0000
1100
0003
0000
0000
0000
0000
0000
1000
,  // measure 21
0011
0000
0000
0000
1110
0000
0000
0000
1001
0010
0000
0000
0101
0000
1000
0000
,  // measure 22
0010
0000
0000
0000
0000
0000
0200
0000
0001
0000
0000
0000
0300
0000
0000
0000
0101
0000
0000
0000
0000
0000
0000
0000
1000
0000
0000
0000
0100
0000
0000
1000
,  // measure 23
0110
0000
0000
0000
1000
0000
0000
0000
0011
0000
0100
0000
0000
0000
0000
0000
0001
0000
0000
0000
0010
0000
0000
0000
1100
0000
0000
0000
0000
0001
0000
0000
,  // measure 24
1001
0000
0000
0000
0000
0000
0000
0000
0011
0000
0000
0000
0000
0020
0000
0000
1001
0000
0030
0000
0000
0000
0000
1000
0110
0000
0000
0000
0000
0000
0000
0000
,  // measure 25
0100
0010
0000
0000
0000
0000
0000
0000
0001
0100
0000
0000
0000
0000
0000
0000
1010
0000
0000
0000
0020
0000
0000
0000
0100
0000
0000
0000
1030
0000
0000
0000
,  // measure 26
0101
0010
0000
0000
0000
0000
0100
0000
0011
0000
0000
0100
0000
0000
0000
1000
0010
0000
0000
0000
0000
0000
0000
0000
1110
0000
0000
0000
0000
0000
0000
0000
,  // measure 27
1001
0010
0000
0000
0000
0000
0000
0000
0110
1000
0000
0000
0000
0000
0000
0000
0101
0000
0100
0000
0000
0000
0000
0000
1100
0000
0002
0000
0000
0000
0000
0000
,  // measure 28
0010
0000
0000
0000
1003
0000
0000
0000
0001
0000
0000
0000
0000
0000
0000
0001
0440
0000
0000
0000
0000
0000
0000
0000
1000
0000
0000
0000
0000
0000
0000
0000
,  // measure 29
0332
0000
0000
0000
0000
0000
0000
0000
2010
0000
0000
0003
0000
0000
0000
0000
3001
0000
0000
0000
0000
0000
0000
0000
0100
1000
0000
0000
0000
0000
0000
0000
,  // measure 30
0021
0000
0000
0000
0100
0000
0000
0000
1030
0000
0000
0000
0010
0000
0000
0000
0100
0000
0000
0000
0000
0000
0001
0000
2000
0000
0000
0000
0000
0000
0000
0010
,  // measure 31
3200
0000
0000
0000
1302
0000
0000
0000
0123
0000
0000
0000
0130
1000
0000
0000
,  // measure 32
0001
0000
0000
0010
0000
0000
0000
0000
0102
0000
0000
0000
1000
0000
0000
0000
1003
0000
0000
0000
0000
0000
0000
0000
0010
0000
0000
0000
0100
0000
0000
0000
,  // measure 33
1210
0000
0000
0000
0010
0000
0000
0000
0311
0000
0000
0000
0000
0000
0000
0000
0001
0000
0000
0001
0000
0000
0100
0000
2000
0000
0000
0001
0000
0000
0100
0000
,  // measure 34
3020
0000
1000
0000
0032
0000
0000
0000
0213
0000
0000
0000
0310
1000
0000
0000
,  // measure 35
0101
0000
0010
0000
0000
0000
0100
0000
2010
0000
0000
0001
0000
0000
0000
0000
3010
0000
0100
0000
0000
0000
0000
0000
0110
0000
0000
0000
0000
0000
0000
0000
,  // measure 36
0021
0001
0000
0000
0000
0000
0000
0000
0031
0000
0000
0000
0000
0000
0000
0000
1100
0000
0010
0000
0000
0000
0000
0000
1002
0000
0000
0000
0000
0000
0000
0000
,  // measure 37
0203
0010
0000
0000
0000
0000
0000
0000
2300
0100
0000
0000
0000
0010
0000
0000
3120
0000
0000
0000
0000
0000
0000
0000
0130
0000
0000
0000
0000
0000
0000
0010
,  // measure 38
0001
0000
0000
1000
0000
0000
0000
0000
0110
0010
0000
0010
0000
0000
0001
1000
0001
0000
0010
1000
0000
0000
0000
0000
0100
0000
0000
0000
0000
0001
0000
0000
,  // measure 39
1010
0000
1000
0000
0000
0000
0000
0000
0001
0000
0001
0000
0000
0000
0000
0100
0010
0000
0000
0000
0000
0000
0000
0001
1100
0000
0000
0000
0000
0000
0000
0000
,  // measure 40
0011
0000
0100
0000
0000
0000
0000
0000
1010
0001
0000
0000
0000
0000
0000
0000
1001
0000
0000
0000
0000
0000
0000
0000
0000
0000
0000
0000
0000
0000
0000
0000
;
