#VERSION:0.83;
#TITLE:Cross The Stars;
#SUBTITLE:;
#ARTIST:Ian K. feat. Umi;
#TITLETRANSLIT:;
#SUBTITLETRANSLIT:;
#ARTISTTRANSLIT:;
#GENRE:HAPPY HARDCORE;
#ORIGIN:;
#CREDIT:Disko Warp Presents Speedisko Vol. 5 (2011?);
#BANNER:Cross The Stars.png;
#BACKGROUND:Cross The Stars-bg.png;
#PREVIEWVID:;
#JACKET:Cross The Stars-jacket.png;
#CDIMAGE:;
#DISCIMAGE:;
#LYRICSPATH:;
#CDTITLE:;
#MUSIC:Cross The Stars.ogg;
#OFFSET:0.000000;
#SAMPLESTART:33.599998;
#SAMPLELENGTH:15.000000;
#SELECTABLE:YES;
#BPMS:0.000=175.000;
#STOPS:;
#DELAYS:;
#WARPS:;
#TIMESIGNATURES:0.000=4=4;
#TICKCOUNTS:0.000=4;
#COMBOS:0.000=1;
#SPEEDS:0.000=1.000=0.000=0;
#SCROLLS:0.000=1.000;
#FAKES:;
#LABELS:0.000=Song Start;
#BGCHANGES:;
#KEYSOUNDS:;
#ATTACKS:
;

//---------------dance-single - The original stupid old chart----------------
#NOTEDATA:;
#CHARTNAME:Expert;
#STEPSTYPE:dance-single;
#DESCRIPTION:The original stupid old chart;
#CHARTSTYLE:;
#DIFFICULTY:Hard;
#METER:13;
#RADARVALUES:0.728754,0.916033,0.771622,0.139321,0.208981,476.000000,404.000000,72.000000,13.000000,0.000000,0.000000,0.000000,0.000000,0.000000,0.728754,0.916033,0.771622,0.139321,0.208981,476.000000,404.000000,72.000000,13.000000,0.000000,0.000000,0.000000,0.000000,0.000000;
#CREDIT:Riakodoadm;
#NOTES:
// measure 0
0000
0000
0000
0000
,  // measure 1
0000
0000
0000
0000
,  // measure 2
0000
0000
0000
0000
,  // measure 3
0000
0000
0000
0000
,  // measure 4
0000
1000
0000
0100
0000
0001
0000
0010
,  // measure 5
0000
0001
0000
0100
0000
1000
0000
0010
,  // measure 6
0000
1000
0000
0010
0000
0001
0000
0100
,  // measure 7
0000
0001
0000
0010
0000
1000
0000
0100
,  // measure 8
0110
0000
0001
0100
0000
0110
0010
1010
,  // measure 9
0000
1000
0100
0010
0002
0000
0103
2000
,  // measure 10
0000
3020
0000
0032
0000
1003
0000
1001
,  // measure 11
0000
0001
0100
0010
1000
0100
0001
0100
,  // measure 12
1000
0010
0001
0010
1000
0000
0001
0200
,  // measure 13
0000
0302
0000
0023
0000
1030
0000
0110
,  // measure 14
0000
1000
0100
0010
0001
0100
0010
2000
,  // measure 15
0000
0000
0000
3001
0002
0000
0000
1003
,  // measure 16
1001
0001
1000
0010
1000
0001
0100
0010
,  // measure 17
0100
0001
0010
0100
0010
0100
1000
0001
,  // measure 18
0100
1000
0100
0010
1000
0100
1000
0001
,  // measure 19
0100
0010
1000
0010
0001
0010
0100
0001
,  // measure 20
1000
0100
0010
0001
0010
1000
0010
0100
,  // measure 21
1000
0001
0100
0001
0010
1000
0010
0001
,  // measure 22
0100
0010
1000
0100
0010
0001
0100
1000
,  // measure 23
0100
0001
0100
0001
0010
0100
1000
0001
,  // measure 24
1001
0100
0001
0100
,  // measure 25
1000
0000
0001
0000
0010
0000
0100
1000
,  // measure 26
0100
0000
0000
0000
0000
0000
0000
0000
1000
0000
0000
0000
0000
0000
0000
0000
0001
0000
0000
0000
0000
0000
0000
0000
0100
0000
0000
0000
0000
0000
0001
1000
,  // measure 27
0001
1000
0100
0010
,  // measure 28
0001
0100
0001
0010
0100
1000
0001
1000
,  // measure 29
0001
1000
0001
1000
0001
1000
0001
1000
0010
0100
0010
0100
0010
0100
0010
0100
,  // measure 30
0020
0000
0000
0000
,  // measure 31
1030
0010
0100
0001
1000
0000
0000
0000
1001
0000
0001
0010
0000
0100
1000
0000
,  // measure 32
0110
0000
1001
0000
0101
0000
0001
0010
,  // measure 33
0000
0100
1000
0001
0100
0010
1000
0001
,  // measure 34
0101
0000
1010
0000
1100
0000
1000
0010
,  // measure 35
0000
1000
0100
0001
0100
0010
0001
1000
,  // measure 36
0100
0010
0100
0000
0010
0000
0000
0000
1001
0000
0000
0000
0001
0000
0100
0010
,  // measure 37
0100
0010
1000
0100
0010
0001
1000
0010
,  // measure 38
0110
0000
0000
0000
0101
0000
0000
0000
0011
0000
0000
0000
1000
0000
0100
1000
,  // measure 39
0100
0000
0010
0000
0001
0000
0010
0001
0010
0000
0100
0000
1000
0000
0010
0000
,  // measure 40
1000
0001
1000
0000
1100
0000
0000
0000
0011
0000
0000
0000
0001
0000
0101
0000
,  // measure 41
0000
0000
0110
0000
0000
0000
1010
0000
0000
0000
0001
0000
0100
0010
0100
0000
,  // measure 42
0110
0000
0000
0000
1010
0000
0000
0000
0101
0000
0000
0000
1001
0000
1000
0100
,  // measure 43
1000
0000
0001
0000
0000
0000
1010
0000
0000
0000
0010
0000
1000
0001
0100
0000
,  // measure 44
0010
0100
0000
0000
1001
0000
0000
0000
0101
0000
0000
0000
0010
0000
1010
0000
,  // measure 45
0000
0101
0000
1001
0000
1000
0010
0100
,  // measure 46
0101
0000
0000
0000
0001
1000
0000
0000
1100
0000
0000
0000
0011
0000
0000
1000
,  // measure 47
0001
0000
1001
0000
0000
0000
1000
0000
0100
0000
0010
0001
0010
0000
0001
0000
,  // measure 48
1001
1000
1100
0100
0110
0100
1100
1000
,  // measure 49
1001
0001
0101
0100
0110
0010
1010
1000
,  // measure 50
1001
0001
0011
0010
0110
0010
0011
0001
,  // measure 51
0101
0100
0110
0010
1010
1000
1001
1000
,  // measure 52
1010
0010
0110
0100
0101
0001
0011
0010
,  // measure 53
0110
0100
1100
1000
1010
0010
0110
0100
,  // measure 54
0101
0001
0011
0001
1001
1000
1010
1000
,  // measure 55
1100
0100
0110
0010
0011
0001
1001
1000
,  // measure 56
1001
0000
0000
0000
0100
0000
0000
0000
0010
0000
0000
0000
0001
0000
0100
0010
,  // measure 57
1000
0000
0100
0000
0001
0000
0100
1000
,  // measure 58
0010
0001
0010
1000
,  // measure 59
0100
0000
0010
0000
0001
0000
0100
0010
,  // measure 60
1000
0100
0001
0100
1000
0010
0001
0010
,  // measure 61
1000
0001
1000
0001
1000
0001
1000
0001
0010
0100
0010
0100
0010
0100
0010
0100
,  // measure 62
0020
0000
0000
0000
,  // measure 63
0031
0100
0010
1000
0001
0000
0000
0000
0110
0000
1000
0100
0000
0010
0001
0000
,  // measure 64
2002
0000
0000
0000
,  // measure 65
0000
0000
0000
3003
;

//---------------dance-single - The original breakdown----------------
#NOTEDATA:;
#CHARTNAME:Hahahaha no;
#STEPSTYPE:dance-single;
#DESCRIPTION:The original breakdown;
#CHARTSTYLE:pain;
#DIFFICULTY:Challenge;
#METER:66;
#RADARVALUES:0.897163,1.308541,1.275319,0.696603,0.337584,586.000000,466.000000,119.000000,65.000000,204.000000,49.000000,0.000000,0.000000,0.000000,0.897163,1.308541,1.275319,0.696603,0.337584,586.000000,466.000000,119.000000,65.000000,204.000000,49.000000,0.000000,0.000000,0.000000;
#CREDIT:Riakodoadm;
#NOTES:
// measure 0
0000
0000
0000
0000
,  // measure 1
0000
0000
0000
0000
,  // measure 2
0000
0000
0000
0000
,  // measure 3
0000
0000
0000
0000
,  // measure 4
0000
1000
1000
0100
0100
0001
0001
0010
,  // measure 5
0010
0001
0001
0100
0100
1000
1000
0010
,  // measure 6
0010
1000
1000
0010
0010
0001
0001
0100
,  // measure 7
0100
0001
0001
0010
0010
1000
1000
0100
,  // measure 8
0110
0100
0001
0100
0000
0110
0010
1010
,  // measure 9
1000
1000
0100
0010
0002
0000
0103
2000
,  // measure 10
0100
3020
1000
0032
0000
1003
0000
1001
,  // measure 11
0000
0001
0100
0010
1000
0100
0001
0100
,  // measure 12
1000
0010
0001
0010
1000
1000
0001
0200
,  // measure 13
0001
0302
0100
0023
0001
1030
1000
0110
,  // measure 14
0110
1000
0100
0010
0001
0100
0010
2000
,  // measure 15
0000
0000
0000
3001
0002
0000
0000
1003
,  // measure 16
0011
0010
0001
0100
0001
0010
1000
0100
,  // measure 17
1000
0010
0100
1000
0100
1000
0001
0010
,  // measure 18
1000
0001
1000
0100
0001
1000
0001
0010
,  // measure 19
1000
0100
0001
0100
0010
0100
1000
0010
,  // measure 20
0101
0000
1001
0000
0100
1000
0010
0000
0110
0000
1001
0000
0100
0010
1000
0000
,  // measure 21
0011
0000
0110
0000
1000
0100
0010
0000
1100
0000
1001
0000
0100
1000
0010
0000
,  // measure 22
1100
0000
0110
0000
0001
0100
1000
0000
1100
0000
0110
0000
1000
0100
0001
0000
,  // measure 23
1100
0000
0110
0000
1000
0100
0010
0000
0101
0000
1001
0000
0001
0100
0010
0000
,  // measure 24
1001
1000
0100
0000
0001
0000
0100
0000
,  // measure 25
1000
0000
0001
0000
0010
0000
1000
0100
,  // measure 26
0001
0000
0000
0000
0000
0000
0000
0000
1000
0000
0000
0000
0000
0000
0000
0000
0001
0000
0000
0000
0000
0000
0000
0000
0100
0000
0000
0000
0000
0000
0001
0100
,  // measure 27
1000
1000
0100
0010
,  // measure 28
0001
0100
1000
0010
0001
0100
1000
0010
,  // measure 29
0001
0100
0010
1000
0001
0100
0010
1000
0100
0010
0001
1000
0100
0010
0001
1000
,  // measure 30
0020
0000
0000
0000
,  // measure 31
1030
0100
0001
0100
1000
0000
0000
0000
1001
0000
0001
0010
0000
1000
0100
0000
,  // measure 32
0110
MMMM
1001
MMMM
0101
MMMM
0001
0010
,  // measure 33
MMMM
0100
1000
0001
0100
0010
1000
0001
,  // measure 34
0101
MMMM
1010
MMMM
1100
MMMM
1000
0010
,  // measure 35
MMMM
1000
0100
0001
0010
0010
0001
1000
,  // measure 36
0010
0001
0100
0000
0010
0000
0000
0000
1001
0000
0000
0000
0001
0000
0100
1000
,  // measure 37
0010
0010
1000
0100
0010
0001
1000
0010
,  // measure 38
0110
0000
MMMM
0000
0101
0000
MMMM
0000
0011
0000
MMMM
0000
1000
0000
0100
1000
,  // measure 39
0100
0000
0010
0000
0001
0000
0010
0001
0010
0000
0100
0000
1000
0000
0010
0000
,  // measure 40
1000
0001
1000
0000
1100
0000
MMMM
0000
0011
0000
MMMM
0000
0001
0000
0101
0000
,  // measure 41
MMMM
0000
0110
0000
MMMM
0000
1010
0000
MMMM
0000
0001
0000
0100
0010
0100
0000
,  // measure 42
0110
0000
MMMM
0000
1010
0000
MMMM
0000
0101
0000
MMMM
0000
1001
0000
1000
0100
,  // measure 43
1000
0000
0001
0000
MMMM
0000
1010
0000
MMMM
0000
0010
0000
1000
0001
0100
0000
,  // measure 44
0010
0100
MMMM
0000
1001
0000
MMMM
0000
0101
0000
MMMM
0000
0010
0000
1010
0000
,  // measure 45
MMMM
0101
MMMM
1001
MMMM
1000
0010
0100
,  // measure 46
0100
0001
0000
0000
0000
0000
0000
0000
0000
0000
0000
0000
0000
0000
0000
0000
0000
0000
0000
0000
0000
0000
0000
0000
MMMM
0000
0000
0000
0000
0000
0000
0000
0000
0000
0000
0000
0000
0000
0000
0000
0000
0000
0000
0000
0000
0000
0000
0000
0001
0000
0000
0000
0000
0000
0000
0000
0000
0000
0000
0000
1000
0000
0000
0000
0000
0000
0000
0000
0000
0000
0000
0000
MMMM
0000
0000
0000
0000
0000
0000
0000
0000
0000
0000
0000
0000
0000
0000
0000
0000
0000
0000
0000
0000
0000
0000
0000
1000
0100
0000
0000
0000
0000
0000
0000
0000
0000
0000
0000
0000
0000
0000
0000
0000
0000
0000
0000
0000
0000
0000
0000
MMMM
0000
0000
0000
0000
0000
0000
0000
0000
0000
0000
0000
0000
0000
0000
0000
0000
0000
0000
0000
0000
0000
0000
0000
0001
0100
0000
0000
0000
0000
0000
0000
0000
0000
0000
0000
0000
0000
0000
0000
0000
0000
0000
0000
0000
0000
0000
0000
MMMM
0000
0000
0000
0000
0000
0000
0000
0000
0000
0000
0000
1000
0000
0000
0000
0000
0000
0000
0000
0000
0000
0000
0000
,  // measure 47
0001
0000
1001
0000
0000
0000
1000
0000
0100
0000
0010
0001
0010
0000
0001
0000
,  // measure 48
M210
0312
1M23
1230
M312
1013
201M
3110
,  // measure 49
12M0
1301
2M01
3012
M123
1230
13M1
1001
,  // measure 50
120M
1310
1M20
2031
31M2
2103
321M
0312
,  // measure 51
21M3
3101
1M02
1023
1M32
2013
311M
0120
,  // measure 52
123M
0010
1310
0000
12M0
0000
1301
0000
1M02
0000
1013
0000
202M
0000
3231
0001
,  // measure 53
23M1
3102
M113
0210
132M
1130
22M0
3312
,  // measure 54
1M23
0000
1130
0000
12M0
0000
1301
0000
102M
0000
1230
0000
M322
0000
1133
0010
,  // measure 55
211M
0000
3120
0000
M132
0000
2103
0010
31M2
0000
2103
0000
3M21
0000
2032
0000
,  // measure 56
0110
0000
3003
0000
1000
0000
0100
0000
0010
0000
1000
0000
0001
0100
0001
0010
,  // measure 57
0010
0000
0010
0000
0010
0000
1000
0000
0010
0000
1000
0000
0010
0001
0001
0000
,  // measure 58
0001
1000
1000
0100
0100
0100
1000
0010
,  // measure 59
0001
0100
0100
1000
0100
1000
0100
0100
,  // measure 60
0100
0100
0100
0100
0100
0100
0100
0100
,  // measure 61
1000
0100
0001
0100
1000
0100
0001
0100
1000
0010
0001
0010
1000
0010
0001
0010
,  // measure 62
0201
1000
1000
0010
0010
1000
1000
0001
,  // measure 63
0301
0100
1000
0010
0001
0000
0000
0000
0110
0000
1000
1000
0000
0001
0001
0000
,  // measure 64
2MM2
0MM0
0MM0
0MM0
,  // measure 65
0MM0
0000
0000
0000
0000
0000
0000
0000
0000
0000
0000
0000
0000
0000
0000
0000
0MM0
0000
0000
0000
0000
0000
0000
0000
0000
0000
0000
0000
0000
0000
0000
0000
0MM0
0000
0000
0000
0000
0000
0000
0000
0000
0000
0000
0000
0000
0000
0000
0000
3MM3
0000
0000
0000
0000
0000
0000
0000
0000
MMMM
MMMM
MMMM
MMMM
MMMM
MMMM
MMMM
,  // measure 66
MMMM
0000
0000
0000
;

//---------------dance-single - The file's first coherent chart----------------
#NOTEDATA:;
#CHARTNAME:Difficult;
#STEPSTYPE:dance-single;
#DESCRIPTION:The file's first coherent chart;
#CHARTSTYLE:;
#DIFFICULTY:Medium;
#METER:9;
#RADARVALUES:0.525131,0.634176,0.578716,0.235773,0.000000,343.000000,289.000000,54.000000,22.000000,0.000000,0.000000,0.000000,0.000000,0.000000,0.525131,0.634176,0.578716,0.235773,0.000000,343.000000,289.000000,54.000000,22.000000,0.000000,0.000000,0.000000,0.000000,0.000000;
#CREDIT:Riakodoadm;
#NOTES:
0000
0000
0000
0000
,
0000
0000
0000
0000
,
0000
0000
0000
0000
,
0000
0000
0000
0000
,
1001
1000
1001
1000
,
1001
0001
1001
0001
,
0110
0100
0110
0100
,
0110
0010
0110
0010
,
1000
0100
1000
0100
,
0010
0010
0010
0000
,
0001
0100
0001
0100
,
0010
0010
0010
0000
,
1000
0000
0100
0000
0010
0000
0001
0100
,
1000
0000
0100
0000
0001
0000
1000
0100
,
0001
0100
1000
0010
,
0002
1000
2003
3001
,
0010
0001
0010
0000
0100
0000
1000
0000
,
0010
1000
0010
0000
0100
0000
0001
0000
,
0010
0001
0010
0000
0100
0000
1000
0000
,
0001
0100
0001
0000
1000
0100
1000
0000
,
0100
1000
0100
0000
0010
0000
0001
0000
,
0100
0001
0100
0000
0010
0000
1000
0000
,
0100
1000
0100
0000
0010
0000
0001
0000
,
1000
0010
1000
0000
0001
0010
0001
0000
,
2000
0000
0001
0000
,
0010
0010
0100
3000
,
0002
0000
1000
0000
,
0010
0010
0100
0003
,
1000
0100
0010
0001
,
1000
0010
0100
0001
0010
0100
1000
0010
,
2000
0000
0000
0000
0000
3000
0000
0000
,
0001
0100
1000
0000
0110
0000
0000
0000
,
1000
0000
0101
0000
0101
0000
0010
1000
,
0000
0100
0000
0010
0000
0001
0100
0001
,
0010
0000
1100
0000
1100
0000
1000
0001
,
0000
0100
0000
0010
0000
1000
0010
0100
,
0001
0000
1001
0000
0100
0000
0010
0100
,
0010
0110
0000
1001
0000
0001
0010
0100
,
1000
1100
0001
0101
,
1000
0001
0001
0000
0001
1000
1000
0000
,
1010
0000
1001
0000
1010
0000
0010
0100
,
0000
0001
0000
0010
0000
0100
1000
0100
,
0110
0000
0011
0000
1001
0000
1000
0100
,
1000
0010
0000
0001
0000
0010
0100
0001
,
1000
0000
1100
0000
0101
0000
0001
0100
,
0010
0110
0000
1010
0000
1000
0100
0010
,
0001
1010
1000
0011
,
0001
1000
0000
1000
0010
0100
0001
1000
,
1001
1100
0110
0011
,
0001
0100
0010
1000
0001
0100
0010
1000
,
1001
0101
0110
1010
,
1000
0100
0010
0001
1000
0100
0010
0001
,
0101
1100
1010
0011
,
0001
0010
0100
1000
0001
0010
0100
1000
,
1100
0101
0011
1010
,
1000
0010
0100
0001
1000
0010
0100
0001
,
2001
0000
0100
0000
0100
0000
3001
0001
,
1002
0000
0100
0000
0100
0000
1003
1000
,
2001
3100
1002
0103
,
2010
3001
0012
1003
,
1000
0001
1000
0001
0010
0100
0010
0100
,
2000
3200
0302
0203
2300
3020
0032
0023
,
2030
0000
0000
3000
,
1000
0100
0001
0000
0110
0000
0000
0000
,
2002
0000
0000
0000
,
0000
0000
0000
3003
;

//---------------dance-single - a true 1----------------
#NOTEDATA:;
#CHARTNAME:Beginner;
#STEPSTYPE:dance-single;
#DESCRIPTION:a true 1;
#CHARTSTYLE:;
#DIFFICULTY:Beginner;
#METER:1;
#RADARVALUES:0.055116,0.137177,0.053585,0.021434,0.000000,36.000000,31.000000,5.000000,2.000000,0.000000,0.000000,0.000000,0.000000,0.000000,0.055116,0.137177,0.053585,0.021434,0.000000,36.000000,31.000000,5.000000,2.000000,0.000000,0.000000,0.000000,0.000000,0.000000;
#CREDIT:Riakodoadm;
#NOTES:
0000
0000
0000
0000
,
0000
0000
0000
0000
,
0000
0000
0000
0000
,
0000
0000
0000
0000
,
0100
0000
0000
0000
,
0000
0000
0000
0000
,
0100
0000
0000
0000
,
0000
0000
0000
0000
,
1000
0000
0000
0000
,
0000
0000
0000
0000
,
0000
0000
0000
0000
,
0000
0000
0000
0000
,
0001
0000
0000
0000
,
0000
0000
0000
0000
,
0000
0000
0000
0000
,
0000
0000
0000
0000
,
0200
0000
0000
0000
,
0000
0000
0000
0000
,
0300
0000
0000
0000
,
0000
0000
0000
0000
,
0200
0000
0000
0000
,
0000
0000
0000
0000
,
0300
0000
0000
0000
,
0000
0000
0000
0000
,
1000
0000
0000
0000
,
0000
0000
0000
0000
,
1000
0000
0000
0000
,
0000
0000
0000
0000
,
0001
0000
0000
0000
,
0000
0000
0000
0000
,
0001
0000
0000
0000
,
0000
0000
0000
0000
,
1000
0000
0000
0000
,
0000
0000
0000
0000
,
1000
0000
0000
0000
,
0000
0000
0000
0000
,
0001
0000
0000
0000
,
0000
0000
0000
0000
,
0001
0000
0000
0000
,
0000
0000
0000
0000
,
1000
0000
0000
0000
,
1000
0000
0000
0000
,
1000
0000
0000
0000
,
0000
0000
0000
0000
,
0001
0000
0000
0000
,
0001
0000
0000
0000
,
0001
0000
0000
0000
,
0000
0000
0000
0000
,
1001
0000
0000
0000
,
0000
0000
0000
0000
,
1001
0000
0000
0000
,
0000
0000
0000
0000
,
1001
0000
0000
0000
,
0000
0000
0000
0000
,
1001
0000
0000
0000
,
0000
0000
0000
0000
,
1000
0000
0000
0000
,
1000
0000
0000
0000
,
1000
0000
0000
0000
,
0000
0000
0000
0000
,
0001
0000
0000
0000
,
0001
0000
0000
0000
,
0001
0000
0000
0000
,
0000
0000
0000
0000
,
1001
0000
0000
0000
;

//---------------dance-single - it's a Basic chart----------------
#NOTEDATA:;
#CHARTNAME:Basic;
#STEPSTYPE:dance-single;
#DESCRIPTION:it's a Basic chart;
#CHARTSTYLE:;
#DIFFICULTY:Easy;
#METER:5;
#RADARVALUES:0.352129,0.458016,0.160754,0.085736,0.000000,230.000000,215.000000,15.000000,8.000000,0.000000,0.000000,0.000000,0.000000,0.000000,0.352129,0.458016,0.160754,0.085736,0.000000,230.000000,215.000000,15.000000,8.000000,0.000000,0.000000,0.000000,0.000000,0.000000;
#CREDIT:Riakodoadm;
#NOTES:
0000
0000
0000
0000
,
0000
0000
0000
0000
,
0000
0000
0000
0000
,
0000
0000
0000
0000
,
1000
0001
1000
0001
,
1000
0001
1000
0001
,
0010
0100
0010
0100
,
0010
0100
0010
0100
,
1000
0100
1000
0100
,
0010
0010
0010
0000
,
0001
0100
0001
0100
,
0010
0010
0010
0000
,
1000
0100
0010
0000
,
0001
0100
0010
0000
,
1000
0100
0001
0010
,
2000
3000
0002
0003
,
0010
0010
0100
1000
,
0010
0010
0100
0001
,
0010
0010
0100
1000
,
0001
0001
1000
1000
,
0100
0100
0010
0001
,
0100
0100
0010
1000
,
0100
0100
0010
0001
,
1000
1000
0001
0001
,
2000
0000
0010
0000
,
3001
0001
0001
0000
,
0002
0000
0010
0000
,
1003
1000
1000
0000
,
1000
0100
0010
0001
,
1000
0010
0100
0001
,
2000
0000
0000
0000
0000
3000
0000
0000
,
0010
0000
1001
0000
,
1000
0001
0001
0010
,
0100
0010
0001
0100
,
0001
1000
1000
0001
,
0100
0010
1000
0010
,
0001
0001
0100
1000
,
1000
0100
0010
0010
,
0110
0000
1001
0000
,
1000
0100
0010
0001
,
0001
1000
1000
0010
,
0100
0010
1000
0100
,
1000
0001
0001
1000
,
0100
0010
0001
0010
,
1000
1000
0100
0001
,
0001
0100
0010
0010
,
0110
0000
1001
0000
,
0001
0100
0010
1000
,
1001
0100
1001
0100
,
1001
0010
1001
0010
,
1000
0100
0001
0010
,
1000
0100
0001
0010
,
1001
0010
1001
0010
,
1001
0100
1001
0100
,
0001
0100
1000
0010
,
0001
0100
1000
0010
,
0001
0100
0100
0100
,
1000
0100
0100
0100
,
0001
0010
0010
0010
,
1000
0010
0010
0010
,
0001
0100
0010
1000
,
0001
0010
0100
1000
,
2000
0000
0000
3000
,
0010
0000
1001
0000
,
0220
0000
0000
0000
,
0000
0000
0000
0330
;
