#VERSION:0.83;
#TITLE:Cool Cat Boogie;
#SUBTITLE:;
#ARTIST:Derek Savage;
#TITLETRANSLIT:;
#SUBTITLETRANSLIT:;
#ARTISTTRANSLIT:;
#GENRE:COOL POP;
#ORIGIN:;
#CREDIT:Cool Cat Saves The Kids (Soundtrack, 2015);
#BANNER:Cool Cat Boogie.png;
#BACKGROUND:Cool Cat Boogie-bg.png;
#PREVIEWVID:;
#JACKET:Cool Cat Boogie-jacket.png;
#CDIMAGE:;
#DISCIMAGE:;
#LYRICSPATH:Cool Cat Boogie.lrc;
#CDTITLE:;
#MUSIC:Cool Cat Boogie.ogg;
#OFFSET:1.033999;
#SAMPLESTART:27.910000;
#SAMPLELENGTH:15.000000;
#SELECTABLE:YES;
#BPMS:0.000=97.000,
31.000=120.000,
33.000=130.000,
65.000=120.000,
66.000=110.000,
67.000=97.000,
100.000=105.000,
101.000=120.000,
102.000=130.000,
133.000=120.000,
134.000=113.000,
135.000=107.000,
136.000=97.000,
169.000=110.000,
170.000=120.000,
172.000=130.000,
207.000=100.000,
208.000=97.000,
242.000=107.000,
248.000=115.000,
252.000=124.000,
254.000=130.000;
#STOPS:;
#DELAYS:;
#WARPS:;
#TIMESIGNATURES:0.000=4=4;
#TICKCOUNTS:0.000=4;
#COMBOS:0.000=1;
#SPEEDS:0.000=1.000=0.000=0;
#SCROLLS:0.000=1.000;
#FAKES:;
#LABELS:0.000=Song Start;
#BGCHANGES:1.667=Cool Cat Boogie.mp4=1.000=0=0=0=StretchNoLoop====,
99999=-nosongbg-=1.000=0=0=0 // don't automatically add -songbackground-
;
#KEYSOUNDS:;
#ATTACKS:
;

//---------------dance-single - ----------------
#NOTEDATA:;
#CHARTNAME:Expert;
#STEPSTYPE:dance-single;
#DESCRIPTION:;
#CHARTSTYLE:;
#DIFFICULTY:Hard;
#METER:15;
#RADARVALUES:0.773241,0.830292,0.578327,0.033689,1.330713,964.000000,861.000000,103.000000,6.000000,12.000000,0.000000,0.000000,0.000000,44.000000,0.773241,0.830292,0.578327,0.033689,1.330713,964.000000,861.000000,103.000000,6.000000,12.000000,0.000000,0.000000,0.000000,44.000000;
#CREDIT:Riakodoadm;
#NOTES:
// measure 0
0000
0000
0000
0000
0000
0000
0000
0000
0000
0000
0000
0000
0000
0000
0000
1000
,  // measure 1
0100
1000
0001
0000
0100
0001
0100
0010
0100
0001
0000
0010
0000
0100
0010
0001
,  // measure 2
0010
0100
1000
0001
1000
0000
0010
0000
1000
0010
0000
0100
0000
0001
0000
0100
,  // measure 3
0000
0001
1000
0100
0010
0100
0001
0100
0010
0100
1000
0001
0000
0100
0000
0010
,  // measure 4
0100
0010
0100
1000
0100
0010
0100
0001
1000
0001
0000
0001
1000
0000
0000
0000
,  // measure 5
0001
0100
0000
0001
0000
0010
0000
1000
0000
0010
0000
0001
0000
0100
0000
0010
,  // measure 6
1000
0010
0000
0100
0000
0001
0000
0100
0000
1000
0100
0001
0010
0000
1000
0000
,  // measure 7
0020
0001
0000
0000
0000
0000
0031
0010
0001
2000
0000
0000
3010
0100
0001
1000
,  // measure 8
0010
0000
0100
0010
1000
0001
1000
0001
1000
0001
0100
0001
0100
0000
0000
0001
0100
0000
0000
0001
0010
0000
0000
0001
1000
0000
0000
0010
1000
0000
0000
0000
,  // measure 9
1010
0000
1001
0000
1010
0000
0010
1000
0000
0001
0000
0010
0000
0001
0010
0000
,  // measure 10
0011
0000
0000
0000
1001
0000
0000
0000
0011
0000
0000
0000
0010
0000
0100
0000
0000
0000
1000
0000
0000
0000
0010
0000
1000
0000
0001
0000
1000
0001
1000
0000
,  // measure 11
1100
0000
0110
0000
1100
0000
1000
0010
0000
0100
0000
0010
0000
1000
0001
0000
,  // measure 12
0011
0000
0000
0000
0110
0000
0000
0000
0011
0000
0000
0000
0001
0000
0010
0000
0000
0000
1000
0000
0000
0000
0010
0000
0100
0000
1000
0000
0001
1000
0001
0000
,  // measure 13
0011
0000
1001
0000
0011
0000
0010
0001
0000
1000
0000
0010
0000
0100
1000
0000
,  // measure 14
1010
0000
0000
0000
1001
0000
0000
0000
1010
0000
0000
0000
0010
0000
0100
0000
0000
0000
0001
0000
0000
0000
0010
0000
0001
0000
1000
0000
0001
1000
0001
0000
,  // measure 15
0101
0000
0110
0000
0101
0000
0001
0010
0000
0100
0000
0010
0000
0001
1000
0000
,  // measure 16
1010
0000
0000
0000
0110
0000
0000
0000
1010
0000
0000
0000
1000
0000
0010
0000
1000
0010
1000
0010
1000
0001
0010
0001
0010
0000
0100
0000
1000
0000
0010
0000
,  // measure 17
0110
0000
0100
0000
0001
0000
0010
0100
0010
0000
0100
1000
0000
0100
0010
0100
,  // measure 18
0000
0010
0001
0100
0010
0000
0010
0100
0010
0000
1000
0001
0000
0100
0000
1000
,  // measure 19
0000
0100
0000
0001
0000
0010
0000
1000
0000
0010
0000
0100
0000
1000
0010
0000
,  // measure 20
0100
0000
1000
0100
0010
0100
0001
0100
0010
1000
0000
0001
0000
0000
0000
0010
,  // measure 21
0001
0100
0000
1000
0000
0100
0001
1000
0010
1000
0100
0000
0001
0000
0100
0010
,  // measure 22
0100
0000
0010
0000
0100
1000
0001
1000
0010
0100
0000
0010
0000
0000
0000
0000
,  // measure 23
1000
0010
0000
0001
0000
0010
0000
0100
1000
0000
0100
0010
0000
0100
0001
1000
,  // measure 24
0001
0000
0100
0000
0010
1000
0010
1000
0100
0000
0001
0100
1000
0100
0010
0001
,  // measure 25
2000
0000
0000
3020
0000
0000
0230
0000
0310
0000
0100
0010
1000
0001
1000
0001
,  // measure 26
0011
0000
1001
0000
0011
0000
0010
1000
0000
0010
0000
0100
0000
1000
0001
0000
,  // measure 27
0101
0000
0000
0000
1001
0000
0000
0000
0101
0000
0000
0000
0100
0000
0010
0000
0000
0000
1000
0000
0000
0000
0010
0000
0100
0000
0001
0000
1000
0001
1000
0000
,  // measure 28
1100
0000
0110
0000
1100
0000
0100
0001
0000
0100
0000
1000
0000
0001
0010
0000
,  // measure 29
0011
0000
0000
0000
0110
0000
0000
0000
1100
0000
0000
0000
1000
0000
0010
0000
0000
0000
0001
0000
0000
0000
0010
0000
0100
0000
0001
0000
1000
0001
1000
0000
,  // measure 30
1010
0000
1001
0000
1010
0000
0010
0001
0000
0010
0000
0100
0000
0001
1000
0000
,  // measure 31
1100
0000
0000
0000
1001
0000
0000
0000
1100
0000
0000
0000
0100
0000
0010
0000
0000
0000
0001
0000
0000
0000
0010
0000
0100
0000
1000
0000
0001
1000
0001
0000
,  // measure 32
0101
0000
0110
0000
0101
0000
0100
1000
0000
0100
0000
0001
0000
1000
0010
0000
,  // measure 33
1010
0000
0000
0000
0110
0000
0000
0000
0101
0000
0000
0000
0001
0000
0010
0000
0100
0000
0010
0000
0000
0000
0100
0000
1000
0000
0010
0000
0100
0001
0100
0001
,  // measure 34
0100
0010
0100
0000
0010
0000
0010
0001
0010
0100
0010
1000
0000
0100
0000
0001
,  // measure 35
0000
1000
0000
0010
0000
0001
0010
0100
0000
0010
0000
0001
1000
0010
0100
0000
,  // measure 36
0001
0100
0001
0100
0001
0000
0001
0000
1000
0100
1000
0100
0000
0000
0100
1000
,  // measure 37
0001
0100
0010
1000
0010
0100
0001
1000
0010
1000
0000
0100
0000
0000
0000
0000
,  // measure 38
1000
0010
1000
0010
0000
0010
1000
0001
0010
0001
0000
0010
0000
0001
1000
0000
,  // measure 39
0100
0000
1000
0010
0000
0100
0010
0000
0100
0000
0001
0000
0010
0000
0010
0000
,  // measure 40
0100
1000
0000
0001
0000
0001
0000
0010
0000
0001
0000
0100
0000
1000
0100
0010
,  // measure 41
1000
0100
0000
0100
0000
1000
0000
0010
0000
0000
0100
0001
0000
0000
0000
0000
,  // measure 42
0010
0001
0000
1000
0000
0100
0000
2000
0000
3010
0100
0001
1000
0100
0010
0001
,  // measure 43
1000
0001
1000
0000
0001
0000
0000
0000
1000
0000
0000
0000
0010
0100
0010
0000
0100
0000
0010
0000
1000
0000
0001
0000
0010
0000
0001
0000
1000
0000
0010
0000
,  // measure 44
1010
0000
1001
0000
0011
0000
0010
0100
0000
1000
0000
0010
0000
0001
0010
0000
,  // measure 45
1010
0000
0000
0000
0110
0000
0000
0000
0101
0000
0000
0000
0001
0000
0010
0000
0000
0000
0100
0000
0000
0000
1000
0000
0000
0000
0010
0000
0100
0001
0100
0000
,  // measure 46
0101
0000
1001
0000
1100
0000
1000
0010
0000
0001
0000
1000
0000
0100
0001
0000
,  // measure 47
0101
0000
0000
0000
0110
0000
0000
0000
1010
0000
0000
0000
0010
0000
0001
0000
0000
0000
0010
0000
0000
0000
0100
0000
0001
0000
0010
0000
0001
1000
0001
0000
,  // measure 48
0011
0000
1001
0000
1010
0000
0010
0100
0000
0001
0000
0010
0000
1000
0010
0000
,  // measure 49
0011
0000
0000
0000
0110
0000
0000
0000
1100
0000
0000
0000
1000
0000
0010
0000
0000
0000
0100
0000
0000
0000
0001
0000
0000
0000
0010
0000
0100
1000
0100
0000
,  // measure 50
1100
0000
1001
0000
0101
0000
0001
0010
0000
1000
0000
0001
0000
0100
1000
0000
,  // measure 51
1100
0000
0000
0000
0110
0000
0000
0000
0011
0000
0000
0000
0010
0000
0001
0000
0100
0010
0100
0010
0100
0010
0100
0010
0100
0000
0001
0000
1000
0100
1000
0000
,  // measure 52
0010
1000
0000
0010
0000
1000
0001
0000
0010
0001
0000
0010
0000
0001
0000
0101
,  // measure 53
0000
1001
0000
1100
0000
0100
0010
0100
1000
0000
1000
0001
0000
0000
0001
0000
,  // measure 54
0010
0000
0001
0100
0000
0100
0000
0010
0000
1000
0100
0000
1000
0000
1010
0000
,  // measure 55
0101
0000
0100
0010
0100
1000
0100
0010
0100
0001
1000
0100
0000
0000
0000
0100
,  // measure 56
0010
0000
0100
0000
0010
0000
0000
0000
1000
0000
0000
0000
0010
0000
0100
0000
0010
0000
0000
0000
0001
0000
0010
0000
0000
0000
0001
0000
0000
1000
0000
0000
,  // measure 57
0000
0010
0000
0100
0001
0100
0010
0000
1000
0100
0000
0010
0000
0000
0000
0001
,  // measure 58
0010
0100
0000
1000
0000
0001
0000
1000
0000
0010
0000
0001
0000
0010
0000
1000
,  // measure 59
0010
0000
0000
0000
0100
0000
0000
0001
0000
0010
0000
0001
0000
1000
0000
0010
0000
0000
0000
0010
0000
0100
0000
0000
0000
0000
0000
0000
0000
0000
0001
0000
,  // measure 60
0010
0000
0010
0100
0000
0000
0000
1000
0010
0000
0010
0100
0000
0000
0000
0001
,  // measure 61
1001
0010
1001
0100
1001
0010
1001
0100
,  // measure 62
1010
1010
1001
1001
0011
0011
0110
0110
,  // measure 63
0010
0100
0010
0100
1000
0001
1000
0001
1000
0010
0100
0001
1000
0010
0100
0001
,  // measure 64
0101
0000
0110
0000
1010
0000
1000
0100
0000
0001
0000
0100
0000
0010
0001
0000
,  // measure 65
0011
0000
0000
0000
1001
0000
0000
0000
1010
0000
0000
0000
0010
0000
0001
0000
0000
0000
0010
0000
0000
0000
0100
0000
0010
0000
1000
0000
0001
1000
0001
0000
,  // measure 66
0101
0000
1001
0000
1100
0000
0100
0001
0000
1000
0000
0010
0000
0001
1000
0000
,  // measure 67
1100
0000
0000
0000
0110
0000
0000
0000
0011
0000
0000
0000
0010
0000
0001
0000
0000
0000
0100
0000
0000
0000
0010
0000
0110
0000
0000
0000
0010
1000
0001
0000
,  // measure 68
1000
0100
1000
0100
1000
0100
0000
1000
0000
0001
0100
0001
0100
0001
0000
0000
,  // measure 69
1000
0000
1000
0000
0100
1000
0100
1000
0001
0100
0000
0010
0000
1000
0000
0000
,  // measure 70
0001
0100
0001
0100
0001
0100
0000
0001
0000
1000
0100
1000
0100
1000
0000
0000
,  // measure 71
0001
0000
0001
0000
0100
0001
0100
0001
1000
0100
0000
0010
0000
0001
0000
0000
,  // measure 72
1000
0100
0010
0100
1000
0100
0000
1000
0000
0001
0100
0010
0100
0001
0000
0000
,  // measure 73
0010
0000
0010
0000
0100
1000
0001
0100
0001
1000
0000
0010
0000
1000
0000
0000
,  // measure 74
0001
0100
0010
0100
0001
0100
0000
0001
0000
1000
0010
0100
0010
1000
0000
0000
,  // measure 75
0100
0000
0100
0000
0010
0001
1000
0010
1000
0001
0000
0100
0000
0001
0000
0000
,  // measure 76
1000
0010
1000
0100
1000
0001
0000
0010
0000
0001
0100
0001
0010
0100
0000
0000
,  // measure 77
1000
0000
1000
0000
0010
0100
0001
0010
0100
1000
0000
0010
0000
1000
0000
0000
,  // measure 78
0001
0010
0001
0100
0001
1000
0000
0010
0000
1000
0100
1000
0010
0100
0000
0000
,  // measure 79
0001
0000
0001
0000
0010
0100
1000
0010
0100
0001
0000
0010
0000
0001
0000
0000
,  // measure 80
F000
0F00
000F
0F00
F000
0F00
0000
F000
0000
000F
00F0
F000
00F0
000F
0000
0000
,  // measure 81
0F00
0000
0F00
0000
00F0
0F00
F000
0F00
000F
00F0
0000
F000
0000
00F0
0000
0000
,  // measure 82
000F
0F00
F000
0F00
000F
0F00
0000
000F
0000
F000
00F0
000F
00F0
F000
0000
0000
,  // measure 83
0F00
0000
0F00
0000
00F0
0F00
000F
0F00
F000
00F0
0000
000F
0000
00F0
0000
0000
,  // measure 84
MMMM
MMMM
MMMM
0000
;

//---------------dance-single - ----------------
#NOTEDATA:;
#CHARTNAME:Beginner;
#STEPSTYPE:dance-single;
#DESCRIPTION:;
#CHARTSTYLE:;
#DIFFICULTY:Beginner;
#METER:3;
#RADARVALUES:0.166840,0.202134,0.028074,0.000000,0.000000,208.000000,203.000000,5.000000,0.000000,0.000000,0.000000,0.000000,0.000000,0.000000,0.166840,0.202134,0.028074,0.000000,0.000000,208.000000,203.000000,5.000000,0.000000,0.000000,0.000000,0.000000,0.000000,0.000000;
#CREDIT:Riakodoadm;
#NOTES:
// measure 0
0000
0000
0000
0000
,  // measure 1
0010
0000
1000
0000
,  // measure 2
0001
0000
0100
0000
,  // measure 3
0010
0000
1000
0000
,  // measure 4
0001
0000
0100
0000
,  // measure 5
0010
0000
0001
0000
,  // measure 6
1000
0000
0100
0000
,  // measure 7
0010
0000
1000
0000
,  // measure 8
0001
0000
0100
0000
,  // measure 9
1000
1000
1000
0000
,  // measure 10
0001
0001
0001
0000
,  // measure 11
0100
0100
0100
0000
,  // measure 12
0010
0010
0010
0000
,  // measure 13
1000
1000
1000
0000
,  // measure 14
0001
0001
0001
0000
,  // measure 15
0010
0010
0010
0000
,  // measure 16
0100
0100
0100
0000
,  // measure 17
0001
0000
0010
0000
,  // measure 18
0100
0000
1000
0000
,  // measure 19
0001
0000
0100
0000
,  // measure 20
0010
0000
1000
0000
,  // measure 21
1000
0000
0010
0000
,  // measure 22
0100
0000
0001
0000
,  // measure 23
1000
0000
0100
0000
,  // measure 24
0010
0000
0001
0000
,  // measure 25
1001
0000
0000
0000
,  // measure 26
0001
0001
0001
0000
,  // measure 27
1000
1000
1000
0000
,  // measure 28
0100
0100
0100
0000
,  // measure 29
0010
0010
0010
0000
,  // measure 30
0001
0001
0001
0000
,  // measure 31
1000
1000
1000
0000
,  // measure 32
0010
0010
0010
0000
,  // measure 33
0100
0100
0100
0000
,  // measure 34
0001
0000
1000
0000
,  // measure 35
0100
0000
0010
0000
,  // measure 36
0001
0000
1000
0000
,  // measure 37
0010
0000
0100
0000
,  // measure 38
1000
0000
0001
0000
,  // measure 39
0100
0000
0010
0000
,  // measure 40
1000
0000
0001
0000
,  // measure 41
0010
0000
0100
0000
,  // measure 42
1000
0000
0001
0000
,  // measure 43
1001
0000
0000
0000
,  // measure 44
1000
1000
1000
0000
,  // measure 45
0010
0010
0010
0000
,  // measure 46
0100
0100
0100
0000
,  // measure 47
0001
0001
0001
0000
,  // measure 48
1000
1000
1000
0000
,  // measure 49
0100
0100
0100
0000
,  // measure 50
0010
0010
0010
0000
,  // measure 51
0001
0001
0001
0000
,  // measure 52
1000
0000
0010
0000
,  // measure 53
0001
0000
0100
0000
,  // measure 54
1000
0000
0100
0000
,  // measure 55
0001
0000
0010
0000
,  // measure 56
0001
0000
0010
0000
,  // measure 57
1000
0000
0100
0000
,  // measure 58
1000
0000
0010
0000
,  // measure 59
0001
0000
0100
0000
,  // measure 60
1001
0000
1001
0000
,  // measure 61
0010
0010
0010
0010
,  // measure 62
0100
0100
0100
0100
,  // measure 63
0100
0100
0100
0100
,  // measure 64
0001
1000
0001
0000
,  // measure 65
1000
0001
1000
0000
,  // measure 66
0010
0100
0010
0000
,  // measure 67
0100
0010
0100
0000
,  // measure 68
0001
0100
0001
0000
,  // measure 69
0100
0001
0100
0000
,  // measure 70
0001
0010
0001
0000
,  // measure 71
0010
0001
0010
0000
,  // measure 72
0100
1000
0100
0000
,  // measure 73
1000
0100
1000
0000
,  // measure 74
0010
1000
0010
0000
,  // measure 75
1000
0010
1000
0000
,  // measure 76
0010
0100
0010
0000
,  // measure 77
1000
0001
1000
0000
,  // measure 78
0001
1000
0001
0000
,  // measure 79
0010
0100
0010
0000
,  // measure 80
1001
0000
0000
0000
;
