#TITLE:v o l d e n u i t;
#ARTIST:Cuve;
#GENRE:Electronica;
#MUSIC:v o l d e n u i t.ogg;
#BANNER:v o l d e n u i t.png;
#BACKGROUND:v o l d e n u i t-bg.png;
#CDTITLE:./CDTitles/DJMAX Respect.png;
#SAMPLESTART:5.448;
#SAMPLELENGTH:15;
#OFFSET:-0.877;
#BPMS:0=105;
#BGCHANGES:-2.000=v o l d e n u i t.avi=1.000=0=0=0=StretchNoLoop==NoCrossFade==,
99999.000=-nosongbg-=1.000=0=0=0=StretchNoLoop====
;

//--------------- dance-single - XLev450X-bSP ----------------
#NOTES:
     dance-single:
     XLev450X:
     Beginner:
     2:
     0,0,0,0,0:
0000
0000
0000
0000
,
0000
0000
0000
0000
,
1000
0000
0000
0000
,
0010
0000
0000
0000
,
0001
0000
0000
0000
,
0100
0000
0000
0000
,
1001
0000
0000
0000
,
0000
0000
0000
0000
,
0000
0000
0000
0000
,
0000
0000
0000
0000
,
0010
0000
0010
0000
,
0010
0000
0010
0000
,
0100
0000
0000
0000
,
0001
0000
0000
0000
,
1000
0000
1000
0000
,
1000
0000
1000
0000
,
1000
0000
0010
0000
,
0100
0000
0001
0000
,
0100
0000
0000
0000
,
0000
0010
0000
0100
,
0000
0001
0000
1000
,
0000
0001
0000
1000
,
0000
0010
0000
0100
,
0010
0010
0010
0000
,
1000
1000
1000
0000
,
0001
0100
0001
0000
,
0010
0000
0000
0000
,
0100
0010
0100
0000
,
0010
1000
0010
0000
,
0100
0001
0100
0000
,
0001
0000
0000
0000
,
1000
0000
0000
0000
,
0010
0000
0000
0000
,
0100
0000
0000
0000
,
0001
0000
0000
0000
,
0001
0001
0001
0000
,
1000
1000
1000
0000
,
0010
0100
0010
0000
,
1000
0010
1000
0000
,
0101
0000
0000
0000
,
0110
0000
0000
0000
,
1010
0000
0000
0000
,
1001
0000
0000
0000
,
0200
0000
0000
0000
,
0000
0000
0000
0000
,
0300
0000
0000
0000
;

//--------------- dance-single - XLev450X-BSP ----------------
#NOTES:
     dance-single:
     XLev450X:
     Easy:
     5:
     0,0,0,0,0:
0000
0000
0000
0000
,
0000
0000
0000
0000
,
0010
0010
0010
0000
,
1000
0001
1000
0000
,
0010
0100
0010
0000
,
0010
0001
0010
0000
,
2002
0000
0000
3003
,
2020
0000
0000
3030
,
0202
0000
0000
0303
,
0220
0000
0000
0330
,
0001
0001
0001
0001
,
0001
0001
0001
0001
,
1000
0010
0100
0000
,
0010
0001
0100
0000
,
1000
1000
1000
1000
,
1000
1000
1000
1000
,
0010
0000
0000
0000
0100
0000
0000
0001
,
0000
1000
0000
0000
0010
0000
0100
0000
,
0020
0000
0000
0030
,
0001
1000
0001
0000
,
0010
1000
0010
0000
,
0100
0001
0100
0000
,
0001
1000
0001
0000
,
0010
1000
0001
0100
,
0010
1000
0001
0000
,
0100
1000
0010
0100
,
0001
0000
1000
0001
,
0100
0010
1000
0000
,
0010
1000
0001
0000
,
0100
0001
1000
0010
,
0100
0001
1000
0000
,
0002
0000
0000
0003
2000
0000
0000
3000
,
0020
0000
0000
0030
0200
0000
0000
0300
,
0001
1000
0001
0000
,
0010
0100
0010
0000
,
0001
1000
0001
0000
0010
0100
0010
0000
,
0001
1000
0010
0000
,
1000
0010
1000
0000
0100
0001
0100
0000
,
0010
1000
0001
0000
,
0100
0001
1000
0000
0010
0100
0001
0000
,
0010
0100
0010
0000
0001
0010
0001
0000
,
1000
0001
0100
0010
,
1000
0000
0001
0000
0100
0010
0100
0000
,
0002
2003
3020
0230
,
0302
2003
3020
0230
,
0300
0000
0000
0000
;

//--------------- dance-single - XLev450X-DSP ----------------
#NOTES:
     dance-single:
     XLev450X:
     Medium:
     9:
     0,0,0,0,0:
0000
0000
0000
0000
,
0000
0000
0000
0000
,
1000
0000
0001
0000
0010
0001
1000
0000
,
0010
0000
0100
0000
1000
0100
1000
0010
,
0100
0000
0001
0000
1000
0001
0100
0000
,
0010
0000
0001
0000
1000
0010
0100
0001
,
0001
0000
1000
0000
0010
0100
0010
0000
,
1000
0000
0001
0000
0100
0001
0100
0000
,
1000
0000
0010
0000
0100
0001
0100
0000
,
0000
0010
0000
1000
0000
0001
0000
0100
,
0010
1000
0001
0100
0010
0000
0001
0000
,
1000
0010
0100
0010
1000
0000
0001
0000
,
1000
0010
0100
0010
,
1000
0000
0001
1000
0010
0000
0010
0000
,
0100
0010
1000
0001
0100
0010
1000
0001
,
0100
0010
1000
0001
0100
0010
1000
0001
,
0100
0000
0000
0000
1000
0000
0000
0001
,
0000
0100
0000
0000
0010
0000
1000
0001
,
0100
0000
0000
0000
,
1000
0001
1000
0100
,
0010
0001
0010
1000
,
0001
0100
0010
0000
1000
0100
1000
0000
,
0010
0100
0001
1000
0010
0100
0001
0000
,
1000
0001
0100
0010
,
1000
0000
0001
0000
0010
0001
0010
0000
,
1000
0001
0100
0010
,
1010
0101
0110
1001
,
0001
0010
0001
0000
1000
0100
1000
0000
,
0010
0100
0001
1000
0010
0000
0100
0000
,
0001
0010
0001
0000
0100
0010
1000
0000
,
0100
1000
0001
0100
0010
0000
1001
0000
,
0000
0001
0000
1000
0000
0001
0000
0100
,
0000
0010
0000
1000
0000
0010
0000
0100
,
0001
0100
0010
0000
1000
0010
0100
0000
,
0001
1000
0001
0100
,
0001
1000
0010
1000
0010
0100
0001
0010
,
1000
0001
0100
0010
1000
0001
0100
0000
,
0010
1000
0001
0100
0010
0001
1000
0010
,
0100
1000
0001
0100
0010
0000
1000
0000
,
0001
0001
1000
0001
1000
0010
0100
1000
,
0010
0100
0001
0010
1000
0001
0100
0000
,
0001
1000
0010
1000
0010
0100
0010
1000
,
0001
0100
0010
1000
0001
0100
0020
0030
,
2000
0000
0100
3000
0002
0000
0010
0003
0200
0000
1000
0300
0020
0000
0001
0030
,
2000
0000
0010
3000
0002
0000
1000
0003
0200
0000
0001
0300
0020
0000
0100
0000
,
1030
0000
0000
0000
;

//--------------- dance-single - XLev450X-ESP ----------------
#NOTES:
     dance-single:
     XLev450X:
     Hard:
     14:
     0,0,0,0,0:
0000
0000
0000
0000
,
0000
0000
0000
0000
,
0000
0000
1000
0000
0000
0010
0000
1000
0001
0100
0010
0000
1000
0000
0001
0000
,
0010
0000
0000
0000
1000
0000
0010
0000
0001
0010
0001
0100
1000
0010
2000
0000
,
3000
0000
0100
0000
0000
0001
0000
1000
0010
0100
0010
0000
1000
0000
0001
0000
,
0100
0000
0000
0000
1000
0001
0010
0100
0000
1000
0001
1000
0100
0010
0001
0000
,
0000
1000
0000
0010
0100
0000
0001
1000
0000
0010
0000
0100
0001
0000
0100
1000
,
0000
0100
0000
0001
1000
0000
0100
1000
0000
0001
0000
1000
0010
0000
0001
0100
,
0000
1000
0000
0010
0100
0000
0001
1000
0000
0100
0000
0010
1000
0000
0001
0200
,
0000
1000
0000
0010
0000
0001
0000
1300
,
0010
1000
0100
0001
0010
0100
1000
0100
0010
0001
0100
1000
0001
0100
1000
0001
,
0010
0100
1000
0100
0001
0010
1000
0100
0001
1000
0100
0001
0010
1000
0100
0001
,
0010
0000
1000
0010
0100
0000
0001
0010
0001
0000
1000
0010
0100
0000
0010
1000
,
0001
0000
0010
0100
1000
0001
0000
0100
0010
0000
1000
0100
0001
0000
1000
0000
,
0100
0001
1000
0100
0001
0010
0100
1000
0001
0100
1000
0010
0100
1000
0010
0100
,
0001
0010
0100
1000
0010
0001
1000
0010
0100
1000
0010
0100
0001
0010
1000
0001
,
1000
0000
0010
0100
0001
0000
1000
0000
0010
0000
0100
1000
0010
0000
0101
0000
,
0000
0000
1010
0000
0000
0001
0000
0100
1000
0000
0010
0000
0100
1000
0001
0020
,
0000
0000
1000
0000
1000
0000
1000
0030
,
0000
0000
0000
0010
1000
0000
0000
0001
0010
0000
0000
0100
0010
0000
0000
1000
,
0001
0000
0000
0010
0001
0000
0000
1000
0010
0000
0000
0100
0001
0000
0000
0001
,
0100
0000
0010
0000
1000
0000
0100
0000
0010
0000
0001
0000
1000
0000
0010
0000
0100
0000
0001
0000
0100
0000
0001
0000
0010
0000
0100
0000
1000
0000
0010
0001
,
1000
0100
0010
0001
1000
0000
0001
0000
1000
0000
0100
0000
0010
0000
0001
0000
1000
0000
0100
0000
1000
0000
0001
0000
1000
0000
0100
0000
0010
0000
0100
0000
,
0001
0000
0000
0000
0000
0000
1000
0000
0000
0000
0010
0000
0000
0000
0100
0000
0000
0000
1000
0001
0010
0000
0100
0000
0000
0000
0001
0000
0000
0000
1000
0000
,
0000
0000
0001
0100
0000
1000
0000
0010
0000
0100
1000
0001
0000
1000
0001
0100
,
0010
0000
0000
0000
0000
0000
1000
0000
0000
0000
0001
0000
0000
0000
0100
0000
0000
0000
0010
0100
1000
0000
0001
0000
0000
0000
0100
0000
0001
0000
1000
0000
,
0100
0010
1000
0001
0100
0001
1000
0010
0001
1000
0010
0100
0001
1000
0010
0000
,
0001
0000
0000
0000
0000
0000
1000
0000
0000
0000
0010
0000
0000
0000
0100
0000
0000
0000
0001
0010
1000
0000
0100
0000
0000
0000
0001
0000
0000
0000
1000
0000
,
0000
0000
0010
0100
0000
0001
0000
1000
0000
0010
0100
0001
0000
1000
0010
0100
,
0010
0000
0000
0000
0000
0000
1000
0000
0000
0000
0010
0000
0000
0000
0100
0000
0000
0000
0001
0100
1000
0000
0010
0000
0100
0000
0010
0000
1000
0000
0001
0000
,
1000
0000
0010
0000
0100
0000
0001
0000
1000
0010
0100
0001
1000
0010
0100
0010
,
0000
0000
1000
0000
0001
0000
0100
0000
0010
0000
0000
1000
0000
0000
0001
0000
,
0000
0010
0000
1000
0000
0001
0000
0100
0010
0000
0010
1000
0000
0100
0001
0000
,
0100
0010
0001
0100
0001
0010
0001
1000
0100
0010
0001
0010
0100
0010
0001
0100
,
0010
0100
0010
0100
0001
0100
0010
1000
0001
0010
0001
1000
,
0010
0000
0001
1000
0010
0000
0100
1000
0010
0000
0100
0001
0010
0000
1000
0000
,
0001
0000
0010
0001
0010
0000
1000
0010
0100
0000
0001
1000
0010
0000
0100
0000
,
1000
0000
0010
0100
0001
0000
0010
1000
0010
0000
0100
0001
1000
0000
0010
0000
,
0100
0000
0000
0000
0001
0000
1000
0000
0010
0000
0000
0000
0100
0000
0001
0000
1000
0000
0000
0000
0010
0000
0000
0000
0200
0000
0000
0000
0001
0300
0000
0000
,
0100
0010
0001
1000
0001
0100
0001
0010
0100
0010
0001
0100
0001
0100
0010
1000
,
0001
1000
0100
0000
0001
0000
0010
0000
0100
0000
0010
0000
0001
0000
1000
0000
0100
0000
1000
0000
0100
0000
1000
0000
0010
0000
0100
0000
0010
0000
1000
0000
,
0001
0010
0100
0000
0010
0000
1000
0000
0001
0000
1000
0000
0010
0000
0100
0000
0010
0000
1000
0000
0001
0000
0010
0000
0100
0000
0010
0000
0100
0000
1000
0000
,
0010
0100
1000
0000
0010
0000
0100
0000
0001
1000
0010
0000
0001
0000
0010
0000
0100
0001
1000
0000
0001
0000
0100
0000
0001
1000
0200
0000
0310
0000
0000
0000
,
0200
0000
0300
0000
0002
0003
2000
3000
0002
0003
0000
0000
0200
0300
0020
0030
0002
0003
0000
0000
0002
0003
2000
3000
0200
0300
0000
0000
0002
0003
2000
3000
,
0002
0003
0000
0000
0020
0030
2000
3000
0020
0030
0000
0000
0002
0003
0020
0030
0200
0300
0000
0000
0002
0003
2000
3000
0200
0300
0000
0000
0020
0030
2000
0000
,
3100
0000
0000
0000
;
