#TITLE:u gotta groove;
#SUBTITLE:;
#ARTIST:DJ nagureo;
#TITLETRANSLIT:;
#SUBTITLETRANSLIT:;
#ARTISTTRANSLIT:;
#GENRE:;
#CREDIT:;
#BANNER:u gotta groove.png;
#BACKGROUND:u gotta groove-bg.png;
#LYRICSPATH:;
#CDTITLE:./CDTITLES/BEATMANIA CLASSICS.PNG;
#MUSIC:u gotta groove.ogg;
#OFFSET:-0.400;
#SAMPLESTART:42.425;
#SAMPLELENGTH:15.000;
#SELECTABLE:YES;
#BPMS:0.000=100.000
,36.000=94.000
,68.000=96.000;
#STOPS:;
#BGSTAGE:4;
#BGCHANGES:0.000=u gotta groove.avi=1.000=0=0=0=StretchNoLoop====,
99999=-nosongbg-=1.000=0=0=0 // don't automatically add -songbackground-
;
#KEYSOUNDS:;
#ATTACKS:;

//--------------- dance-single - DJ XLev450X-bSP ----------------
#NOTES:
     dance-single:
     DJ XLev450X:
     Beginner:
     1:
     0,0,0,0,0:
0000
0000
0000
0000
,
0010
0000
0000
0000
,
0100
0000
0000
0000
,
0010
0000
0000
0000
,
0100
0000
0000
0000
,
0100
0000
0000
0000
,
0010
0000
0000
0000
,
0010
0000
0000
0000
,
0110
0000
0000
0000
,
0010
0000
0010
0000
,
0010
0000
0000
0000
,
0100
0000
0100
0000
,
0100
0000
0000
0000
,
0010
0000
0010
0000
,
0010
0000
0000
0000
,
0100
0000
0100
0000
,
0100
0000
0000
0000
,
0010
0100
0010
0000
,
0100
0010
0100
0000
,
0010
0100
0010
0000
,
0010
0010
0010
0000
,
0100
0010
0100
0000
,
0010
0100
0010
0000
,
0100
0100
0100
0000
,
0010
0100
0010
0000
,
0110
0000
0110
0000
,
0110
0000
0000
0000
;

//--------------- dance-single - DJ XLev450X-BSP ----------------
#NOTES:
     dance-single:
     DJ XLev450X:
     Easy:
     4:
     0,0,0,0,0:
0000
0000
0000
0000
,
0001
1000
0010
0000
,
0100
0001
1000
0000
,
0010
0100
0001
0000
,
0000
1000
0000
0001
0000
0100
0000
0010
,
0010
1000
0001
0000
,
0010
0100
0001
0000
,
1000
0010
0100
0000
,
2002
0000
0000
0000
0000
0000
0000
3003
,
0010
0100
0001
0000
,
1000
0001
1000
0010
,
0100
0001
0010
0000
,
1000
0010
0100
0000
,
0001
1000
0010
0000
,
0100
0001
1000
0010
,
0100
0001
1000
0000
,
1100
1001
0110
1001
,
0010
0100
0001
0000
,
1000
0010
0100
0000
,
0001
0100
0010
0000
,
0000
1000
0000
0001
0000
0000
0100
0100
,
0100
0001
1000
0000
,
0010
0100
0001
0000
,
1000
0010
0100
0000
,
0001
1000
0010
0000
,
2002
0000
0000
0000
,
3003
0000
0000
0000
;

//--------------- dance-single - DJ XLev450X-DSP ----------------
#NOTES:
     dance-single:
     DJ XLev450X:
     Medium:
     7:
     0,0,0,0,0:
0000
0000
0000
0000
,
0010
0000
0100
0000
0100
0010
0100
0000
,
0010
0000
1000
0000
0100
1000
0010
0000
,
0001
0000
0010
0000
0010
1000
0101
0000
,
0000
0010
0000
0100
0000
0001
0000
0100
,
0001
1000
0001
0000
,
0010
1000
0010
0000
,
0010
0100
0001
0000
,
0001
0000
1000
0000
0010
0001
1000
0100
,
0001
0100
0001
1000
,
0000
0000
0000
0000
1000
0000
0000
0000
0000
0000
0000
0000
1000
0100
0000
0000
,
0001
0010
0100
1000
,
0000
0000
0000
0000
0000
0000
0000
0000
0000
0000
0000
0000
0100
1000
0000
0000
,
0010
1000
0001
1000
,
0000
0000
0000
0000
0000
0000
0000
0000
0000
0000
0000
0000
1000
0001
0000
0000
,
0001
1000
0100
0010
,
0000
0010
0000
1000
,
0010
0000
0000
0000
0010
0000
0000
0010
0000
0000
0000
0000
0000
0000
0000
0000
,
0001
0000
0000
0000
0001
0000
0000
0001
0000
0000
0000
0000
0000
0000
0000
0000
,
1000
0000
0000
0000
1000
0000
0000
1000
0000
0000
0000
0000
0000
0000
0000
0000
,
0000
0010
0000
0100
0000
0000
0001
0100
,
0010
0000
0000
0000
0010
0000
0000
0010
0000
0000
0000
0000
0000
0000
0000
0000
,
0100
0000
0000
0000
0100
0000
0000
0100
0000
0000
0000
0000
0000
0000
0000
0000
,
1000
0000
0000
0000
1000
0000
0000
1000
0000
0000
0000
0000
0000
0000
0000
0000
,
0000
0100
0000
0001
0000
1000
0000
0010
,
0001
0000
0000
0000
0001
0000
0000
0001
0000
0000
0000
0000
0000
0000
0000
0000
,
0110
0000
0000
0000
;

//--------------- dance-single - DJ XLev450X-ESP ----------------
#NOTES:
     dance-single:
     DJ XLev450X:
     Hard:
     10:
     0,0,0,0,0:
0000
0000
0000
0000
,
0001
0010
0001
0000
0001
0010
0100
0000
,
0100
0010
0001
0100
0010
0100
0001
0000
,
0010
1000
0100
0000
0001
0100
0001
1000
,
0001
0110
0000
1001
0000
1010
0000
0101
,
0100
0000
0010
0000
0100
0000
0000
0000
0001
0000
0100
0000
0001
1000
0100
0010
,
0001
1000
0010
0000
0010
0100
0001
0000
,
0001
0010
0001
1000
0001
1000
0010
0000
,
1001
0000
1001
0000
1001
1001
1001
1001
,
0010
0100
0010
1000
0010
1000
0001
0010
,
0000
0000
0000
0000
0000
0000
0000
0000
0000
0000
0000
0000
0100
0010
0000
0000
,
0001
1000
0010
0100
0001
1000
0010
1000
,
0000
0000
0000
0000
0000
0000
0000
0000
0000
0000
0000
0000
0010
0100
0000
0000
,
0010
0100
0001
0010
0001
0010
0001
1000
,
0000
0000
0000
0000
0000
0000
0000
0000
0000
0000
0000
0000
1000
0001
0000
0000
,
0010
1000
0001
0010
0001
1000
0010
1000
,
0110
0000
1001
0000
1100
0011
0110
1001
,
0100
0000
0000
0000
0100
0000
0000
0100
0000
0000
0100
0000
0010
0000
0100
0000
,
0001
0000
0000
0000
0001
0000
0000
0001
0000
0000
0100
0000
0010
0000
0100
0000
,
1000
0000
0000
0000
1000
0000
0000
1000
0000
0000
0010
0000
1000
0000
0100
0000
,
0010
0000
0100
0010
0001
0000
0001
0100
0001
0000
0000
0000
0110
0000
1001
0000
,
0010
0000
0000
0000
0010
0000
0000
0010
0000
0000
0001
0000
1000
0000
0001
0000
,
0100
0000
0000
0000
0100
0000
0000
0100
0000
0000
0010
0000
0100
0000
0010
0000
,
0100
0000
0000
0000
0001
0000
0000
0001
0000
0000
0100
0000
0010
0000
0100
0000
,
0010
1001
0000
0110
0000
0101
0000
1010
,
0001
0000
0000
0000
0001
0000
0000
0001
0000
0000
0010
0000
1000
0000
0010
0000
,
0100
0000
0000
0000
;
