#TITLE:tribe groove;
#ARTIST:nite system;
#GENRE:WORLD GROOVE;
#MUSIC:tribe groove.ogg;
#BANNER:tribe groove.png;
#BACKGROUND:tribe groove-bg.png;
#CDTITLE:./CDTitles/beatmania.png;
#SAMPLESTART:23.975;
#SAMPLELENGTH:15;
#OFFSET:-0.165;
#BPMS:0=126;
#BGSTAGE:1;

//--------------- dance-single - XLev450X-bSP ----------------
#NOTES:
     dance-single:
     XLev450X:
     Beginner:
     2:
     0,0,0,0,0:
0000
0000
0000
0000
,
0000
0000
0000
0000
,
0000
0000
0000
0000
,
0000
0000
0000
0000
,
0000
0000
0010
0000
,
0000
0000
1000
0000
,
0000
0000
0001
0000
,
0000
0000
0100
0000
,
0000
0000
0010
0000
,
1000
0000
0001
0000
,
0000
0000
0100
0000
,
0010
0000
1000
0000
,
0000
0000
1001
0000
,
0000
0000
0000
0000
,
0000
0000
0110
0000
,
0000
0000
0000
0000
,
0000
0000
0001
0000
,
1000
0000
0000
0000
,
0000
0000
1000
0000
,
0001
0000
0000
0000
,
0000
0000
0110
0000
,
0000
0000
0000
0000
,
0000
0000
1001
0000
,
0000
0000
0000
0000
,
0000
0000
1010
0000
,
0000
0000
0000
0000
,
0000
0000
0101
0000
,
0000
0000
0000
0000
,
0000
0000
0110
0000
,
0000
0000
0000
0000
,
0000
0000
0000
0000
,
0000
0000
0000
0000
,
0000
0000
0001
0000
,
1000
0000
0001
0000
,
0000
0000
0010
0000
,
0100
0000
0010
0000
,
0000
0000
1000
0000
,
0100
0000
1000
0000
,
0000
0000
0001
0000
,
0010
0000
0001
0000
,
0000
0000
1001
0000
;

//--------------- dance-single - XLev450X-BSP ----------------
#NOTES:
     dance-single:
     XLev450X:
     Easy:
     4:
     0,0,0,0,0:
0000
0000
0000
0000
,
0000
0000
0000
0000
,
0000
0000
0000
0000
,
0000
0000
0000
0000
,
0000
0000
0001
1000
,
0010
1000
0010
0000
0100
0000
0001
0000
,
1000
0001
1000
0000
0010
0000
0001
0000
,
1000
0010
1000
0100
,
0101
0000
0010
1000
,
0010
1000
0010
0000
0100
0000
0001
0000
,
0010
0001
0010
0000
1000
0000
0001
0000
,
0100
0010
1001
0000
,
0000
0000
1000
0001
,
0100
0000
1000
0010
,
0100
0001
1000
0100
,
0101
0000
0010
0010
,
1000
0000
1000
0001
,
0100
1000
0010
1000
,
0001
0000
0100
1000
,
0010
0000
0001
0100
,
0001
0000
1001
0000
,
0010
0010
1001
0000
,
0100
0100
0010
0000
,
1000
1000
0100
0000
,
0001
1000
0001
0000
,
0010
0000
1000
0000
,
0001
0100
0010
0000
,
1000
0000
0001
0010
,
0100
0000
1000
0001
,
0100
1000
0010
1000
,
0001
0000
0010
1000
,
0001
0100
0010
1000
,
1001
0000
0010
1000
,
0001
0000
0001
1000
,
0010
0000
1000
0010
,
0100
0000
0001
1000
,
0100
0000
0010
1000
,
0010
0000
0100
0001
,
1000
0000
0100
1000
,
0001
0000
0010
1000
,
0001
0010
1001
0000
;

//--------------- dance-single - XLev450X-DSP ----------------
#NOTES:
     dance-single:
     XLev450X:
     Medium:
     9:
     0,0,0,0,0:
0000
0000
0000
0000
,
0000
0000
0000
0000
,
0000
0000
0000
0000
,
0000
0000
0000
0000
,
0000
0000
0001
1000
,
0100
1000
0100
0000
0010
0000
0100
0000
,
0011
0000
0100
1000
,
0010
0100
0010
0000
0001
0000
0010
0000
,
1100
0000
1000
0001
,
1000
0001
1000
0000
0010
0000
0100
0000
,
1001
0000
0010
1000
,
0100
0001
0100
0000
1001
0000
0000
0000
,
0000
0000
0010
1000
,
0001
0000
0100
1000
,
0010
0000
0100
1000
,
0001
0000
0110
0011
,
1100
0000
1000
0001
,
0100
1000
0010
0100
,
0001
0010
0001
0000
1000
0000
0100
0000
,
1000
0000
0010
1000
,
0001
0100
0010
0000
1001
0000
0000
0000
,
0010
0100
1001
0000
,
0100
1000
1100
0000
,
0010
0001
0011
0000
,
1000
0010
1010
0000
,
0101
0000
0110
0000
,
1100
0000
0001
0001
,
1000
0000
0110
0000
,
0000
0000
0000
1001
0000
0000
0001
0000
1000
0000
0010
0000
,
0100
0001
1000
0100
0010
1000
,
0001
0100
1000
0010
0100
0001
,
1000
0010
0100
1000
0001
0100
,
0010
0000
0001
1000
,
0100
1000
0100
0000
0001
0000
0010
0000
,
0011
0000
0100
1000
,
0001
0010
0001
0000
1000
0100
1000
0001
,
0100
0000
0010
0000
1000
0010
1000
0001
,
0100
0000
1000
0000
0001
1000
0001
0100
,
0010
1001
0010
1000
,
0001
1000
0010
0000
0100
0000
1000
0000
,
0001
0010
0100
1000
0101
0000
0000
0000
;

//--------------- dance-single - XLev450X-ESP ----------------
#NOTES:
     dance-single:
     XLev450X:
     Hard:
     13:
     0,0,0,0,0:
0000
0000
0000
0000
,
0000
0000
0000
0000
,
0000
0000
0000
0000
,
0000
0000
0000
0000
,
0000
0000
0001
1000
,
0010
1000
0010
0000
0001
0000
0100
0000
,
0001
0010
0001
1000
0001
0000
0100
0000
,
1000
0010
1000
0000
0001
0000
0010
0000
,
0100
0001
1000
0000
0010
0000
1000
0000
,
0010
0100
0010
0000
0001
0000
1000
0000
,
0001
0010
0001
0000
1000
0000
0001
0000
,
1000
0010
1000
0000
0010
0000
0100
0000
,
1000
0000
0001
0000
0100
0000
0001
0000
0000
0100
0000
0000
1000
0000
0000
0000
0000
0000
0001
0000
0000
0010
0000
0000
,
0100
1000
0010
0000
1000
0000
0100
1000
,
0001
0000
0000
0010
0000
0000
0001
0010
0100
1000
0001
0000
0010
0000
0000
0100
0000
0000
1000
0000
0000
0000
0000
0000
,
0100
1000
0001
0000
0100
0000
1000
0000
,
0101
0000
0010
0000
1000
0010
1000
0000
,
0100
0010
0100
0000
0001
0010
0001
1000
,
0001
0000
0000
0100
0000
0000
1000
0000
0001
0000
1000
0000
0010
0000
0000
0000
0000
0000
1000
0000
0000
0100
0000
0000
,
0001
0000
0001
1000
0010
0000
0100
0000
,
0001
0010
0001
0000
1001
0000
0000
0001
,
1000
0001
1000
0001
0000
0000
0110
0000
0000
0000
0000
0000
,
1001
0000
0000
0000
0000
1001
0000
0000
0000
0000
0000
0000
1100
0000
0000
0000
0000
0000
0000
0000
0000
0000
0000
0000
,
1000
0000
0100
0000
0010
0000
0001
0000
0000
0100
0000
0000
0010
0000
0000
0000
0000
0000
0000
0000
0000
0000
0000
0000
,
1010
0000
0000
0000
0101
0000
0000
0000
0000
0000
0000
0000
0001
0000
0000
0000
0000
0000
0000
0000
0000
1000
0000
0000
,
0001
0000
0000
1000
0010
0000
0000
0000
,
0110
0000
0000
0000
0000
0000
0000
0000
0000
0001
0000
0000
1000
0000
0000
0000
0001
0000
0000
0000
1000
0000
0000
0000
,
0010
0000
0000
0001
1000
0000
0000
0000
,
0000
0000
0000
0110
0000
0000
0100
1000
0100
0010
0001
1000
,
0010
0100
0010
1000
0001
0010
0100
1000
0010
0100
0010
0100
,
0001
0000
1000
0000
0001
0000
1000
0000
0010
0000
0100
0000
0010
0000
0100
0000
0001
0100
1000
0000
0010
0000
1000
0000
,
0001
0000
1000
0100
0010
0001
0100
0000
0010
0000
1000
0000
0001
0000
0100
0000
0001
0000
1000
0000
0010
0000
0100
0000
,
0001
0000
0110
1001
0001
0000
1000
0000
,
0010
1000
0100
0001
0010
0000
1000
0000
,
0100
0000
0000
1000
0100
0000
0001
0000
0000
0010
0000
0000
1000
0000
0000
0000
0000
0000
0101
0000
0000
0000
0000
0000
,
0010
1000
0010
0000
0110
0000
0001
0100
,
1000
0100
0010
0001
0000
0010
0100
1000
0000
0100
0001
0000
0010
0000
0000
0100
0000
0000
1000
0000
0000
0000
0000
0000
,
0100
1000
0001
0000
0010
0000
1000
0000
,
0100
0000
0000
1000
0100
0010
0001
0000
0000
0010
0000
0000
0100
0000
0000
0000
0001
0000
0000
0000
0000
1000
0000
0000
,
0010
0100
1000
0000
0001
0000
0100
0000
,
0010
0000
0000
0000
1000
0000
0000
0100
0000
0001
0000
0010
0100
0000
0000
0000
0000
0000
0000
0000
0000
0000
0000
0000
;
