#TITLE:super highway;
#SUBTITLE:;
#ARTIST:nouvo nude;
#TITLETRANSLIT:;
#SUBTITLETRANSLIT:;
#ARTISTTRANSLIT:;
#GENRE:DRUM'N BASS;
#CREDIT:;
#MUSIC:super highway.ogg;
#BANNER:super highway.png;
#BACKGROUND:super highway-bg.png;
#CDTITLE:./CDTITLES/BEATMANIA.PNG;
#SAMPLESTART:2.320;
#SAMPLELENGTH:15.000;
#SELECTABLE:YES;
#OFFSET:-0.070;
#BPMS:0.000=160.000;
#STOPS:;
#BGSTAGE:4;
#BGCHANGES:;
#FGCHANGES:;

//--------------- dance-single - DJ XLev450X-bSP ----------------
#NOTES:
     dance-single:
     DJ XLev450X:
     Beginner:
     4:
     0,0,0,0,0:
0000
0000
0000
0000
,
0000
0000
0001
0000
,
1000
0000
0010
0000
,
0000
0000
0001
0000
,
0010
0000
1000
0000
,
0000
0000
0001
0001
,
0001
0000
1000
0000
,
0010
0000
0100
0001
,
1000
0000
0010
0000
,
0100
0000
0001
1000
,
0010
0000
1000
0000
,
0010
0000
2002
0000
,
0000
3003
0010
0000
,
0001
0000
1000
1000
,
0010
0000
0100
0100
,
0001
0000
1000
0000
,
0001
0000
0010
0000
,
0100
0000
0001
1000
,
0010
0000
1000
0010
,
0100
0000
0001
0000
,
1000
0000
0010
0000
,
0000
0000
0001
0000
,
1000
0000
0001
0000
,
0000
0000
1000
0000
,
0000
0000
0010
0000
,
0000
0000
0100
0000
,
0000
0000
0001
0001
,
0001
0000
1000
1000
,
1000
0000
0010
0010
,
0010
0000
0100
0100
,
0100
0000
0001
1000
,
0010
0000
0100
0001
,
1000
0010
0100
0001
,
1000
0000
0010
0000
,
1000
0001
0100
0000
,
0001
1000
0010
0000
,
1000
0010
0100
0000
,
0001
0000
1000
0010
,
0100
0000
0001
0000
,
1000
0000
0010
0100
,
0001
0000
1000
0001
,
0010
0100
0001
0000
,
1000
0000
0010
0000
,
1000
0000
0010
0100
,
0001
0000
1000
0000
,
0001
0000
0010
0100
,
0001
0000
0001
0000
,
1000
0000
0010
1000
,
0100
0000
0010
0000
,
0100
0000
0001
1000
,
0010
0000
0001
0000
,
1000
0000
0010
0100
,
0001
0000
1000
0000
,
0010
0000
0001
1000
,
0010
0000
0100
0000
,
0001
1000
0020
0000
,
0000
0000
0000
0000
,
0000
0030
0000
0000
;

//--------------- dance-single - DJ XLev450X-BSP ----------------
#NOTES:
     dance-single:
     DJ XLev450X:
     Easy:
     7:
     0,0,0,0,0:
0000
0000
0000
0000
,
0000
0000
0000
0000
0001
0000
0000
1000
,
0000
0010
0000
0000
0100
0000
0001
0000
,
1000
0000
0010
0000
0001
0000
0000
1000
,
0000
0010
0000
0000
0100
0000
0001
0000
,
0000
1000
0000
0000
0010
0000
0001
0000
,
0000
1000
0000
0000
0010
0000
0100
0000
,
0001
1000
0010
0100
,
0001
1000
0001
0010
,
0100
0001
1000
0000
,
0010
0001
1000
0000
,
0100
0001
0010
0000
,
1000
0000
0001
0100
,
0010
0000
1000
0000
0010
0001
0010
0000
,
1000
0010
0100
1000
,
0001
0000
0100
0000
1000
0010
1000
0000
,
0100
0001
0100
0000
1000
0010
0100
0000
,
0001
0010
0001
0000
1000
0000
0010
0000
,
0100
0001
1000
0000
0010
1000
0010
0000
,
0100
0010
0001
0000
1000
0000
0001
0000
,
0100
0010
1000
0001
0100
0000
0010
0000
,
1000
0001
0100
0000
0010
0000
0000
0000
,
1000
0000
0001
0100
,
0010
1000
0001
0010
,
0100
0000
0001
1000
,
0010
0100
0001
0010
,
1000
0000
0010
0001
,
1000
0010
0100
0000
,
0001
0000
1000
0010
,
0100
0001
0010
0000
,
1000
0000
0001
0100
,
0010
0001
0010
0000
1000
0000
0010
0000
,
1000
0100
0010
0000
0001
0000
1000
0000
,
0010
1000
0001
0000
0100
0000
0010
0000
,
0100
0001
1000
0000
0010
0000
1000
0000
,
0010
0100
0001
0000
0001
0000
1000
0000
,
0010
1000
0010
0000
0100
0000
0010
0000
,
0001
0010
0001
0000
1001
0000
0000
0000
,
0000
0000
0110
0000
,
0000
0000
0001
1000
,
0010
0100
0001
0000
1000
0000
0010
0000
,
1000
0000
0001
0100
,
0010
0001
0010
0000
1000
0000
0010
0000
,
0100
0000
0001
1000
,
0010
0100
0001
0000
1000
0000
0010
0000
,
0100
0000
0001
0000
,
1000
0010
0100
0000
,
0001
0000
0010
0000
1000
0001
0100
0000
,
0010
0000
1000
0000
0010
0001
0010
0000
,
1000
0010
0100
0000
0001
0000
1000
0000
,
0000
0010
0000
0000
1000
0000
0001
0000
,
0010
0100
0001
0000
1000
0000
0001
0000
,
0000
0010
0000
1000
0001
0000
0100
0000
,
0010
0001
1000
0000
0010
0000
0000
0000
,
0100
0001
1000
0010
,
0100
0001
0010
0000
2002
0000
0000
0000
,
0000
0000
0000
0000
,
0000
3003
0000
0000
;

//--------------- dance-single - DJ XLev450X-DSP ----------------
#NOTES:
     dance-single:
     DJ XLev450X:
     Medium:
     10:
     0,0,0,0,0:
0000
0000
0000
0000
,
0000
0000
0000
0000
0001
0000
0000
1000
,
0000
0010
0000
0100
0001
0000
1000
0010
,
0000
0100
0000
0001
1000
0000
0000
0010
,
0000
1000
0000
0001
0100
0000
0010
1000
,
0000
0001
0000
0000
1000
0000
0010
0000
,
0000
0100
0000
0001
1000
0000
0010
0000
,
0100
0000
0001
0000
1000
0000
0010
1000
,
0000
0010
0100
1000
0001
0000
1000
0010
,
0000
0100
0000
0000
0001
0000
1000
0000
,
0000
0010
0000
1000
0001
0000
0100
0010
,
0000
1000
0000
0001
0010
0000
0000
1000
,
0000
0001
0100
0000
0010
0000
1000
0000
,
0001
0000
0010
0000
0100
0000
0000
0000
0001
0000
0000
1000
0000
0000
0010
0000
,
0100
0000
0000
0000
0001
0000
0000
0000
1000
0000
0000
0010
0000
0000
0100
0000
,
0001
0000
0000
0000
1000
0000
0000
0000
0010
0000
0000
0100
0000
0000
0001
0000
,
1000
0000
0010
0000
0100
0000
0000
0000
0001
0000
0000
1000
0000
0000
0010
0000
,
0000
0000
0100
0000
0001
0000
0000
0000
0010
0000
0000
1000
0000
0000
0010
0000
,
0100
0000
0000
0000
0001
0000
0000
0000
1000
0000
0000
0010
0000
0000
0100
0000
,
0001
0000
0000
0000
1000
0000
0000
0000
0010
0000
0000
0100
0000
0000
0001
0000
,
0000
1000
0000
0000
0010
0000
0000
0000
0100
0000
0001
0000
1000
0000
0000
0000
,
0010
0000
0100
0000
0001
0000
0000
0000
2000
0000
0000
0000
0000
3000
0000
0000
,
0002
0000
0000
0003
1000
0010
0100
0000
,
0001
0000
1000
0000
0010
0001
0010
0000
,
1000
0000
0001
0000
0100
0010
1000
0000
,
0001
0000
0010
0000
0100
0000
0000
0001
,
0000
0000
1000
0000
0010
0100
0001
0000
,
1000
0000
0010
0000
1000
0010
0100
0000
,
0001
0000
0010
0000
1000
0001
0100
0000
,
0010
0000
0000
0000
0001
0000
0000
0000
1000
0000
0000
0010
0000
0000
1000
0000
,
0000
0100
0000
0000
0001
0000
0100
0000
0001
0000
0000
0000
1000
0000
0000
0000
,
0010
0001
0010
0000
1000
0000
0010
0000
,
0100
1000
0010
0100
0001
0000
0001
0000
,
1000
0010
0100
0000
0001
0000
0000
1000
,
0000
0010
0100
0000
0001
0001
1000
0000
,
0010
0000
0100
0000
0010
0010
1000
0000
,
0001
0000
0100
0000
0010
0001
0010
0000
,
1000
0010
0100
0000
0001
0000
0000
1000
,
0000
0000
0010
0000
0001
0000
1000
0020
,
0000
0100
0000
0030
0001
0000
1000
0000
,
0000
0010
0000
0100
0001
0000
1000
0000
,
0010
0100
0001
0000
1000
0010
0100
0000
,
0000
0001
1000
0000
0010
0100
0001
0000
,
0011
0000
1100
0000
0010
0100
0001
0000
,
0000
1000
0000
0010
0100
0000
0001
0000
,
1000
0010
0100
0000
0001
0010
0001
0000
,
1000
0000
0010
0000
0100
0001
1000
0010
,
0100
0001
1000
0000
0001
0000
0100
0000
,
0010
1000
0001
0000
0100
0000
0010
0000
,
1000
0001
0010
0000
1000
0000
0010
0000
,
0000
0100
0001
0000
1000
0000
0010
0000
,
0100
0001
1000
0000
0010
0000
0100
0000
,
0000
0001
0000
1000
0010
0100
0001
0000
,
1000
0010
0100
0000
0001
0000
1000
0000
,
0010
0000
0100
0000
0001
0010
1000
0001
,
0100
0010
1000
0002
0000
0000
0000
0000
,
0000
0000
0000
0000
,
0000
0003
0000
0000
;

//--------------- dance-single - DJ XLev450X-ESP ----------------
#NOTES:
     dance-single:
     DJ XLev450X:
     Hard:
     15:
     0,0,0,0,0:
0000
0000
0000
0000
,
0000
0000
0000
0000
2002
0000
3003
0010
,
0000
0000
0100
0000
0000
0000
1000
0000
0001
0010
0001
0010
0001
0000
0100
0001
,
1000
0100
0001
1000
0010
0001
1000
0000
0200
0000
0000
0000
0300
0000
0010
0000
,
0000
0000
1000
0000
0000
0000
0010
0000
0001
1000
0001
0100
0010
1000
0001
0000
,
0000
0000
2020
0000
0000
0000
3030
0000
0001
0000
0100
0000
0010
0000
0000
0100
,
0000
1000
0000
0001
0100
0010
1000
0001
,
0010
0001
0010
0001
0100
0000
1000
0000
0010
0000
0001
0000
0100
0000
1000
0000
,
0000
0001
0000
0000
1000
0000
0010
0000
0100
0000
0001
0000
1000
0000
0001
0010
,
1000
0010
1000
0010
1000
0000
0000
0000
0001
0000
0010
0000
0100
0000
0000
0100
,
0001
0000
1000
0000
0000
0000
0100
0000
0010
0000
0001
0100
1000
0000
0010
0000
,
0100
0000
0001
1000
0010
0000
0100
0000
0002
0000
0003
0000
2000
0000
3000
0000
,
0020
0000
0030
0000
0200
0000
0300
0000
0001
0010
0100
1000
0100
1000
0100
0010
,
0001
0100
0010
1000
0100
1000
0100
0010
0001
0000
1000
0000
0010
0000
0000
0100
,
0001
0010
1000
0000
0010
0001
0010
0001
,
0010
0001
0010
0100
1000
0000
0000
0100
0010
0000
0100
0000
1000
0000
0010
0100
,
0010
0001
1000
0000
0001
0010
0001
0100
,
0000
1000
0000
0000
0010
0000
0000
0000
0001
0000
1000
0000
0010
0000
0100
0001
,
1000
0000
0010
0000
0100
0000
0000
0000
0001
0000
1000
0000
0010
0000
0100
0001
,
1000
0010
0100
1000
0001
0000
1000
0000
0010
0000
0000
0000
0001
0000
0100
0000
,
0000
1000
0010
0000
0100
0000
0001
0000
,
0010
0000
0001
0000
1000
0000
0010
0000
0100
1000
0010
0100
0001
1000
0100
0001
,
0010
0000
0001
0000
0100
0000
0000
0000
1000
0100
1000
0100
0001
0010
0100
0000
,
0000
0001
1000
0000
0010
0000
0000
0000
0100
0000
0001
0000
1000
0000
0010
0001
,
0000
0000
0010
0000
0001
1000
0000
0000
0010
0001
0100
0010
0001
1000
0100
0000
,
0010
0000
0001
0100
1000
0000
0000
0000
0001
0000
1000
0000
0010
0100
0001
1000
,
0100
0001
0010
1000
0100
0001
0000
0000
0010
0001
0010
0001
0010
0100
1000
0100
,
0000
0010
1000
0000
0001
0000
1000
0000
0100
0000
0010
0100
0001
1000
0100
0001
,
0000
1000
0000
0010
0000
1000
0100
0000
0001
0000
1000
0000
0010
0000
0100
0001
,
0000
0000
1000
0000
0010
0100
0001
0000
1000
0000
0000
0000
0001
0000
1000
0000
,
0000
0000
0010
0001
0010
0000
0000
0000
1000
0000
0010
0000
0100
0000
0001
0000
,
0000
0010
0001
0000
1000
0010
0100
0001
,
1000
0000
0010
0000
0001
0100
0010
0000
1000
0001
0100
0010
1000
0001
0000
0100
,
0010
0000
1000
0000
0010
0100
0000
0000
0001
0000
1000
0000
0010
0100
0001
1000
,
0010
0100
0010
0001
1000
0010
0100
0000
0010
1000
0001
0000
0100
0000
0001
1000
,
0000
0000
0010
0000
0100
0001
0000
0000
1000
0000
0010
0001
0100
0000
1000
0000
,
0000
0000
0001
0000
0100
0010
0000
0000
1000
0000
0001
0100
0010
1000
0000
0001
,
0000
0000
0100
0010
1000
0001
0000
0000
0100
0000
0000
0000
0001
0000
1000
0100
,
0010
0000
0100
0000
1000
0001
0010
0000
0100
0000
0000
0000
0001
0000
0000
0010
,
0000
1000
0000
0000
1000
0000
0010
0001
,
0000
0000
1000
0000
0000
0000
0001
0000
0100
0000
0010
0000
1000
0000
0001
0010
,
0001
1000
0010
0100
0001
1000
0010
0000
,
0100
0000
0001
1000
0010
0000
0000
0000
0001
0000
0100
0000
0010
0000
0000
0001
,
0000
0000
1000
0000
0010
0000
0000
0000
0100
0000
0001
0000
1000
0000
0010
1000
,
0010
0000
0100
0000
0001
0000
1000
0000
0010
0000
0001
0010
0001
0000
1000
0000
,
0010
0000
0100
1000
0100
0000
0010
0000
0100
0000
0001
0000
1000
0000
0000
0000
,
0100
0000
0001
1000
0100
0000
0000
0000
0010
0000
0000
0100
0001
0000
1000
0000
,
0000
0010
0100
0001
1000
0100
0010
0001
0010
0000
0000
0000
1000
0000
0001
0000
,
0000
0010
0001
0000
1000
0010
0100
0000
,
0001
0000
1000
0000
0010
0000
0000
0000
0001
0000
0010
0000
0100
0000
0000
0010
,
0000
0000
0001
0000
1000
0000
0000
0000
0010
0000
0100
0000
0001
0000
0000
1000
,
0010
0001
1000
0000
0010
0100
0001
0100
,
0000
1000
0000
0010
0100
0001
1000
0000
,
0010
0100
0001
0000
0010
1000
0001
0000
,
0000
1000
0010
0000
0100
0000
0001
0100
0010
1000
0010
1000
0001
0100
0010
1000
,
0010
0100
0001
0010
0001
0100
2000
0000
0000
0000
0000
0000
0000
0000
0000
0000
,
0000
0000
0000
0000
,
0000
3000
0000
0000
;
