#TITLE:super highway (SUPER SUBWAY MIX);
#SUBTITLE:;
#ARTIST:nouvo nude (another mixed by DOCTOR S);
#TITLETRANSLIT:;
#SUBTITLETRANSLIT:;
#ARTISTTRANSLIT:;
#GENRE:DRUM'N BASS;
#CREDIT:;
#MUSIC:super highway (SUPER SUBWAY MIX).ogg;
#BANNER:super highway (SUPER SUBWAY MIX).png;
#BACKGROUND:super highway (SUPER SUBWAY MIX)-bg.png;
#CDTITLE:./CDTITLES/BEATMANIA.PNG;
#SAMPLESTART:2.377;
#SAMPLELENGTH:15.000;
#SELECTABLE:YES;
#OFFSET:-0.079;
#BPMS:0.000=160.000;
#STOPS:;
#BGSTAGE:4;
#BGCHANGES:;
#FGCHANGES:;

//--------------- dance-single - DJ XLev450X ----------------
#NOTES:
     dance-single:
     DJ XLev450X:
     Challenge:
     16:
     0,0,0,0,0:
0000
0000
0000
0000
,
0000
0000
0000
0000
0000
1001
0000
0110
,
0000
0000
0000
0000
0100
0000
0000
0000
2000
0000
0000
3000
0000
0000
1000
0010
,
0100
0001
1000
0100
0001
1000
0010
0100
0000
0000
0011
0000
0000
0000
1100
0000
,
0000
0000
0000
0000
1000
0000
0000
0000
0020
0000
0000
0030
0000
0000
0010
1000
,
0001
0100
0001
1000
0010
0100
0001
1000
0000
0000
0001
0000
0100
0000
0010
0000
,
0000
0000
0000
0000
1000
0010
0000
0000
0001
0000
0100
0000
0010
0000
1000
0000
,
0001
0000
0010
0001
0010
0001
0100
0000
1000
0000
0010
0000
0001
0000
0100
0000
,
1000
0000
0000
0001
0100
0000
1000
0000
0010
0000
0100
0000
0001
0000
1000
0000
,
0001
0010
1000
0010
1000
0010
1000
0000
0000
0000
0001
0000
0010
0000
0100
0000
,
0000
0100
0001
0000
1000
0000
0000
0000
0100
0000
0010
0000
0001
0100
1000
0000
,
0010
0000
0100
0000
0001
1000
0010
0000
0100
0000
0002
0000
0003
0000
2000
0000
,
3000
0000
0020
0000
0030
0000
0200
0000
0300
0000
0001
0010
0100
1000
0100
1000
,
0100
0010
0001
0100
0010
1000
0100
1000
0100
0010
0001
0000
1000
0000
0010
0000
,
0000
0100
0001
0000
0010
0000
1000
0000
0000
0000
0010
0000
0001
0000
0010
0000
,
0001
0000
0010
0001
0010
0100
1000
0000
0000
0100
0010
0000
0100
0000
1000
0000
,
0010
0100
0010
0000
0001
0000
1000
0000
0000
0000
0001
0000
0010
0000
0001
0000
,
0100
0000
0000
1000
0000
0000
0010
0000
0000
0000
0001
0000
1000
0000
0010
0000
,
0100
0001
1000
0000
0010
0000
0100
0000
0000
0000
0001
0000
1000
0000
0010
0000
,
0100
0001
1000
0010
0100
1000
0001
0000
1000
0000
0010
0000
0000
0000
0001
0000
,
0100
0000
1000
0010
0000
0100
0000
0001
,
0000
0000
0010
0000
0001
0000
1000
0000
0010
0000
0100
1000
0010
0100
0001
1000
,
0100
0001
0010
0000
0001
0000
0100
0000
0000
0000
1000
0100
1000
0100
0001
0010
,
0100
0000
0000
0001
1000
0000
0010
0000
0000
0000
0100
0000
0001
0000
1000
0000
,
0010
0001
0000
0000
0010
0000
0001
1000
0000
0000
0010
0001
0100
0010
0001
1000
,
0100
0000
0010
0000
0001
0100
1000
0000
0000
0000
0001
0000
1000
0000
0010
0100
,
0001
1000
0100
0001
0010
1000
0100
0001
0000
0000
0010
0001
0010
0001
0010
0100
,
1000
0100
0000
0010
1000
0000
0001
0000
1000
0000
0100
0000
0010
0100
0001
1000
,
0100
0001
0000
1000
0000
0010
0000
1000
0100
0000
0001
0000
1000
0000
0010
0000
,
0100
0001
0000
0000
1000
0000
0010
0100
0001
0000
1000
0000
0000
0000
0001
0000
,
1000
0000
0000
0000
0010
0001
0010
0000
0000
0000
1000
0000
0010
0000
0100
0000
,
0001
0000
0010
0001
0000
1000
0010
0100
,
0001
0000
1000
0000
0010
0000
0001
0100
0010
0000
1000
0001
0100
0010
1000
0001
,
0000
0100
0010
0000
1000
0000
0010
0100
1000
0100
0001
0010
1000
0001
0010
0100
,
0001
1000
0010
0100
0010
0001
1000
0010
0100
0000
0010
1000
0001
0000
0100
0000
,
0001
1000
0000
0000
0010
0000
0100
0001
0000
0000
1000
0000
0010
0001
0100
0000
,
1000
0000
0000
0000
0001
0000
0100
0010
0000
0000
1000
0000
0001
0100
0010
1000
,
0000
0001
0000
0000
0100
0010
1000
0001
0000
0000
0100
0000
0000
0000
0001
0000
,
1000
0100
0010
0000
0100
0000
1000
0001
0010
0000
0100
0000
0000
0000
0001
0000
,
0000
0010
0000
0000
1000
0000
0000
0000
0000
0000
1000
0000
0000
0000
0010
0000
,
0001
0000
1000
0000
0001
0100
0010
1000
,
0001
0010
0001
0000
1000
0000
0010
0000
0100
0000
0001
0000
1000
0000
0010
0000
,
0000
0000
0100
0000
0001
1000
0010
0100
1000
0000
0001
0000
0100
0000
0010
0000
,
0000
0001
0000
0000
1000
0000
0010
0000
0000
0000
0100
0000
0001
0000
1000
0000
,
0010
1000
0010
0000
0100
0000
0001
0000
1000
0000
0010
0000
0001
0010
0001
0000
,
1000
0000
0010
0000
0100
1000
0100
0000
0010
0000
0100
0000
0001
0000
1000
0000
,
0000
0000
0100
0000
0001
1000
0100
0000
0001
0000
0010
0000
1000
0100
0001
0000
,
1000
0000
0000
0010
0100
0001
1000
0100
0010
0001
0010
0100
0001
0000
1000
0000
,
0001
0000
0010
0001
0000
1000
0010
0100
,
0000
0001
1000
0010
0000
0001
0010
0100
,
0000
0010
0000
0000
0001
0000
1000
0000
0000
0000
0010
0000
0100
0000
0001
0000
,
0000
1000
0010
0000
0001
0000
1000
0000
0000
0000
0010
0000
0100
0000
0001
0000
,
0100
0000
1000
0000
0010
0100
0001
1000
,
0000
0010
0100
0001
0000
0010
1000
0001
,
0000
0000
0000
1000
0010
0000
0100
0000
0001
0100
0010
1000
0010
1000
0001
0100
,
0010
1000
0010
0100
0001
0010
0001
0100
2000
0000
0000
0000
0000
0000
0000
0000
,
0000
0000
0000
0000
,
0000
0000
0000
3000
0000
0000
0000
0000
;
