#TITLE:ska a go go (RGR-Special);
#ARTIST:THE BALD HEADS;
#GENRE:SKA;
#MUSIC:ska a go go (RGR-Special).ogg;
#BANNER:ska a go go (RGR-Special).png;
#BACKGROUND:ska a go go (RGR-Special)-bg.png;
#CDTITLE:./CDTitles/DDR CLUB VERSION.png;
#SAMPLESTART:44.049;
#SAMPLELENGTH:15;
#SELECTABLE:YES;
#OFFSET:-0.120;
#BPMS:0.000=160.600
,4.000=160.000
,20.000=160.300
,48.000=160.000
,84.000=160.300
,100.000=143.750
,112.000=160.000
,148.000=160.300
,160.000=160.000
,180.000=160.300
,192.000=160.479
,196.000=160.600;
#DISPLAYBPM:144:160;
#BGSTAGE:29;

//--------------- dance-single - XLev450X ----------------
#NOTES:
     dance-single:
     XLev450X:
     Challenge:
     16:
     0,0,0,0,0:
0000
0000
0000
0000
,
0000
0000
0000
0000
,
0000
0000
0000
0000
,
0000
0000
0000
0000
,
0000
0000
0000
0000
,
0001
1000
0010
0100
0001
0000
1000
0000
,
0010
0100
0001
1000
0010
0100
0001
1000
,
0010
0000
0100
1000
0100
0000
0010
0001
,
1000
0010
0100
0001
1000
0010
0100
0000
,
0001
0000
1000
0000
0010
0001
0100
1000
,
0010
0100
0001
1000
1010
0000
0101
0000
,
0010
1000
0001
0100
0010
1000
0001
0100
,
1000
0000
0000
0100
0000
0000
0001
0000
0100
0000
0000
1000
0000
0000
0100
0000
,
0001
1000
0010
0100
0001
1000
0010
0100
,
0001
1000
0010
0001
0100
0001
1000
0010
1000
0200
0000
0000
0300
0000
0000
0000
,
0001
1000
0010
0100
0001
1000
0010
0100
,
0010
0001
1000
0010
0001
0100
0001
1000
0100
0010
0200
0000
0000
0300
0000
0000
,
0001
1000
0010
0100
0001
1000
0010
0100
,
0001
0010
1000
0010
0100
0001
1000
0010
0100
1000
0002
0000
0000
0003
0000
0000
,
1000
0010
0100
0001
1000
0010
0100
0001
,
1000
0010
0100
0001
1000
0100
0010
0100
1000
0001
0200
0000
0000
0300
0000
0000
,
0001
1000
0010
0100
0001
0010
1000
0000
,
0010
0100
0001
0010
1000
0010
0100
0000
,
0001
1000
0010
0100
0001
1000
0010
0100
,
0001
1000
0010
0100
1001
0000
0110
0000
,
0010
0100
0010
1000
0100
1000
0010
1000
0100
0010
0001
0010
0001
0100
0010
1000
,
0010
1000
0100
0010
0001
1000
0100
0010
0001
0010
0001
0100
0010
0100
0010
1000
,
0100
1000
0100
1000
0010
0100
0010
0100
0001
1000
0100
0010
0001
0100
0001
0100
,
0011
0000
1100
0000
0110
0000
0011
0000
1001
0000
0110
0000
,
1000
0000
0001
0000
1000
0010
0001
0000
,
0100
0001
0010
1000
0100
0001
0010
0100
,
1000
0001
1000
0100
0001
0000
0010
0000
,
0001
1000
0000
0100
0001
0010
0100
0000
,
1000
0100
0001
1000
,
0000
0010
0000
0100
0001
0010
1000
0100
,
2002
3003
0220
0330
,
2020
3030
0202
0303
2020
3030
0202
0303
,
0010
1000
0001
0100
0001
1000
0100
0001
,
0100
0010
0001
1000
0001
1000
0100
0010
,
0100
0001
0010
0100
0010
1000
0100
0001
,
0100
0010
0000
0000
0001
0100
0000
0000
,
1000
0001
0010
0100
0010
1000
0001
0100
,
0010
0001
1000
0010
0100
0001
0010
1000
,
0010
0100
0001
1000
0010
0100
0001
0100
,
1000
0010
0100
0000
0001
0010
0100
0000
,
0100
1000
0001
0010
0001
0010
0001
0100
0010
0100
0001
1000
0010
1000
0001
1000
,
0100
0010
0100
1000
0100
0010
0001
0010
0001
1000
0010
0100
0001
0010
0001
1000
,
0010
0100
0001
0100
0001
0100
0010
1000
0010
1000
0100
1000
0001
0010
0100
1000
,
0020
0000
0000
0030
2002
0000
0000
3003
,
0010
1000
0001
0010
0001
0010
0001
1000
0100
0010
0001
0010
0001
0010
0100
1000
,
0010
0100
0001
0010
0100
0010
0001
0010
0100
1000
0100
0010
0100
0010
0001
1000
,
0010
1000
0001
0100
0001
1000
0010
0100
0010
0100
0010
1000
0001
0010
0001
0100
,
0010
0000
0000
0000
;
