#TITLE:reunion;
#ARTIST:Tatsh;
#GENRE:CYBER WALTZ;
#MUSIC:reunion.ogg;
#BANNER:reunion.png;
#BACKGROUND:reunion-bg.png;
#CDTITLE:./CDTitles/bm IIDX 18 Resort Anthem.png;
#SAMPLESTART:2.636;
#SAMPLELENGTH:15;
#OFFSET:-0.191;
#BPMS:0=184;
#BGSTAGE:3;

//--------------- dance-single - XLev450X-bSP ----------------
#NOTES:
     dance-single:
     XLev450X:
     Beginner:
     4:
     0,0,0,0,0:
0000
0000
0000
0000
,
0000
0000
0000
0000
,
0000
0000
0000
0000
,
0000
0000
0000
0000
,
0000
0000
0000
0000
,
0000
0000
0000
0000
,
0000
0000
0000
0000
,
0000
0000
0000
0000
,
0000
0000
0000
0000
,
0000
0000
0000
0000
0000
0000
0000
0001
,
0000
0001
0000
0001
0000
0000
0000
1000
,
0000
1000
0000
1000
0000
0000
0000
0010
,
0000
1000
0000
0010
0000
0000
0000
0001
,
0000
0100
0000
0001
0000
0000
0000
1000
,
0000
1000
0000
1000
0000
0000
0000
0010
,
0000
0100
0000
0010
0000
0000
0000
0001
,
0000
0001
0000
0001
0000
0000
0000
0010
,
0000
0001
0000
0010
0000
0000
0000
1000
,
0000
0000
0000
0001
0000
0000
0000
0010
,
0000
0000
0000
1000
0000
0000
0000
0100
,
0000
0000
0000
0010
0000
0000
0000
0001
,
0000
0100
0000
0001
0000
0000
0000
1000
,
0000
0000
0000
0010
0000
0000
0000
1000
,
0000
0000
0000
0100
0000
0000
0000
0010
,
0000
0000
0000
0001
0000
0000
0000
1001
,
0000
0000
0000
0000
0000
0000
0000
0010
,
0000
1000
0000
0010
0000
0000
0000
0100
,
0000
0001
0000
0100
0000
0000
0000
0010
,
0000
0100
0000
0010
0000
0000
0000
1000
,
0000
0001
0000
1000
0000
0000
0000
1000
,
0000
0100
0000
1000
0000
0000
0000
0001
,
0000
0010
0000
0001
0000
0000
0000
0100
,
0000
0000
0000
0010
0000
0000
0000
0100
,
0000
0000
0000
0000
0000
0000
0000
0001
,
0000
0000
0000
0010
0000
0000
0000
0001
,
0000
0000
0000
1000
0000
0000
0000
0100
,
0000
0000
0000
1000
0000
0000
0000
0010
,
0000
0000
0000
0100
0000
0000
0000
0001
,
0000
0000
0000
0000
0000
0000
0000
1000
,
0000
0000
0000
0000
0000
0000
0000
0001
,
0000
0000
0000
0000
0000
0000
0000
1000
,
0000
0000
0000
0000
0000
0000
0000
0010
,
0000
0000
0000
0000
0000
0000
0000
0100
,
0000
0000
0000
0000
0000
0000
0000
0010
,
0000
0000
0000
0000
0000
0000
0000
1000
,
0000
0000
0000
0000
0000
0000
0000
0001
,
0000
0000
0000
1000
0000
0000
0000
0001
,
0000
0000
0000
0000
0000
0000
0000
1000
,
0000
0000
0000
0100
0000
0000
0000
1000
,
0000
0000
0000
0000
0000
0000
0000
0010
,
0000
0000
0000
0100
0000
0000
0000
0010
,
0000
0000
0000
0000
0000
0000
0000
0001
,
0000
0000
0000
0010
0000
0000
0000
0001
,
0000
0000
0000
0000
0000
0000
0000
1000
,
0000
0000
0000
0000
0000
0000
0000
1000
,
0000
0000
0000
0000
0000
0000
0000
1000
,
0000
0000
0000
0000
,
0000
0000
0000
0000
0000
0000
0000
0001
,
0000
0000
0000
0000
0000
0000
0000
0001
,
0000
0000
0000
0000
0000
0000
0000
0001
,
0000
0000
0000
0000
,
0000
0000
0000
0000
0000
0000
0000
0010
,
0000
0100
0000
0010
0000
0000
0000
0000
,
0000
0000
0000
0000
0000
0000
0000
1000
,
0000
0100
0000
1000
0000
0000
0000
0000
,
0000
0000
0000
0000
0000
0000
0000
0001
,
0000
0010
0000
0001
0000
0000
0000
0000
,
0000
0000
0000
0000
0000
0000
0000
0100
,
0000
0010
0000
0100
0000
0000
0000
0000
,
0000
0000
0000
0000
0000
0000
0000
0001
,
0000
1000
0000
0001
0000
0000
0000
0000
,
0000
0000
0000
1000
0000
0010
0000
1000
,
0000
0000
0000
0000
0000
0000
0000
0100
,
0000
0001
0000
0100
0000
0000
0000
0000
,
0000
0000
0000
0010
0000
0100
0000
0010
,
0000
0000
0000
0000
0000
0000
0000
0001
,
0000
0000
0000
1000
0000
0000
0000
0001
,
0000
0000
0000
1000
0000
0000
0000
0010
,
0000
0000
0000
1000
0000
0000
0000
0100
,
0000
0000
0000
0001
0000
0000
0000
0010
,
0000
0000
0000
0100
0000
0000
0000
1000
,
0000
0000
0000
0001
0000
0000
0000
1000
,
0000
0000
0000
0001
0000
0000
0000
0001
,
0000
0000
0000
0001
0000
0000
0000
0000
,
0000
0000
0000
0000
0000
1000
0000
0000
,
0000
1000
0000
0000
0000
1000
0000
0000
,
0000
0000
0000
1001
0000
0000
0000
0000
;

//--------------- dance-single - XLev450X-BSP ----------------
#NOTES:
     dance-single:
     XLev450X:
     Easy:
     7:
     0,0,0,0,0:
0000
0000
0000
0000
,
0000
0000
0000
0000
,
0000
0000
0000
0000
,
0000
0000
0000
0000
,
0000
0000
0000
0000
,
0000
0000
0000
0000
,
0000
0000
0000
0000
,
0000
0000
0000
0000
,
0000
0000
0000
0000
,
0000
0000
0000
0000
0000
0000
0000
0001
,
0000
0000
0000
1000
0000
0010
0000
1000
,
0000
0000
0000
0100
0000
0001
0000
0100
,
0000
0000
0000
0010
0000
1000
0000
0010
,
0000
0000
0000
0001
0000
0010
0000
0001
,
0000
0000
0000
1000
0000
0100
0000
1000
,
0000
0000
0000
0010
0000
1000
0000
0010
,
0000
0000
0000
0100
0000
0010
0000
0100
,
0000
0001
0000
1000
0000
0000
0000
0001
,
0000
1000
0000
0001
0000
0000
0000
1000
,
0000
0100
0000
1000
0000
0000
0000
0010
,
0000
1000
0000
0010
0000
0000
0000
0100
,
0000
0010
0000
0100
0000
0000
0000
0001
,
0000
0010
0000
0001
0000
0000
0000
1000
,
0000
0001
0000
1000
0000
0000
0000
0010
,
0000
1000
0000
0010
0000
0100
0000
2002
,
0000
0000
0000
0000
0000
0000
3003
0001
,
0000
1000
0000
0001
0000
0010
0000
0010
,
0000
1000
0000
0010
0000
0100
0000
0100
,
0000
0010
0000
0100
0000
0001
0000
0001
,
0000
1000
0000
0010
0000
1000
0000
1000
,
0000
0100
0000
0010
0000
0001
0000
0010
,
0000
0100
0000
1000
0000
0000
0000
0001
,
0000
1000
0000
0010
0000
1000
0000
0100
,
0000
0010
0000
0001
0000
0010
0000
0100
,
0000
1000
0000
0001
0000
0000
0000
0010
,
0000
1000
0000
0100
0000
0010
0000
0100
,
0000
0001
0000
0010
0000
0100
0000
1000
,
0000
0001
0000
1000
0000
0000
0000
0001
,
0000
0000
0000
1000
0000
0000
0000
0010
,
0000
1000
0000
0010
0000
0000
0000
0001
,
0000
0010
0000
0100
0000
0000
0000
1000
,
0000
0001
0000
1000
0000
0010
0000
1000
,
0000
0010
0000
0100
0000
0000
0000
0001
,
0000
0010
0000
0100
0000
0001
0100
0001
,
0000
1000
0000
0001
0000
1000
0000
0010
,
0000
0000
0000
1000
0000
0010
0000
1000
,
0000
0100
0000
0001
0000
0010
0100
0010
,
0000
0010
1000
0010
0000
0010
0100
0010
,
0000
0001
0000
0010
0000
0100
0000
1000
,
0000
0001
0000
1000
0000
0000
0000
0001
,
0000
1000
0000
0010
0000
0100
0010
0100
,
0000
0001
0000
0010
0000
0100
0000
1000
,
0000
0001
0000
0010
0000
0100
0000
2002
,
0000
0000
0000
0000
0000
0000
3003
0001
,
0000
1000
0000
0010
0000
1000
0000
0100
,
0000
0010
0000
0001
0000
0000
0000
0100
,
0000
1000
0000
0001
0000
1000
0000
0010
,
0000
0100
0000
0010
0000
0000
0000
1000
,
0000
1000
0000
0100
0000
0010
0000
0001
,
0000
0010
0000
0100
0000
0000
0000
1000
,
0000
0001
0000
1000
0000
0001
0000
1000
,
0000
0010
0000
0100
0000
0000
0000
1000
,
0000
1000
0000
0100
0000
0000
0000
0010
,
0000
0010
0000
0001
0000
0000
0000
0010
,
0000
1000
0000
0001
0000
0000
0000
0100
,
0000
0010
0000
0100
0000
0000
0000
0010
,
0000
1000
0000
0010
0000
0000
0000
0010
,
0000
0100
0000
0010
0000
0000
0000
0001
,
0000
0010
0000
0001
0000
1000
0000
0001
,
0000
0000
0000
0000
0000
0000
0000
1000
,
0000
0001
0000
1000
0000
0010
0000
1000
,
0000
0100
0000
0100
0000
0010
0000
0001
,
0000
0100
0000
1000
0000
0000
0000
0001
,
0000
0001
0000
1000
0000
0100
0000
0010
,
0000
0100
0000
1000
0000
0001
0000
0010
,
0000
1000
0000
0010
0000
0000
0000
0100
,
0000
1000
0000
0010
0000
0100
0000
0010
,
0000
0001
0000
0010
0000
0100
0000
1000
,
0000
0001
0000
1000
0000
0000
0000
0001
,
0000
1000
0000
0010
0000
1000
0000
0100
,
0000
0010
0000
0001
0000
0010
0000
0100
,
0000
1000
0000
0001
0000
0000
0000
1001
,
0000
0000
0000
0001
0000
0000
0000
1000
,
0000
0000
0000
0001
0000
0000
0000
1000
,
0000
0000
0000
0010
0000
0000
0000
0100
,
0000
0000
0000
0010
0000
0000
0000
1000
,
0000
0000
0000
0001
0000
0000
0000
0000
,
0001
0000
0000
0101
0000
0000
0000
0000
,
1000
0000
0000
0001
2002
0000
0000
0000
,
0000
0000
0000
0000
,
0000
0000
0000
3003
0000
0000
0000
0000
;

//--------------- dance-single - XLev450X-DSP ----------------
#NOTES:
     dance-single:
     XLev450X:
     Medium:
     11:
     0,0,0,0,0:
0000
0000
0000
0000
,
0000
0000
0000
0000
,
0000
0000
0000
0000
,
0000
0000
0000
0000
,
0000
0000
0000
0000
,
0000
0000
0000
0000
,
0000
0000
0000
0000
,
0000
0000
0000
0000
,
0000
0000
0000
0000
,
0000
0000
0000
0000
0000
0000
0000
0001
,
0000
1000
0000
0010
1000
0010
0000
0010
,
0001
0010
0000
0100
1000
0100
0000
0001
,
0000
1000
0000
0010
1000
0010
0000
0100
,
0001
0100
0000
0001
0000
1000
0000
0001
,
1000
0001
0000
0010
1000
0010
0000
0100
,
0001
0100
0000
0010
0100
0010
0000
1000
,
0000
0001
0000
0100
1000
0100
0000
0001
,
0000
0010
0000
1000
0010
1000
0000
0001
,
0000
0100
0000
1000
0000
0010
1000
0010
,
0000
0100
0000
0001
0000
0100
1000
0000
,
0000
0001
0000
1000
0000
0010
1000
0010
,
0000
0001
0000
0010
0000
0100
0001
0000
,
0000
1000
0000
0010
0000
1000
0100
0010
,
0000
0001
0000
0010
0000
1000
0001
0000
,
0000
0010
0000
1000
0000
0001
0000
0220
,
0000
0000
0000
0000
0000
0000
0330
0001
,
0000
1000
0000
0010
0000
0100
0000
0001
,
0000
0010
0000
0100
0000
1000
0000
0010
,
0000
1000
0010
1000
0000
0010
0000
0001
,
0000
0100
0000
1000
0000
0001
0000
0100
,
0000
1000
0000
0010
0000
1000
0000
0001
,
0000
0100
0001
0100
0000
0001
0000
1000
,
0000
0010
0000
1000
0000
0100
0000
0001
,
0000
0010
0000
1000
0000
0100
0000
1000
,
0000
0010
0000
1000
0000
0010
1000
0010
,
0000
0100
0000
0001
0000
0010
0000
0100
,
0000
1000
0000
0001
0000
0010
0000
0100
,
0000
1000
0001
1000
0000
0001
0000
0010
,
0000
1000
0000
0010
0000
0100
0010
0100
,
0000
0001
0000
0010
0000
0001
0010
0001
,
0000
1000
0000
0001
0000
1000
0001
1000
,
0000
0001
0000
1000
0000
0000
0000
0010
,
0000
1000
0000
0100
0000
0010
0000
0100
,
0000
1000
0000
0001
0000
1000
0001
1000
,
0000
0010
0000
1000
0000
0010
0000
0100
,
0000
0000
0000
0001
0000
0000
0000
0100
,
0000
1000
0000
0100
0000
1000
0000
0010
,
0000
1000
0000
0100
0000
0000
0000
0010
,
0000
1000
0000
0010
0000
0000
0000
0001
,
0000
0010
0000
0100
0000
1000
0000
0001
,
0000
0100
0000
0010
0000
0000
0000
1000
,
0000
0010
0000
1000
0000
0000
0000
0001
,
0000
1000
0000
0001
0000
1000
0000
0020
,
0000
0000
0000
0000
0000
0000
0000
0000
0100
0000
0000
0100
0000
0000
0130
0000
,
0000
0001
0000
1000
0000
0010
0000
1000
,
0000
0100
0000
0001
0000
0010
0001
0010
,
0000
0100
0000
1000
0000
0001
0000
1000
,
0000
0010
0000
0100
0000
0000
0000
1000
,
0000
0001
0000
1000
0000
0010
1000
0010
,
0000
0010
0100
0010
0000
0001
0010
0001
,
0000
1000
0000
0001
0000
1000
0000
0010
,
1000
0010
0000
0001
0010
0100
1000
0001
,
0000
0010
0000
1000
0000
0100
0000
1000
,
0000
0010
0000
1000
0000
0001
0010
1000
,
0000
0001
0000
0010
0000
1000
0000
1010
,
0000
0101
0000
1001
0000
0010
0000
1000
,
0000
0100
0000
1000
0000
0001
0100
0010
,
0000
1000
0000
0001
0000
0010
1000
0010
,
0000
0100
0001
0010
0000
0100
1000
0001
,
1000
0010
1000
0010
0100
0001
1000
0010
,
0000
0001
0000
1000
0000
0010
0000
1000
,
0000
0100
0000
0010
0000
0001
0000
0100
,
0000
1000
0000
0001
0000
1000
0000
0010
,
0000
1000
0000
0010
0000
1000
0010
1000
,
0000
0010
0000
0001
0000
0100
0000
1000
,
0000
0001
1000
0001
0000
1000
0000
0001
,
0000
1000
0000
0010
0000
1000
0010
1000
,
0000
0010
0000
0100
0000
0001
0000
0010
,
0000
0001
0100
0001
0000
0010
1000
0010
,
0000
0100
0000
1000
0000
0001
1000
0001
,
0000
0010
0000
1000
0000
0100
0000
1000
,
0000
0001
1000
0010
0000
1000
0000
0110
,
0000
0000
0000
0001
0000
0000
1000
0000
,
0000
0010
0000
0000
0100
0000
0000
0001
,
0000
1000
0000
0100
0000
0000
0001
0000
,
0000
1000
0000
0000
0100
0000
0000
0010
,
0000
0001
0000
1000
0000
0000
0000
0000
,
0110
0000
0000
1010
0000
0000
0000
0000
,
1100
0000
0000
1000
2002
0000
0000
0000
,
0000
0000
0000
0000
,
0000
0000
0000
3003
0000
0000
0000
0000
;

//--------------- dance-single - XLev450X-ESP ----------------
#NOTES:
     dance-single:
     XLev450X:
     Hard:
     15:
     0,0,0,0,0:
0000
0000
0000
0000
,
0000
0000
0000
0000
,
0000
0000
0000
0000
,
0000
0000
0000
0000
,
0000
0000
0000
0000
,
0000
0000
0000
0000
,
0000
0000
0000
0000
,
0000
0000
0000
0000
,
0000
0000
0000
0000
,
0000
0000
0000
0000
0000
0000
0000
0010
,
1000
0010
0100
0001
0010
0100
1000
0000
,
0001
0000
1000
0010
1000
0100
1000
0001
,
1000
0001
1000
0010
1000
0010
0100
0000
,
1001
0000
0010
1000
0010
1000
0000
0010
,
0100
1000
0100
0001
0010
0100
1000
0000
,
0101
0000
0010
1000
0010
1000
0000
0010
,
1000
0100
0010
0001
0010
0100
1000
0000
,
0001
0000
1000
0010
1000
0010
0000
0010
,
0001
0010
0100
1000
0010
1000
0001
0100
,
1000
0001
1000
0010
1000
0010
0100
1000
,
0001
1000
0010
1000
0010
0100
0010
0001
,
0010
0100
1000
0001
1000
0010
1000
0001
,
0100
1000
0001
1000
0010
1000
0010
0100
,
0010
0100
0010
0001
0010
0001
0100
1000
,
0001
0000
1000
0000
0001
0000
1000
0000
0010
0000
1000
0000
0010
0000
0001
0010
,
0100
1000
0001
0010
0100
1000
0001
0010
0100
1000
0001
0010
0100
1000
0001
0000
,
1000
0010
1000
0010
0000
0001
0010
0001
,
0010
0001
0000
1000
0001
1000
0001
1000
,
0000
0010
1000
0010
1000
0010
0000
0001
,
0100
1000
0001
1000
0000
0010
1000
0010
,
0100
0010
0000
0001
0010
0001
0010
0001
,
0000
1000
0001
1000
0010
1000
0000
0001
,
0000
1000
0000
0010
0000
1000
0010
1000
,
0010
0100
1000
0001
1000
0010
1000
0001
,
0010
1000
0001
1000
0010
1000
0000
0001
,
0000
0100
0000
1000
0000
0001
1000
0010
,
1000
0010
1000
0010
0000
0001
0100
0001
,
0100
0001
1000
0010
1000
0001
0010
1000
,
0000
0001
0000
1000
0000
0010
1000
0010
,
0000
0010
0100
0010
0000
0001
0010
0001
,
0000
0100
1000
0100
0000
0001
1000
0001
,
0000
0010
1000
0010
0000
0010
0100
0010
,
1000
0001
1000
0001
0000
0001
1000
0001
,
0000
0010
1000
0010
0000
0001
0100
0001
,
0000
0100
1000
0100
0000
0001
0010
0100
,
1000
0001
0010
1000
0001
1000
0010
1000
,
0000
0001
0000
1000
0000
0010
1000
0010
,
0000
0100
0000
1000
0000
0010
1000
0010
,
0000
0001
0000
0100
0000
0001
1000
0001
,
1000
0010
1000
0010
1000
0010
1000
0001
,
0000
0001
0000
0100
1000
0001
0000
1000
,
0010
1000
0000
0010
0100
0010
0000
0001
,
0010
0100
1000
0001
1000
0010
1000
0020
,
0000
0000
0000
0000
0000
0000
0000
0000
0100
0000
0000
0100
0000
0000
0130
0000
,
0001
1000
0010
1000
0000
0010
0100
1000
,
0000
0001
0010
0001
0000
1000
0001
1000
,
0010
1000
0010
0100
0001
0100
0010
1000
,
0001
1000
0010
1000
0001
1000
0010
1000
,
0000
0001
0010
0001
0000
0100
1000
0100
,
0000
0001
0010
1000
0010
0100
0001
0010
,
0000
0100
1000
0100
0000
0010
0100
0010
,
0000
0001
0010
0100
1000
0001
0010
1000
,
0000
0001
1000
0010
0000
0001
1000
0010
,
0000
0010
1000
0010
0100
0001
0010
0100
,
0000
0010
1000
0010
0000
0010
0100
0010
,
0000
0001
0010
0001
0100
1000
0001
1000
,
0000
0001
1000
0001
0000
0010
1000
0010
,
0000
0010
1000
0100
0010
0100
0001
0010
,
0000
0000
0001
0000
1000
0000
0001
0000
1000
0000
0010
0000
1000
0000
1000
0100
,
0010
0001
1000
0100
0010
0001
1000
0100
0010
0001
1000
0100
0010
0001
1000
0000
,
0010
1000
0010
0100
0001
0010
0100
1000
,
0001
1000
0010
1000
0010
1000
0001
0100
,
0010
1000
0001
1000
0010
1000
0001
1000
,
0010
1000
0010
0100
0001
0010
0100
0010
,
1000
0001
1000
0010
1000
0001
0010
1000
,
0001
0010
1000
0001
0000
0001
0000
1000
,
0010
1000
0000
0010
0100
0010
0000
0001
,
0010
0100
0001
1000
0001
1000
0010
1000
,
0000
0010
1000
0010
0000
0010
0000
0001
,
0100
1000
0000
0001
1000
0010
0000
0010
,
1000
0010
0000
0010
0100
0001
0000
0001
,
0100
1000
0001
1000
0010
1000
0001
1000
,
0000
0000
0000
0101
0100
0010
1010
1000
,
0100
0110
0010
0001
0101
0010
1000
1100
,
0110
0011
1001
1010
0010
0100
0101
0001
,
0010
0110
0100
1000
1001
1000
0010
0110
,
1010
1100
0110
0011
0000
0000
0000
0000
,
1100
0000
0000
0101
0000
0000
0000
0000
,
0110
0000
0000
1001
2002
0000
0000
0000
,
0000
0000
0000
0000
,
0000
0000
0000
3003
0000
0000
0000
0000
;
