#TITLE:patsenner (RGR-Special);
#SUBTITLE:;
#ARTIST:dj nagureo;
#TITLETRANSLIT:;
#SUBTITLETRANSLIT:;
#ARTISTTRANSLIT:;
#GENRE:AMBIENT TECHNO;
#CREDIT:;
#MUSIC:patsenner (RGR-Special).ogg;
#BANNER:patsenner (RGR-Special).png;
#BACKGROUND:patsenner (RGR-Special)-bg.png;
#CDTITLE:./CDTITLES/BEATMANIA IIDX.PNG;
#SAMPLESTART:13.303;
#SAMPLELENGTH:15.000;
#SELECTABLE:YES;
#OFFSET:0.000;
#BPMS:0.000=108.055;
#STOPS:;
#DISPLAYBPM:108;
#BGCHANGES:;
#FGCHANGES:;

//--------------- dance-single - DJ XLev450X ----------------
#NOTES:
     dance-single:
     DJ XLev450X:
     Challenge:
     15:
     0,0,0,0,0:
0000
0000
0000
0000
,
0000
0000
0000
0000
,
0001
0000
0000
0000
1000
0000
0000
0010
0000
0100
0001
0000
1000
0000
0010
1000
,
0100
0000
0001
0000
0010
0000
0000
1000
0000
0001
0010
0000
0001
1000
0010
0100
,
0001
0000
1000
0000
0010
0000
0000
0100
0000
0001
1000
0000
0010
0000
0100
1000
,
0001
0000
0000
0000
0000
0000
0000
0000
0110
0000
0000
0000
0000
0000
0000
0000
0001
0010
0100
1000
0100
0010
0001
0010
0200
0000
0000
0000
0000
0000
0300
0000
,
0001
0000
1000
0000
0010
0000
0000
0100
0000
0001
0010
0000
1000
0000
0010
0000
,
0100
0000
0001
1000
0010
0000
0000
0100
0000
0001
1000
0000
0010
0100
1000
0010
,
1000
0001
0100
0000
0001
0000
0000
0010
0000
0001
1000
0010
0001
0000
0100
0000
,
0011
1100
1001
0110
,
1000
0000
0001
0000
0100
0000
0000
0010
0000
1000
0001
0000
0100
0000
0010
0000
,
1000
0001
0000
0000
0010
0000
0000
0001
0000
1000
0010
0000
0100
0001
1000
0100
,
0001
0000
1000
0000
0010
0000
0000
0100
0000
0001
1000
0010
0100
0000
0000
0000
,
1001
0110
0101
1010
,
0010
0000
0100
0000
0001
0000
0000
1000
0000
0010
0100
0000
0001
0000
1000
0000
,
0010
0000
0100
0000
0001
0000
0000
0010
0000
0001
1000
0000
0010
0100
0001
1000
,
0100
0001
0000
0000
1000
0000
0000
0010
0000
0100
0001
1000
0001
0000
0000
0000
,
0011
1001
0110
1010
,
0001
0000
1000
0000
0010
0000
0100
0000
0001
0000
0000
1000
0000
0000
0010
0000
,
0100
0000
0001
0000
0010
0000
0001
0000
1000
0000
0000
0001
0000
0000
0100
0000
,
0010
0000
1000
0000
0001
0000
0010
0000
0100
0000
0000
0001
0000
1000
0010
0000
,
0100
0000
0001
0000
1000
0000
0010
0000
0100
0000
0000
0001
0000
1000
0010
0001
,
0100
0000
0001
0000
1000
0000
0010
0000
0100
0000
0001
1000
0000
0010
0100
0000
,
0001
0000
1000
0000
0010
0000
0001
0000
1000
0010
0000
0100
0001
1000
0010
0001
,
1000
0000
0010
0000
0100
0000
0001
0000
1000
0000
0000
0001
0100
0000
0010
0000
,
1000
0000
0000
0000
0001
0000
0000
0000
0010
1000
0001
0000
0100
0000
0000
0000
0001
0010
0100
1000
0100
0010
0001
0010
0100
0000
0000
0000
1000
0000
0000
0000
,
0010
0000
0100
0000
0001
0000
1000
0001
0000
0100
0010
0000
1000
0001
0000
0100
,
0010
0000
1000
0000
0001
0000
0010
0001
0010
0000
1000
0000
0100
0010
1000
0001
,
0100
0000
0010
0000
1000
0000
0010
1000
0000
0001
0100
0000
0010
1000
0000
0001
,
0100
0000
0010
0000
1000
0000
0001
0000
0010
1000
0001
0100
0010
1000
0001
0000
,
0100
0000
0001
0000
1000
0000
0010
0100
0000
0001
1000
0000
0010
0100
0000
0001
,
1000
0000
0010
0000
0100
0000
0010
1000
0000
0001
0100
0000
0010
1000
0001
0100
,
0010
0000
1000
0000
0001
0000
0010
0001
0000
1000
0010
0000
0100
0001
0000
1000
,
0010
0000
0100
0000
0001
0000
1000
0000
0010
0100
0001
1000
0010
0100
0001
1000
,
0010
0000
0100
0000
0001
0000
0000
1000
0000
0010
0100
0000
0001
0000
1000
0000
,
0001
0000
0000
0000
0100
0000
0000
0000
0010
0000
0000
0000
0000
1000
0100
0010
0001
0010
0100
1000
0100
0010
0000
0000
0001
0000
0000
0000
0001
0000
0000
0000
,
1000
0000
0010
0000
0100
0000
0000
0001
0000
1000
0010
0001
0100
0000
0001
0000
,
1000
0000
0000
0000
0001
0000
0000
0000
0100
0000
0000
0000
1000
0100
0010
0001
0010
0100
1000
0100
0010
0000
0001
0000
1000
0000
0000
0000
0000
0000
0000
0000
,
0001
0000
1000
0000
0010
0000
0000
0100
0000
0001
1000
0000
0010
0000
0100
0000
,
0001
0000
0000
0000
1000
0000
0000
0000
0010
0000
0000
0000
0000
1000
0100
0010
0001
0010
0100
1000
0100
0000
0010
0000
0001
0000
0000
0000
1000
0000
0000
0000
,
0010
0000
0100
0000
0001
0000
0000
1000
0000
0010
0100
1000
0001
0000
1000
0000
,
0010
0000
0000
0000
0100
0000
0000
0000
0000
0000
0000
0000
1000
0100
0010
0001
0010
0100
1000
0100
0010
0000
0100
0000
0001
0000
0000
0000
1010
0000
0000
0000
;
