#TITLE:mnemoniq;
#ARTIST:youhei shimizu;
#GENRE:JAZZ HOUSE;
#MUSIC:mnemoniq.ogg;
#BANNER:mnemoniq.png;
#BACKGROUND:mnemoniq-bg.png;
#CDTITLE:./CDTITLES/BEATMANIA.PNG;
#SAMPLESTART:17.697;
#SAMPLELENGTH:15;
#SELECTABLE:YES;
#OFFSET:-0.460;
#BPMS:0.000=111.237;
#DISPLAYBPM:111;

//--------------- dance-single - XLev450X-bSP ----------------
#NOTES:
     dance-single:
     XLev450X:
     Beginner:
     3:
     0,0,0,0,0:
0000
0000
0000
0000
,
0000
0000
0000
0000
,
0000
0000
0000
0000
,
0000
0000
0000
0000
,
2000
0000
0000
0000
0000
0000
0000
3000
,
0020
0000
0000
0000
0000
0000
0000
0030
,
0002
0000
0000
0000
0000
0000
0000
0003
,
2002
0000
0000
0000
0000
0000
0000
3003
,
0010
0010
0010
0000
,
1000
1000
1000
0000
,
0001
0001
0001
0000
,
0100
0100
0100
0000
,
0010
1000
0010
0100
,
0001
1000
0010
0100
,
0001
1000
0010
0100
,
2002
0000
0000
0000
0000
0000
0000
3003
,
0001
1000
0010
0000
,
1000
0010
0100
0000
,
0001
1000
0010
0000
,
0100
0000
0001
0000
,
1000
0001
0010
0000
,
0100
1000
0001
0000
,
1000
0100
0010
0000
,
0001
0000
1000
0000
,
0020
0000
0000
0030
,
0200
0000
0000
0000
0000
0000
0000
0300
,
0002
0000
0000
0000
0000
0000
0000
0003
,
1000
0000
0001
0000
,
0100
0000
0010
0000
,
1000
0000
0001
0000
,
0010
0000
0100
0000
,
0001
1000
0001
0000
,
1000
0010
0100
0000
,
0001
0010
0001
0000
,
1000
0100
1000
0000
,
0220
0000
0000
0000
0000
0000
0000
0330
,
0010
0010
0010
0000
,
1000
1000
1000
0000
,
0001
0001
0001
0000
,
0100
0100
0100
0000
,
0010
1000
0010
0100
,
0001
1000
0010
0100
,
0001
1000
0010
0100
,
2002
0000
0000
0000
0000
0000
0000
3003
,
0220
0000
0000
0000
0000
0000
0000
0330
,
2020
0000
0000
0000
0000
0000
0000
3030
,
0202
0000
0303
0000
;

//--------------- dance-single - XLev450X-BSP ----------------
#NOTES:
     dance-single:
     XLev450X:
     Easy:
     6:
     0,0,0,0,0:
0000
0000
0000
0000
,
0000
0000
0000
0000
,
0000
0000
0000
0000
,
0000
0000
0000
0000
,
1000
0000
0010
0000
0200
0000
0000
0300
,
0001
0000
0100
0000
0020
0000
0000
0030
,
1000
0001
2000
3000
,
2002
0000
0000
0000
0000
0000
0000
3003
,
0010
0000
1000
0000
0001
1000
0100
0000
,
0010
0000
1000
0000
0001
1000
0010
0000
,
0100
0000
1000
0000
0001
0100
1000
0000
,
0100
0000
0010
0000
0001
1000
0100
0000
,
0001
1000
0010
0000
,
0001
1000
0010
0000
,
1000
0001
0100
0010
,
2020
0000
0000
3030
0202
0000
0000
0303
,
1000
0001
0010
0100
,
0001
1000
0010
0000
,
0100
0001
1000
0010
,
0100
1000
0001
0000
,
1000
0001
0010
1000
,
0100
0010
1000
0000
,
1000
0001
0010
0100
,
0010
0000
1000
0000
,
0002
0000
0003
0200
0000
0000
0000
0300
,
0020
0000
0030
2000
0000
0000
0000
3000
,
0001
0100
0010
0000
,
1000
0001
0100
0010
,
1000
0001
0010
0000
,
0001
1000
0010
0100
,
0001
1000
0001
0000
,
0010
1000
0010
0100
,
0001
1000
0010
0000
,
1000
0001
0010
0100
,
0001
0000
1000
0000
0001
1000
0010
0100
,
2002
0000
0000
0000
0000
0000
0000
3003
,
0010
0000
1000
0000
0001
1000
0100
0000
,
0010
0000
1000
0000
0001
1000
0010
0000
,
0100
0000
1000
0000
0001
0100
1000
0000
,
0100
0000
0010
0000
0001
1000
0100
0000
,
0001
1000
0010
0000
,
0001
1000
0010
0000
,
1000
0001
0100
0010
,
2020
0000
0000
3030
0202
0000
0000
0303
,
0220
0000
0000
0330
1000
0000
0001
0000
,
0200
0000
0000
0300
2002
0000
0000
3003
,
0202
0000
0303
0000
;

//--------------- dance-single - XLev450X-DSP ----------------
#NOTES:
     dance-single:
     XLev450X:
     Medium:
     9:
     0,0,0,0,0:
0000
0000
0000
0000
,
0000
0000
0000
0000
,
0000
0000
0000
0000
,
0000
0000
0000
0000
,
1000
0000
0001
0000
0000
0100
0000
0000
0010
0000
0000
0100
0000
0000
0001
0000
,
1000
0000
0010
0000
0000
0100
0000
0000
1000
0000
0000
0001
0000
0000
0100
0000
,
0010
0000
0001
0000
0000
1000
0000
0000
0010
0000
0000
0100
0000
0000
0001
0000
,
1000
0000
0000
0000
0010
0000
0000
0000
0100
0000
0001
0000
2000
0000
0000
3000
,
0010
0000
0000
1000
0000
0000
0001
0000
0000
0010
0000
0000
0100
0000
0001
0000
,
1000
0000
0000
0010
0000
0000
0100
0000
0000
0001
0000
0000
1000
0000
0010
0000
,
0100
0000
0000
0001
0000
0000
1000
0000
0000
0010
0000
0000
1000
0000
0001
0000
,
0100
0010
1000
0001
,
0010
0001
0010
0000
1000
0010
0100
0000
,
0001
0100
0010
0000
1000
0010
0100
0000
,
0001
0010
0001
0000
1000
0010
0100
0001
,
2002
0000
0000
0000
0000
0000
0000
3003
,
0010
0000
0100
0000
0001
1000
0010
0000
,
0100
0000
0001
0000
0100
0001
1000
0010
,
0100
0000
1000
0000
0010
1000
0001
0000
,
0100
0000
0010
0000
0001
1000
0010
0100
,
0001
0000
1000
0000
0010
1000
0001
0100
,
0010
0000
0001
0000
0010
1000
0001
0100
,
0010
0000
1000
0000
0001
1000
0010
0100
,
0001
1000
0001
0100
,
0010
0000
0000
0001
0000
0000
2000
0000
0000
0000
0000
0000
3000
0000
0001
0000
,
0100
0000
0000
0001
0000
0000
0020
0000
0000
0000
0030
0000
0010
0000
0000
0000
,
1000
0000
0001
0000
0100
0010
1000
0000
,
0001
0000
1000
0000
0010
0100
0001
0000
,
0010
0000
1000
0000
0010
0001
0100
0010
,
1000
0000
0010
0000
0100
0001
1000
0000
,
0010
0000
0100
0000
0001
0010
1000
0000
,
0010
0000
0000
0000
0100
0000
0001
0000
0000
1000
0000
0000
0010
0000
0100
0000
,
0001
0000
0000
1000
0000
0000
0010
0000
0000
0100
0000
0000
0001
0000
0010
0000
,
0001
0000
0000
1000
0000
0000
0010
0000
0000
0100
0000
0000
1000
0000
0001
0000
,
0100
0000
0010
0000
1000
0001
0100
1000
,
0010
0000
0000
0001
0000
0000
0010
0000
0000
0000
0000
0000
0100
0000
0000
1000
0000
0000
0100
0000
0000
0000
0000
0000
0001
0000
0000
0000
1000
0000
0000
0000
0010
0000
0000
0000
0100
0000
0000
0000
0001
0000
0000
0000
1000
0000
0000
0000
,
0010
0000
0000
1000
0000
0000
0001
0000
0000
0010
0000
0000
0100
0000
0001
0000
,
1000
0000
0000
0010
0000
0000
0100
0000
0000
0001
0000
0000
1000
0000
0010
0000
,
0100
0000
0000
0001
0000
0000
1000
0000
0000
0010
0000
0000
1000
0000
0001
0000
,
0100
0010
1000
0001
,
0010
0001
0010
0000
1000
0010
0100
0000
,
0001
0100
0010
0000
1000
0010
0100
0000
,
0001
0010
0001
0000
1000
0010
0100
0001
,
2002
0000
0000
0000
0000
0000
0000
3003
,
1000
0000
0000
0001
0000
0000
0100
0000
0000
0010
0000
0000
1000
0000
0001
0000
,
0100
0000
0000
0000
0000
0000
0000
0000
0000
0010
0000
0000
0000
0000
0000
0000
0000
0000
1000
0000
0000
0000
0000
0000
0001
0000
0000
0000
1000
0000
0000
0000
0010
0000
0000
0000
0100
0000
0000
0000
0001
0000
0000
0000
1000
0000
0000
0000
,
0020
0000
0030
0000
;

//--------------- dance-single - hamsand210-ESP ----------------
#NOTES:
     dance-single:
     hamsand210:
     Hard:
     12:
     0,0,0,0,0:
0000
0000
0000
0000
,
0000
0000
0000
0000
,
0000
0000
0000
0000
,
0000
0000
0000
0000
,
0000
0000
1000
0000
0000
1000
0000
0000
2000
0000
0000
0000
3000
0000
0000
0000
,
0000
0000
0001
0000
0000
0001
0000
0000
0002
0000
0000
0000
0003
0000
0000
0000
,
0000
0000
0100
0000
0000
0100
0000
0000
0200
0000
0000
0000
0300
0000
0000
0000
,
0000
0000
0010
0000
0000
0010
0000
0000
0020
0000
0100
0000
1030
0000
0000
0000
,
1001
0000
0000
0000
1000
0000
0001
0100
0000
0001
0100
0000
0010
0000
1000
0000
,
1001
0000
0000
0000
1000
0000
0001
0100
0000
0001
0100
0000
0010
0000
1000
0000
,
1001
0000
0000
0000
1000
0000
0001
0100
0000
0001
0100
0000
0010
0000
1000
0000
,
1001
0000
0000
0000
1000
0000
0001
0100
0000
0001
0100
0000
0010
0000
1000
0000
,
0100
0000
0000
0000
1100
0000
0000
0000
1000
0000
0001
0000
1000
0001
0100
0001
,
0100
0000
0000
0000
1100
0000
0000
0000
1000
0000
0001
0000
1000
0001
0100
0001
,
0100
0000
0000
0000
1100
0000
0000
0000
1000
0000
0001
0000
1000
0001
0100
0001
,
0100
0000
0010
0000
0100
0001
0100
0010
1000
0100
1000
0010
0100
0001
0100
0010
,
1000
0100
1000
0010
0100
0001
0100
0010
,
1000
0100
1000
0010
0100
0001
0100
0010
,
1000
0010
0100
0010
0100
0010
1000
0010
,
0100
0010
0001
0010
0100
0010
1000
0010
,
0100
0010
1000
0100
0010
0001
0100
0010
,
1000
0100
0010
0100
1000
0010
0100
0010
,
0100
0001
0100
0010
0100
0001
0010
0001
,
0100
0000
0001
0000
0010
0000
0001
0000
1000
0000
0001
0000
1000
0010
0100
0001
,
1000
0000
0000
1100
0000
0000
2002
0000
0000
0000
0000
0000
3003
0000
0000
0000
,
0001
0000
0000
0101
0000
0000
2002
0000
0000
0000
0000
0000
0000
0000
0000
0000
,
0003
0001
0001
3001
,
1000
0010
0100
0001
0100
0010
1000
0100
,
1000
0010
0100
0001
0100
0010
0100
0001
,
0100
0010
0100
1000
0100
0010
0100
0001
,
0100
0010
0100
1000
0100
0010
0100
0001
,
1000
0100
1000
0100
0010
0001
0100
0010
,
1000
0100
0010
0100
1000
0010
0100
0010
,
1000
0001
0100
0001
0100
0010
0100
0001
,
0010
0000
0000
0001
0000
0000
1000
0000
0000
0100
0000
0000
1000
0000
0100
0010
0000
0001
0100
0000
0010
1000
0000
0100
,
2000
3000
0002
0003
0200
0300
0020
0030
,
1001
0000
0000
0000
1000
0000
0001
0100
0000
0001
0100
0000
0010
0000
1000
0000
,
1001
0000
0000
0000
1000
0000
0001
0100
0000
0001
0100
0000
0010
0000
1000
0000
,
1001
0000
0000
0000
1000
0000
0001
0100
0000
0001
0100
0000
0010
0000
1000
0000
,
1001
0000
0000
0000
1000
0000
0001
0100
0000
0001
0100
0000
0010
0000
1000
0000
,
0100
0000
0000
0000
1100
0000
0000
0000
1000
0000
0001
0000
1000
0001
0100
0001
,
0100
0000
0000
0000
1100
0000
0000
0000
1000
0000
0001
0000
1000
0001
0100
0001
,
0100
0000
0000
0000
1100
0000
0000
0000
1000
0000
0001
0000
1000
0001
0100
0001
,
0100
0000
0010
0000
0100
0001
0100
0010
1000
0100
1000
0010
0100
0001
0100
0010
,
0200
0000
0000
0001
0000
0000
0001
0000
0000
0001
0000
0000
0301
0000
2000
0000
,
0010
0000
0000
0000
0000
0000
0000
0000
0000
0010
0000
0000
0000
0000
0000
0000
0000
0000
0001
0000
0000
0000
0000
0000
3001
0000
0000
0000
0001
0000
0000
0000
1000
0000
0001
0000
1000
0000
0000
0000
0100
0000
0000
0000
0010
0000
0000
0000
,
0002
0000
0003
0000
;

//--------------- dance-single - XLev450X-CSP ----------------
#NOTES:
     dance-single:
     XLev450X:
     Challenge:
     15:
     0,0,0,0,0:
0000
0000
0000
0000
,
0000
0000
0000
0000
,
0000
0000
0000
0000
,
0000
0000
0000
0000
,
0001
0000
1000
0000
0000
0010
0000
0000
0100
0000
0000
0001
0000
0000
1000
0000
,
0010
0000
0100
0000
0000
0001
0000
0000
1000
0000
0000
0100
0000
0000
0010
0000
,
0100
0000
0001
0000
0000
0100
0000
0000
0001
0000
0100
0000
1000
0000
0010
0000
,
0100
0000
0001
0000
1000
0010
0100
0000
,
0001
1000
0000
0010
0100
0000
0001
1000
0000
0010
0100
0000
0001
0000
0010
0001
,
1000
0000
0000
0000
0001
0000
0000
0000
0000
0010
0000
0000
0100
0000
0000
0000
0000
0000
0001
0000
0000
1000
0000
0000
0000
0000
0000
0001
0000
0000
0100
0000
0000
0000
0000
0000
0010
0000
0000
0000
0000
0000
1000
0000
0000
0000
0000
0000
,
0010
0001
0000
0010
1000
0000
0010
0100
0000
0001
1000
0000
0010
0000
0100
0001
,
1000
0010
0100
0000
0001
1000
0000
0100
0010
0000
0000
0100
0000
0000
0001
0000
,
1000
0001
0100
0000
0001
1000
0010
0000
0100
0001
0100
0000
1000
0000
0010
0100
,
0001
1000
0100
0000
0001
0000
1000
0010
0000
0100
0001
0000
1000
0000
0010
0100
,
0001
1000
0010
0000
0100
0000
0001
1000
0000
0010
0100
0000
0001
0000
1000
0000
,
0010
0000
0000
0000
0000
0000
0100
0000
0000
0000
0000
0000
0001
0000
0100
1000
0001
0000
0010
0000
1000
0000
0001
0000
,
0100
0000
0001
0000
1000
0000
0010
0100
0001
1000
0001
0100
0010
0000
0100
0000
,
0001
0000
1000
0100
0001
0000
0010
0000
1000
0000
0001
0000
0100
0000
0010
0000
,
1000
0000
0001
1000
0010
0000
0100
0000
0001
0000
1000
0001
0100
0000
0010
0000
,
0001
0000
0010
0001
1000
0000
0010
0000
0100
0000
1000
0010
1000
0000
0100
0000
,
0001
0000
0010
0000
0001
0000
0100
0000
0001
1000
0001
1000
0100
0000
0010
0000
,
0001
0000
0010
1000
0001
0000
0100
0000
0010
0000
1000
0001
0100
0000
0010
0000
,
0001
0000
0000
0000
0000
0000
1000
0000
0000
0000
0000
0000
0010
0000
0000
0000
0001
0000
0000
0000
0100
0000
0000
0000
1000
0000
0000
0000
0000
0000
0001
0000
0000
0000
0000
0000
0100
0000
0000
0000
0000
0000
0001
0000
0000
1000
0000
0000
,
0010
0000
0000
1000
0000
0100
0001
0000
0000
0100
0000
1000
0001
0000
0010
0000
0001
0000
1000
0000
0100
0001
0010
1000
,
0100
0000
0000
0000
0000
0000
0000
0000
0000
1000
0000
0000
0000
0000
0000
0000
0000
0000
0001
0000
0000
0000
0000
0000
0000
0000
0000
0000
0000
0000
1000
0000
0000
0000
0010
0000
1000
0000
0000
0000
0100
0000
0000
0000
0001
0000
0010
0000
,
0100
0000
0000
0010
0000
0000
2000
0000
0000
0000
0000
0000
0100
0000
3010
0000
,
0001
0010
0100
1000
0000
0000
1000
0100
0010
0001
0000
0000
1000
0000
0000
0010
0000
0000
1000
0000
0001
0010
0100
1000
,
0010
0000
1000
0000
0001
0000
0100
0001
0000
1000
0010
0000
0100
0000
0010
0000
,
0001
0000
1000
0000
0001
0000
0100
0001
0000
1000
0010
0000
0010
0000
0100
0001
,
1000
0000
0010
0000
0100
0000
1000
0010
0000
0100
0001
0000
0010
0000
0001
1000
,
0010
0100
0001
1000
0010
0000
0000
0100
0000
0001
0000
0000
1000
0000
0010
0100
,
0000
0000
0001
0000
1000
0000
0001
0100
0000
1000
0010
0000
0100
0000
0001
1010
,
0000
0000
0100
0000
0001
0000
1000
0010
0000
0100
0001
0000
1000
0000
0001
0100
,
0010
1000
0001
0000
0100
0000
0010
1000
0000
0001
0100
0000
0010
0000
1000
0000
,
0001
0000
0000
0000
0100
0000
0000
0000
0001
0010
1000
0001
0010
0100
1000
0010
,
0100
0010
0001
1000
0001
1000
0010
0100
0001
1000
0010
0100
0001
0000
0010
0000
0001
0000
0010
0000
0001
0000
1000
0000
,
0001
1000
0000
0010
0100
0000
0001
1000
0000
0010
0100
0000
0001
0000
0010
0001
,
1000
0000
0000
0000
0001
0000
0000
0000
0000
0010
0000
0000
0100
0000
0000
0000
0000
0000
0001
0000
0000
1000
0000
0000
0000
0000
0000
0001
0000
0000
0100
0000
0000
0000
0000
0000
0010
0000
0000
0000
0000
0000
1000
0000
0000
0000
0000
0000
,
0010
0001
0000
0010
1000
0000
0010
0100
0000
0001
1000
0000
0010
0000
0100
0001
,
1000
0010
0100
0000
0001
1000
0000
0100
0010
0000
0000
0100
0000
0000
0001
0000
,
1000
0001
0100
0000
0001
1000
0010
0000
0100
0001
0100
0000
1000
0000
0010
0100
,
0001
1000
0100
0000
0001
0000
1000
0010
0000
0100
0001
0000
1000
0000
0010
0100
,
0001
1000
0010
0000
0100
0000
0001
1000
0000
0010
0100
0000
0001
0000
1000
0000
,
0010
0000
0000
0000
0000
0000
0100
0000
0000
0000
0000
0000
0001
0000
0100
1000
0001
0000
0010
0000
1000
0000
0001
0000
,
0010
0000
0000
1000
0000
0000
0001
0000
0000
0100
0000
0000
0010
0000
1000
0000
,
0010
0000
0000
0000
0000
0000
0000
0000
0000
0100
0000
0000
0000
0000
0000
0000
0000
0000
1000
0000
0000
0000
0000
0000
0010
0000
0000
0000
1000
0000
0000
0000
0010
0000
0100
0000
0001
0000
0000
0000
1000
0000
0000
0000
0010
0000
0000
0000
,
0002
0000
0003
0000
;
