#TITLE:jewelry girl*;
#SUBTITLE:;
#ARTIST:jun feat.吴效愚;
#TITLETRANSLIT:;
#SUBTITLETRANSLIT:;
#ARTISTTRANSLIT:jun feat.Wu Xiaoyu;
#GENRE:JEWELRY ROCK;
#CREDIT:;
#MUSIC:jewelry girl.ogg;
#BANNER:jewelry girl.png;
#BACKGROUND:jewelry girl-bg.png;
#CDTITLE:./CDTITLES/BEATMANIA IIDX.PNG;
#SAMPLESTART:34.943;
#SAMPLELENGTH:15.000;
#SELECTABLE:YES;
#OFFSET:-0.261;
#BPMS:0.000=173.000;
#STOPS:96.000=1.040;
#BGCHANGES:;
#FGCHANGES:;

//--------------- dance-single - XLev450X-bSP ----------------
#NOTES:
     dance-single:
     XLev450X:
     Beginner:
     4:
     0,0,0,0,0:
0000
0000
0000
0000
,
0000
0000
0000
0000
,
0000
0000
0000
0000
,
0000
0000
0000
0000
,
1000
0000
1000
0000
,
1000
0000
0000
0000
,
0010
0000
0010
0000
,
0010
0000
0000
0000
,
0001
0000
1000
0000
,
0001
0000
0000
0000
,
0010
0000
0100
0000
,
0001
0000
0000
0000
,
1000
0000
0010
0000
,
0100
0000
0000
0000
,
0001
0000
1000
0000
,
0010
0000
0000
0000
,
0001
0000
0001
0000
,
1000
0000
0000
0000
,
1000
0000
0001
0000
,
0100
0000
0000
0000
,
0010
0000
0001
0000
,
1000
0000
0000
0000
,
0010
0000
0100
0000
,
0001
0000
1000
0000
,
0110
0001
0000
1000
,
0000
0010
0000
0000
,
0000
0100
0000
0001
,
0000
1000
0000
0000
,
0000
0010
0000
1000
,
0000
0001
0000
0000
,
0000
0100
0000
0010
,
0000
1000
0000
0000
,
0000
0001
0001
0001
,
0000
1000
0000
0010
,
0000
0100
0100
0100
,
0000
0001
0000
1000
,
0000
0010
0000
0000
,
0000
0001
0000
1000
,
0000
0010
0000
0100
,
0000
0001
0000
1000
,
0000
0110
0000
0000
,
0000
0000
0000
0000
,
0000
0101
0000
0000
,
0000
0000
0000
0000
,
0000
1010
0000
0000
,
0000
0000
0000
0000
,
0000
0110
0000
0000
,
0000
0011
0000
0000
,
0000
0001
0000
1000
,
0000
0010
0000
0000
,
0000
0100
0000
0001
,
0000
1000
0000
0000
,
0000
0010
0000
0100
,
0000
0001
0000
0000
,
0000
1000
0000
0001
,
0000
0010
0100
0001
,
1000
0000
0000
0000
,
0000
0010
0000
1000
,
0000
0001
0000
0000
,
0000
0010
0000
0100
,
0000
0001
0000
0000
,
0000
1000
0000
0000
,
0000
0001
0000
0000
,
0000
0010
0000
0100
,
0000
0001
1000
0010
,
0000
0001
0001
1000
,
0000
0010
0010
1000
,
0000
0100
0000
0001
,
0000
0010
0100
0001
,
0000
1000
0000
0001
,
0000
0010
0100
0001
,
0000
1000
0000
0011
,
0000
1000
0000
0010
,
0000
0100
0001
1000
,
0000
0010
0000
0100
,
0000
0001
1000
0010
,
0000
0001
0000
0000
,
0000
1000
0001
0100
,
0000
0010
0000
1000
,
0000
0001
0010
0100
,
0000
0001
0001
0001
,
1000
0010
0000
0000
0000
0000
0000
0000
;

//--------------- dance-single - XLev450X-BSP ----------------
#NOTES:
     dance-single:
     XLev450X:
     Easy:
     6:
     0,0,0,0,0:
0000
0000
0000
0000
,
0000
0000
0000
0000
,
0000
0000
0000
0000
,
0000
0000
0000
0000
,
0001
0000
1000
0000
,
0010
0000
0100
0000
,
0001
0000
1000
0000
,
0010
0001
1000
0000
,
0001
0000
0100
0000
,
0010
0000
0000
0000
,
1000
0000
0001
0000
,
0100
0000
0000
0000
,
0010
0000
0001
0000
,
1000
0000
0000
0000
,
0100
0000
0010
0000
,
0001
0000
1000
0000
,
0001
0100
0010
0000
,
0001
0000
1000
0000
,
0010
0100
1000
0000
,
0001
0000
0010
0000
,
0100
0001
0010
0000
,
1000
0000
0010
0000
,
0100
0001
0010
1000
,
0011
0000
1100
0010
,
0200
0300
0001
0000
0001
0000
0001
0000
,
0000
1000
1000
1000
,
0000
0010
0100
0001
,
0010
1000
0000
0001
,
0000
0100
0000
0010
,
0001
1000
0000
0010
,
0100
0001
0000
1000
,
0000
0010
0100
0001
,
0010
1000
0000
0001
,
0000
0100
0010
0001
,
1000
0010
0000
0100
,
0000
0010
0001
1000
,
0010
0100
0000
0001
,
0000
1000
0001
0100
,
0010
1000
0000
0001
,
0000
0010
0001
0100
,
0010
2000
0000
0000
,
3000
0002
0000
0000
,
0003
0200
0000
0000
,
0300
0020
0000
0000
,
0030
0001
0000
1000
,
0000
0010
0000
0000
,
0000
0100
0000
0001
,
0000
1000
0001
0100
,
0010
0001
0000
1000
,
0000
0010
0000
0100
,
0000
0001
0000
1000
,
0000
0001
0001
0100
,
0000
0010
0000
1000
,
0000
0001
0000
0010
,
0000
0100
0000
0001
,
0000
1000
1000
0010
,
0200
0000
0000
0000
,
0300
0001
0000
2000
,
0000
0000
3000
0000
0010
0000
0001
1000
,
0100
0001
0000
1000
,
0000
0010
0100
0001
,
0000
0020
0000
0000
,
0000
0000
0000
0000
,
0030
1000
0001
0100
,
0010
0000
0001
0010
1000
0100
0010
0000
,
0000
0100
0001
1000
,
0000
0010
0001
1000
,
0000
0010
0100
0001
,
0010
1000
0000
0001
,
0000
0100
0010
0001
,
0000
1000
0010
0100
,
0000
0001
1000
0010
,
0100
0001
0000
1000
,
0000
0010
0001
0010
,
0000
0000
1000
0000
0010
0000
0100
0001
,
0100
0001
1000
0010
,
0000
0000
0100
0000
0001
0000
1000
0001
,
0100
0010
0000
0001
,
0000
1000
0000
0010
,
0000
0100
0001
1000
,
0010
0000
0100
1000
0001
0000
1000
0001
,
0010
0200
0000
0000
0000
0000
0000
0000
,
0000
0300
0000
0000
;

//--------------- dance-single - XLev450X-DSP ----------------
#NOTES:
     dance-single:
     XLev450X:
     Medium:
     9:
     0,0,0,0,0:
0000
0000
0000
0000
,
0000
0000
0000
0000
,
0000
0000
0000
0000
,
0000
0000
0000
0000
,
0001
0000
1000
0000
,
0010
0100
0001
0000
,
0010
0000
1000
0000
,
0010
0000
0100
0001
1000
0010
0100
0000
,
0001
1000
0010
0000
,
0100
0000
0001
0010
,
1000
0000
0001
0000
0010
0000
0000
0100
,
0000
0001
1000
0000
,
0010
0001
1000
0000
,
0010
0000
0100
0000
,
0001
0000
0010
0000
1000
0000
0000
0001
,
0010
0000
1000
0000
0001
0100
0010
0000
,
1000
0001
0010
0000
,
0100
0001
1000
0010
,
0100
0001
1000
0000
,
0010
0000
0001
0000
0010
0001
1000
0000
,
0010
0100
0001
0000
,
0010
0000
1000
0000
0001
0100
0010
0000
,
1000
0001
0010
0100
,
0001
0000
1000
0000
0010
0100
0001
1000
,
0200
0300
0001
0000
1000
0000
0010
0100
,
0001
0010
0001
1000
,
0001
0000
0100
0000
0010
0000
0001
0010
,
0001
0000
1000
0010
0100
0000
0001
0100
,
0010
0001
1000
0010
,
0000
0100
0001
1000
,
0000
0010
1000
0001
,
0100
0000
0010
0000
0001
0000
1000
0010
,
0100
0001
0010
1000
,
0000
0001
0010
0100
,
0000
0001
1000
0010
,
0100
0000
0001
0000
1000
0000
0010
0001
,
0010
0100
0001
1000
,
0000
0000
0010
0000
0100
0000
0001
1000
,
0010
0001
0010
0001
,
1000
0000
0010
0100
0001
1000
0010
0100
,
0001
0010
0001
1000
,
0000
0001
0000
0100
,
0000
0010
0001
1000
,
0000
0000
0010
0000
0100
0000
0001
1000
,
0010
0100
0001
0010
,
0000
0100
0000
0001
,
0000
1000
0010
0100
,
0001
0000
1000
0001
0100
0000
0010
0000
,
0001
0000
0000
1000
0000
0001
0100
0000
,
0000
0010
0001
1000
,
0000
0010
0100
0001
,
0000
1000
0001
0100
,
0000
0010
0001
1000
,
0000
0010
0100
0001
,
0000
0010
0100
0001
,
1000
0000
0010
0100
0001
0000
1000
0010
,
0100
0002
0000
0000
0000
0000
0000
0000
,
0003
0000
1000
0000
0000
0010
0200
0000
,
0000
0300
0001
1000
,
0010
0100
0001
1000
,
0010
0000
0100
0000
0000
0001
0000
0000
,
1000
0020
0000
0000
,
0000
0000
0000
0030
,
0000
0000
0010
0001
0010
0000
1000
0010
,
0100
0000
0001
1000
0010
0100
0002
0000
,
0003
0001
1000
0010
,
0100
0000
0001
0010
0001
0000
1000
0010
,
0100
0001
1000
0010
,
0100
0000
0001
0000
0000
1000
0000
0000
,
0010
0000
0100
0000
0001
0000
0010
0001
,
1000
0010
0100
0001
,
0000
1000
0010
0100
,
0001
0000
0010
0000
0001
1000
0010
0000
,
0100
0001
1000
0010
,
0000
0100
0001
1000
,
0000
0010
0100
0001
,
0000
0001
1000
0010
,
0100
0001
1000
0010
,
0000
0100
0001
1000
,
0000
0010
0001
0100
,
1000
0000
0010
0001
0010
0000
1000
0010
,
0100
0002
0000
0000
0000
0000
0000
0000
,
0000
0003
0000
0000
;

//--------------- dance-single - XLev450X-ESP ----------------
#NOTES:
     dance-single:
     XLev450X:
     Hard:
     13:
     0,0,0,0,0:
0000
0000
0000
0000
,
0000
0000
0000
0000
,
0000
0000
0000
0000
,
0000
0000
0000
0000
,
0001
0000
1000
0000
0010
0000
0100
0001
,
0000
1000
0010
0000
0100
0000
0001
0000
,
0010
1000
0001
0100
,
0010
0000
0001
1000
0010
0100
0001
0000
,
1000
0000
0001
0000
0100
1000
0000
0001
,
0000
0000
1000
0000
0010
0001
1000
0000
,
0010
0000
0100
0000
0001
0010
0000
1000
,
0000
0001
0100
0010
,
0001
1000
0010
0000
0100
0010
0000
0001
,
0000
1000
0010
0100
,
0001
0000
0010
0000
1000
0000
0000
0001
,
0100
0000
0010
0000
0001
0000
0010
1000
,
0100
0000
0001
0000
0010
0001
0010
0000
,
1000
0000
0010
0000
0100
0001
1000
0010
,
0100
0000
0001
0000
0010
0001
1000
0000
,
0010
0000
0100
0000
0001
0010
1000
0001
,
0100
0000
0010
0000
0001
0010
0001
0000
,
1000
0000
0010
0000
1000
0001
0100
0000
,
0010
0001
1000
0010
,
0100
0000
0000
0001
0000
0000
1000
0000
0000
0010
0000
0000
0100
0000
0000
0001
0000
0000
1000
0000
0100
0000
0001
0000
,
0020
0030
0001
1000
0010
0000
0100
0000
,
0001
0000
0010
0001
1000
0010
0100
0000
,
0001
0000
0010
0001
1000
0000
0010
0100
,
0001
0000
1000
0000
0010
0100
0000
0001
,
0010
0000
1000
0000
0001
0000
0100
0010
,
0001
1000
0010
0000
0100
0000
0010
0001
,
1000
0000
0010
0100
0001
0000
1000
0010
,
0100
0000
0001
1000
0010
0100
0001
1000
,
0010
0000
0000
1000
0000
0000
0100
0000
0000
0010
0000
0000
0001
0000
0000
0000
0000
0000
0000
0000
0010
0000
0000
0000
0000
0000
0000
0000
1000
0000
0000
0000
0000
0000
0000
0000
0010
0000
0000
0000
0000
0000
0001
0000
0000
0000
0000
0000
,
1000
0000
0010
0000
0100
0000
0001
0010
,
0001
0000
1000
0010
0100
0000
0001
0010
,
0100
0000
0010
1000
0001
0010
0100
0001
,
1000
0010
0100
0000
0000
0000
0000
0000
,
0001
0000
1000
0000
0010
0001
0010
0000
,
1000
0000
0010
0000
0100
0001
1000
0000
,
0010
0000
0100
0000
0001
1000
0010
0100
,
0001
0000
1000
0010
0001
0000
1000
0000
,
0000
0001
0000
0010
0100
0000
0001
0000
,
1000
0010
0100
0000
0001
0000
1000
0000
,
0000
0010
0000
0100
0001
0000
1000
0000
,
0010
0100
0001
1000
,
0000
0010
0000
0001
1000
0000
0010
0000
,
0100
0001
1000
0010
,
0000
0100
0000
0001
0010
1000
0100
0001
,
1000
0010
0100
0001
,
0000
0010
0000
0001
1000
0010
0100
0001
,
1000
0010
0100
0000
0001
0000
0010
0000
,
0001
0010
0000
1000
0010
0000
0100
0001
,
1000
0010
0100
0000
0001
0000
0010
0000
,
0001
1000
0000
0010
0100
0000
0001
1000
,
0010
0100
0001
0010
,
0000
0000
1000
0000
0001
0000
0000
0000
0010
1000
0001
0000
1000
0000
0010
0000
,
0100
0002
0000
0000
0000
0000
0000
0000
,
0003
0000
0001
0000
0000
1000
0020
0000
,
0000
0030
0100
0001
,
1000
0010
0100
0001
,
1000
0000
0010
0000
0000
0001
0000
0000
,
0100
0020
0000
0000
,
0000
0000
0000
0000
,
0030
0000
0001
1000
0010
1000
0100
0001
,
1000
0000
0010
0000
0100
0010
0100
0001
1000
0010
0100
0010
0100
0000
0000
0000
,
0000
0000
0001
1000
0010
0000
0100
0000
,
0001
0000
0010
0001
0010
0000
1000
0010
,
0100
0000
0001
0010
1000
0001
0100
0000
,
0010
0000
1000
0000
0000
0001
0000
0000
,
0100
0000
0010
0001
1000
0000
0010
0100
,
0000
1000
0001
0000
0010
0000
0100
0001
,
1000
0000
0010
0000
0100
0000
0010
0001
,
1000
0000
0010
0000
0100
0000
0001
1000
,
0010
0000
0001
0010
1000
0000
0010
0000
,
0100
0000
0010
0001
1000
0000
0010
0100
,
0001
0000
1000
0000
0010
0000
0001
1000
,
0100
0000
0001
1000
0010
0000
0100
0001
,
0010
0000
0101
0000
1010
0000
0001
0100
,
0010
0000
0001
1000
0010
0000
0100
0001
,
1000
0010
0100
0001
,
1000
0000
0000
0000
0010
0100
0001
0100
0010
1000
0010
0100
1000
0000
0010
0000
,
0100
0002
0000
0000
0000
0000
0000
0000
,
0000
0003
0000
0000
;
