#TITLE:introspect;
#ARTIST:Lokan;
#GENRE:PIANO BREAKS;
#MUSIC:introspect.ogg;
#BANNER:introspect.png;
#BACKGROUND:introspect-bg.png;
#SAMPLESTART:49.1;
#SAMPLELENGTH:15;
#OFFSET:-0.212;
#BPMS:0=140
,45=142
,60=143
,68=144
,84=145
,148=158
,151=63
,166=73
,167=143
,199=144
,203=145
,277.5=63;
#BGCHANGES:0=introspect-bg.png=1.000=0=0=1,
4=introspect.mp4=1.000=0=0=1,
99999.000=-nosongbg-=1.000=0=0=0=StretchNoLoop====;
#BGSTAGE:30;

//--------------- dance-single - XLev450X-bSP ----------------
#NOTES:
     dance-single:
     XLev450X:
     Beginner:
     3:
     0,0,0,0,0:
0000
0000
0000
0000
,
0000
0000
0000
0000
,
0000
0000
0000
0000
,
0000
0000
0000
0000
,
0000
0000
0000
0000
,
0000
0000
0000
0000
,
0000
0000
0000
0000
,
0000
0000
0000
0000
,
0000
0000
0000
0000
,
1001
0000
0000
0000
,
0000
0000
0000
0000
,
0000
0001
0000
0001
,
0000
1000
0000
0000
,
0000
0010
0000
0010
,
0000
0100
0000
0000
,
1000
0000
0001
0000
,
1000
0000
0000
0000
,
0010
0000
0100
0000
,
0010
0000
0000
0000
,
0000
0000
0000
0000
,
0000
0000
0000
0000
,
0001
0001
0000
0000
,
0010
0010
0000
0000
,
0100
0100
0000
0000
,
1000
1000
0000
0000
,
1000
0100
0000
0000
,
0010
0001
0000
0000
,
0010
0100
0000
0000
,
1001
0000
0000
0000
,
0001
0001
0000
0000
,
0010
0010
0100
0000
,
1000
1000
0000
0000
,
0011
0000
0000
0000
,
0100
0100
0000
0000
,
1000
1000
0010
0000
,
0001
0001
0000
0000
,
1010
0000
0000
0000
,
0000
0000
0000
1001
,
0000
0000
0000
0000
,
0000
0000
0000
0000
,
0000
0000
0000
0000
,
0000
0000
0000
0001
,
0001
0001
0000
0010
,
0010
0010
0000
1000
,
1000
1000
0000
0100
,
0100
0100
0000
0001
,
1000
0001
0000
0010
,
1000
0010
0000
0010
,
0000
0000
0000
0100
,
0000
0000
0000
1000
,
0000
0000
0000
0001
,
0000
0000
0000
1001
,
0000
0000
0000
0000
,
0000
0000
0000
0010
,
0100
0010
0000
1001
,
0000
0000
0000
1000
,
1000
0000
0000
0001
,
0010
0001
0000
0100
,
0100
0000
0000
1010
,
0000
0000
0000
1000
,
0000
0001
0000
0010
,
0000
0000
0000
1000
,
0000
0100
0000
0010
,
0000
0000
0000
0001
,
0000
1000
0000
0001
,
0000
0000
0000
0010
,
0000
1000
0000
0010
,
0000
0000
0000
0000
,
0000
0000
0000
1001
;

//--------------- dance-single - XLev450X-BSP ----------------
#NOTES:
     dance-single:
     XLev450X:
     Easy:
     6:
     0,0,0,0,0:
0000
0000
0000
0000
,
0000
0000
0000
0000
,
0000
0000
0000
0000
,
0000
0000
0000
0000
,
0000
0000
0000
0000
,
0000
0000
0000
0000
,
0000
0000
0000
0000
,
0000
0000
0000
0000
,
0000
0000
0000
0000
,
2002
0000
0000
0000
,
0000
0000
0000
0000
,
3003
0001
0000
1000
,
0000
0001
0000
0010
,
0100
0010
0000
1000
,
0000
0001
0000
0100
,
0001
0000
1000
0000
,
0010
0000
0100
1000
,
0001
0000
0100
0000
,
1000
0000
0010
0000
,
0100
0000
0001
0000
,
1000
0000
0001
0000
,
1000
0001
0000
0010
,
1000
0100
0000
0010
,
0001
0100
0000
1000
,
0001
1000
0000
0010
,
1000
0010
1000
0000
0010
0000
0100
0000
,
0001
0010
0001
0000
0100
0000
1000
0000
,
0001
1000
0001
0000
0010
1000
0010
0000
,
0220
0000
0000
0330
,
0001
1000
0001
0000
,
0010
0000
1000
0000
0010
0100
0010
0000
,
0001
1000
0001
0000
,
0022
0000
0000
0033
,
1000
0010
0100
0000
,
1000
0000
0010
0000
0100
0010
0100
0000
,
0001
0010
1000
0000
,
2020
0000
0000
3030
,
2002
0000
3003
0110
,
0000
0000
0000
0011
,
0000
0000
0000
1010
,
0000
0000
0000
0110
,
0000
0000
0000
0001
,
1000
0010
0000
1000
,
0100
0001
0000
0010
,
0100
0000
1000
0010
1000
0000
0001
0000
,
0010
0001
0000
0100
,
1000
0000
0001
1000
0001
0000
0010
0000
,
0100
1000
0000
0002
,
0000
0013
0000
0200
,
0000
1300
0000
0020
,
1030
0200
0310
0002
,
0103
2000
3001
2002
,
0000
0000
3003
0220
,
0000
0000
0330
0001
,
1000
0000
0010
1000
0010
0000
0202
0000
,
0000
0000
0303
1000
,
0010
0000
0100
0010
0100
0000
1000
0000
,
0100
0001
0000
0010
,
1000
0010
0100
2020
,
0000
0000
3030
0001
,
1000
0100
0001
0010
,
0100
0000
1000
0010
1000
0000
0100
0000
,
0001
0010
1000
0001
,
0100
0010
0000
1000
,
0010
0100
0001
1000
,
0010
0000
1000
0010
1000
0000
0100
0000
,
0001
0010
0000
2002
,
0000
0000
3003
2002
,
0000
0000
3003
0000
,
0000
0000
0000
0220
0000
0000
0000
0000
,
0330
0000
0000
0000
;

//--------------- dance-single - XLev450X-DSP ----------------
#NOTES:
     dance-single:
     XLev450X:
     Medium:
     9:
     0,0,0,0,0:
0000
0000
0000
0000
,
0000
0000
0000
0000
,
0000
0000
0000
0000
,
0000
0000
0000
0000
,
0000
0000
0000
0000
,
0000
0000
0000
0000
,
0000
0000
0000
0000
,
0000
0000
0000
0000
,
0000
0000
0000
0000
,
2002
0000
0000
0000
,
0000
0000
0000
0000
,
3003
0000
0000
0000
0001
0000
0000
1000
0000
0000
0010
0000
0000
0100
0000
0000
,
0001
0000
1000
0000
0010
0000
0001
0010
,
0001
0000
0000
0000
1000
0000
0000
0010
0000
0000
0100
0000
0000
0001
0000
0000
,
1000
0000
0000
0010
0000
0000
0100
0000
0000
1000
0000
0000
0001
0000
0000
0000
,
1000
0000
0000
0010
0000
0000
0100
0000
0000
1000
0000
0000
0001
0000
0000
0100
,
0000
0000
0010
0000
0000
1000
0000
0000
0001
0000
0000
1000
0000
0000
0001
0000
,
0100
0000
0000
1000
0000
0000
0001
0000
0000
0100
0000
0000
0010
0000
0000
1000
,
0000
0000
0001
0000
0000
0010
0000
0000
1000
0000
0000
0100
0000
0000
0001
0000
,
0000
1000
0000
0000
0010
0000
0000
0100
0000
0000
1000
0000
0000
0001
0000
0000
,
0010
0000
0000
1000
0000
0000
0001
0000
0000
0100
0000
0000
0010
0000
0000
0000
,
0001
0000
1000
0010
0000
0000
0100
0000
,
0001
0000
0010
0001
0000
0000
1000
0000
,
0100
0000
0010
0100
0000
0000
1000
0000
,
0001
0000
1000
0010
0000
0000
0100
0000
,
0001
0010
0001
0000
1000
0000
0010
0000
,
0100
0010
1000
0000
0001
0000
1000
0000
,
0010
1000
0010
0000
0001
0010
0001
0000
,
0100
0001
1000
0010
,
1000
0010
0001
0010
,
1000
0000
0100
0000
1000
0010
1000
0000
,
0100
0000
0001
0000
1000
0010
1000
0000
,
0001
0000
0000
1000
0000
0000
0010
0000
0000
0100
0000
0000
0001
0000
0000
0000
,
1000
0000
0001
0000
0010
1000
0010
0000
,
0001
0100
1001
0000
,
0010
0000
0100
0000
1000
0010
1000
0000
,
0001
0000
0000
1000
0000
0000
0010
0000
0000
0100
0000
0000
0010
0000
0000
0000
,
2002
0000
3003
0010
,
0000
1000
0000
0010
,
0000
0000
0000
0000
0000
0000
0000
0000
0001
0000
0000
0000
0000
0000
0000
0000
0000
0000
0000
0000
0000
0000
0000
0100
0000
0000
0000
0000
0000
0000
0000
0000
,
0000
0000
0000
0000
0000
0000
0000
0010
0000
0000
0000
0000
0000
0000
0000
0000
0000
0000
0000
0000
0000
0000
0000
0001
0000
0000
0000
0000
0000
0000
0000
0000
,
0000
0000
0000
0000
0000
0000
0000
1000
0000
0000
0000
0000
0000
0000
0000
0000
0000
2002
0000
0000
3003
0000
0000
0000
0001
0000
0000
0000
0000
0000
0000
0000
,
1000
0000
0000
0000
0001
0000
0000
0100
0000
0010
0000
0000
1000
0000
0000
0000
,
0001
0000
0000
0000
0010
0000
0000
0001
0000
0000
0100
0000
1000
0000
0000
0000
,
0010
0000
0000
0000
0100
0000
0000
0001
0000
1000
0000
0000
0010
0000
0000
0000
,
0100
0000
0000
0000
1000
0000
0000
0001
0000
0000
0010
0000
0100
0000
0000
0000
,
1000
0000
0000
0000
0010
0000
0000
0100
0000
0001
0000
0000
1000
0000
0000
0000
,
0001
0000
0000
0000
1000
0000
0000
0010
0000
0000
0100
0000
0001
0000
0000
0000
,
1000
0001
0000
0010
,
1000
0010
0000
0001
,
1000
0000
0001
0000
0010
0000
0001
0010
,
0001
0000
1000
0010
1000
0000
2002
0000
,
0000
0000
3003
0220
,
0000
0000
0330
0001
,
1000
0000
0000
0000
0001
0000
1000
0000
0010
0000
0000
0000
0001
0000
0000
1000
,
0000
0000
0010
0000
0000
0100
0000
0000
1000
0000
0000
0000
0001
0000
0000
0000
,
0010
0000
0100
0010
0100
0000
0001
0000
,
1000
0000
0001
0000
0010
0000
0001
0010
,
0001
0000
0000
0000
1000
0000
0010
0000
1000
0000
0000
0000
0100
0000
0000
0001
,
0000
0000
1000
0000
0000
0010
0000
0000
0100
0000
0000
0000
0001
0000
0000
0000
,
1000
0010
0100
0001
,
0010
0001
0000
1000
,
0100
0000
0010
1000
0010
0000
0100
0000
,
0001
0000
1000
0000
0000
0000
0010
0100
,
0010
0000
0001
0010
0001
0000
1000
0000
,
0100
1000
0000
0010
,
0100
0000
0000
0000
1000
0000
0000
0000
0000
0000
0000
0000
0001
0000
0000
1000
,
0000
0000
0010
0000
0000
0100
0000
0000
0001
0000
1000
0000
0010
0000
0000
0100
,
0000
0000
0001
0000
0000
1000
0000
0000
0010
0000
0100
0000
2002
0000
0000
0000
,
0000
3003
0000
0220
0000
0000
0000
0000
,
0330
0000
0000
0000
;

//--------------- dance-single - XLev450X-ESP ----------------
#NOTES:
     dance-single:
     XLev450X:
     Hard:
     13:
     0,0,0,0,0:
0000
0000
0000
0000
,
0000
0000
0000
0000
,
0000
0000
0000
0000
,
0000
0000
0000
0000
,
0000
0000
0000
0000
,
0000
0000
0000
0000
,
0000
0000
0000
0000
,
0000
0000
0000
0000
,
0000
0000
0000
0000
,
2002
0000
0000
0000
,
0000
0000
0000
3003
,
1000
0001
1000
0100
0001
0000
0000
0100
0000
0000
0010
0000
0000
1000
0000
0000
,
0001
0000
0001
0000
1000
0000
0010
0100
,
0010
0000
0001
0000
1000
0000
0000
0001
0000
0000
0100
0000
0000
0010
0000
0000
,
1000
0000
0000
0010
0000
0000
0100
0000
0000
0001
0000
0000
1000
0000
0001
0000
,
0100
0000
0000
0010
0000
0000
0001
0000
0000
1000
0000
0000
0010
0000
0000
0100
,
0000
0000
0001
0000
0000
1000
0000
0001
0000
0010
0000
0000
0100
0000
0001
0000
,
0010
0000
0000
0001
0000
0000
1000
0000
0000
0010
0000
0000
0100
0000
0000
0001
,
0000
0000
1000
0000
0000
0010
0000
0000
0100
0000
0000
0001
0000
0000
1000
0000
,
0000
0010
0000
0000
0100
0000
0000
1000
0000
0000
0001
0000
0000
0010
0000
0000
,
1000
0000
0000
0001
0000
0000
0100
0000
0000
0010
0000
0000
1000
0000
0001
0000
,
1000
0000
0010
0000
1000
0000
0001
0000
0000
0000
0010
0000
0001
0000
0010
0001
,
0010
0000
1000
0000
0010
0000
0100
0000
0000
0000
0001
0000
1000
0000
0001
1000
,
0001
0000
1000
0000
0010
0000
0100
0000
0000
0000
1000
0000
0010
0000
0100
0010
,
0100
0000
0010
0000
0001
0000
0010
0000
1000
0000
0001
0000
0001
0100
1000
0001
,
0100
0010
1000
0010
1000
0001
0010
0001
,
1000
0000
0010
0000
0100
0000
1000
0000
0001
0000
0010
0000
1000
0000
0010
1000
,
0010
0001
0010
1000
0001
0010
1000
0010
,
0101
0000
0000
1010
0000
0000
0110
0000
0000
1001
0000
0000
0001
0000
1000
0000
,
0001
0000
1000
0001
1000
0000
0010
0000
1000
0000
0010
0000
0100
0000
0010
0000
,
0001
0000
0010
0001
0010
0000
1000
0000
0010
0000
0100
0000
1000
0000
0001
0000
,
1000
0000
0010
1000
0010
0000
0010
0001
0010
0000
0001
0000
1000
0000
0010
0000
,
1000
0000
0000
0001
0000
0000
0100
0000
0000
1000
0000
0000
0010
0000
1000
0000
,
0010
0000
0001
0010
0001
0000
1000
0000
0010
0000
0100
0000
1000
0000
0001
0000
,
0010
0000
1000
0000
0001
0000
0010
0001
0010
0000
1000
0000
0010
0000
0100
0000
,
1000
0000
0001
1000
0001
0000
1000
0000
0010
0000
0100
0000
1000
0000
0001
0000
,
1000
0000
0000
0010
0000
0000
0100
0000
0000
0001
0000
0000
0010
0000
0100
0000
,
1001
0000
0000
0220
,
0330
0000
0000
0000
0000
0000
0000
0000
0000
0000
0000
0000
0000
0000
0000
0000
0000
0000
0000
0000
0000
0000
0000
0000
0000
0000
0000
0000
0000
0000
0000
0000
0000
0000
0000
0000
0000
0000
0000
0000
0000
0000
0100
0000
0000
0000
0000
0000
0000
0000
0000
0000
0000
0000
0000
0000
0000
0000
0000
0000
0000
0000
0000
0000
0000
1000
0000
0000
0000
0000
0000
0000
0000
0000
0000
0000
0000
0000
0000
0000
0000
0000
0000
0000
0000
0100
0000
0000
0000
0000
0000
0000
0000
0000
0000
0000
0000
0000
0000
0000
0000
0000
0010
0000
0000
0000
0000
0000
0000
0000
0000
0000
0000
0000
0000
0000
0000
0000
0000
0000
1000
0000
0000
0000
0000
0000
0000
0000
0000
0000
0000
0000
0010
0000
0000
0000
0000
0000
0000
0000
0000
0000
0000
0000
0000
0200
0000
0000
0000
0000
0000
0000
0000
0000
0000
0000
0000
0000
0000
0000
0000
0000
0000
0000
0000
0000
0000
0000
0000
0000
0000
0000
0000
0000
0000
0000
0000
0000
0000
0000
0000
0000
0000
0000
0000
0000
0000
0000
0000
0000
0000
0000
,
0300
0000
0000
0000
0000
0000
0000
0000
0000
0000
0000
0000
0000
0000
0000
0000
0000
0000
0000
0000
0000
0000
0000
0000
0000
0000
0000
0000
0000
0000
0000
0000
0000
0000
0000
0000
1000
0000
0000
0000
0001
0000
0000
0000
2000
0000
0000
0000
0000
0000
0000
0000
0000
0000
0000
0000
0000
0000
0000
0000
0000
0000
0000
0000
0000
0000
0000
0000
0000
0000
0000
0000
0000
0000
0000
0000
0000
0000
0000
3000
0000
0000
0000
0000
0000
0000
0000
0000
0000
0000
0000
0000
0000
0000
0000
0000
0000
0000
0000
0000
0000
0000
0000
0000
0000
0000
0000
0000
0000
0000
0000
0100
0000
0000
0000
0000
0000
0000
0000
0000
0000
0000
0000
0000
0000
0000
0000
0000
0000
0010
0000
0000
0000
0000
0000
0000
0000
0000
0000
0000
0000
0220
0000
0000
0000
0000
0000
0000
0000
0000
0000
0000
0000
0000
0000
0000
0000
0000
0000
0000
0000
0000
0000
0000
0000
0000
0000
0000
0000
0000
0000
0000
0000
0000
0000
0000
0000
0330
0000
0000
0000
0000
0000
0000
0000
0000
0000
0000
0000
0000
0000
0000
,
0000
0000
0000
0000
0000
0000
0000
0000
0001
0000
0000
0000
0000
0000
0000
0000
0000
0000
0000
0000
0000
0000
0000
0000
0000
0000
0000
0000
0000
0000
1000
0000
0000
0000
0000
0000
0000
0000
0000
0000
0000
0000
0000
0000
0000
0000
0000
0000
0000
0000
0000
0000
0000
0000
0000
0000
0000
0000
0000
0000
0000
0000
0000
0001
0000
0000
0000
0000
0000
0000
0000
0000
0000
0000
0000
0000
0000
0000
0000
0000
0010
0000
0000
0000
0000
0000
0000
0000
0000
0000
0000
0000
0000
0000
0000
0000
1000
0000
0000
0000
0000
0000
0000
0000
0000
0000
0000
0000
0000
0000
0000
0000
0010
0000
0000
0000
0000
0000
0000
0000
0000
0000
0000
0000
0000
0000
0000
0000
0000
0000
0000
0000
0010
0000
0000
0000
0000
0100
0000
0000
0020
0000
0000
0000
0000
0000
0000
0000
0000
0000
0000
0000
0000
0000
0000
0000
0000
0000
0000
0000
0000
0000
0000
0000
0000
0000
0000
0000
0000
0030
0000
0000
0000
0000
0000
0000
0000
0000
0000
0000
0000
0000
0000
0000
0000
0000
0000
0000
0000
0000
0000
0000
,
0000
0010
0000
0000
1000
0000
0000
0002
0000
0000
0000
0000
0000
0000
0000
0000
0000
0000
0000
0000
0000
0000
0000
0000
0003
0000
0000
0000
0000
0000
0000
0000
0000
0000
0000
0000
1000
0000
0000
0000
0000
0000
0000
0000
0000
0000
0000
0000
,
0001
0000
0000
0000
0010
0000
0000
0100
0000
0001
0000
0000
1000
0000
0000
0000
,
0001
0000
0000
0000
0010
0000
0000
0100
0000
0000
0001
0000
1000
0000
0000
0000
,
0010
0000
0000
0000
0100
0000
0000
0001
0000
1000
0000
0000
0010
0000
0000
0000
,
0100
0000
0000
0000
0010
0000
0000
0001
0000
0000
1000
0000
0010
0000
0000
0000
,
0001
0000
0000
0000
1000
0000
0000
0001
0000
0100
0000
0000
1000
0000
0000
0000
,
0001
0000
0000
0000
0010
0000
0000
1000
0000
0000
0010
0000
0001
0000
0000
0000
,
1000
0010
0001
1000
,
0010
0000
0001
0010
0001
0000
1000
0010
,
0100
0001
0010
1000
0001
0100
0010
1000
,
0001
0010
0100
0001
0010
0100
2002
0000
,
0000
3003
0000
2020
,
0000
3030
0000
0001
,
1000
0000
0000
0000
0010
0000
0100
0000
1000
0000
0000
0000
0001
0000
0000
1000
,
0000
0000
0010
0000
0000
0100
0000
0000
0001
0000
0000
0000
1000
0000
0000
0000
,
0001
0100
0000
0000
1000
0010
1000
0000
,
0001
0010
0001
1000
0010
0100
0000
0001
,
1000
0000
0000
0000
0010
0000
0100
0000
0001
0000
0000
0000
1000
0000
0000
0001
,
0000
0000
0100
0000
0000
0010
0000
0000
1000
0000
0001
0000
0010
0000
0000
0000
,
0001
0010
1000
0100
1000
0001
0010
0000
,
1001
0000
1000
0010
0100
1000
0001
0000
,
0110
0000
0100
1000
0001
0000
1010
0000
,
1000
0000
0010
0100
0010
0000
0101
0000
,
1010
0000
0010
1000
0010
0000
0011
0000
,
1010
0000
0100
1000
0100
0000
0001
0000
,
0010
0000
0000
0000
1000
0000
0001
0000
1000
0000
0000
0000
0010
0000
0000
0100
,
0000
0000
1000
0000
0000
0001
0000
0000
1000
0000
0010
0000
1000
0000
0000
0001
,
0000
0000
0100
0000
0000
0001
0000
0000
0010
0000
0100
0000
0002
0000
0000
0000
,
0000
0003
0000
2002
0000
0000
0000
0000
,
3003
0000
0000
0000
;
