#TITLE:five fathoms (beatmania II special version);
#ARTIST:EverythingButTheGirl;
#GENRE:HOUSE;
#BANNER:five fathoms (beatmania II special version).png;
#BACKGROUND:five fathoms (beatmania II special version)-bg.png;
#CDTITLE:./CDTitles/bm IIDX 3rd style.png;
#MUSIC:five fathoms (beatmania II special version).ogg;
#SAMPLESTART:79.918;
#SAMPLELENGTH:15;
#BPMS:0=122;
#BGCHANGES:-4.000=five fathoms (beatmania II special version).mp4=1.000=0=0=0,
99999=-nosongbg-=1.000=0=0=0 // don't automatically add -songbackground-;
#BGSTAGE:4;

//--------------- dance-single - XLev450X-bSP ----------------
#NOTES:
     dance-single:
     XLev450X:
     Beginner:
     3:
     0,0,0,0,0:
0000
0000
0000
0000
,
0000
0000
0000
0000
,
0000
0000
0000
0000
,
0000
0000
0000
0000
,
0000
0000
0000
0000
,
1000
0000
0000
0000
,
0001
0000
0000
0000
,
1000
0000
0000
0000
,
0001
0000
0000
0000
,
1000
0000
1000
0000
,
1000
0000
0000
0000
,
0001
0000
0001
0000
,
0001
0000
0000
0000
,
1000
0000
0001
0000
,
1000
0000
0000
0000
,
0001
0000
1000
0000
,
0001
0000
0000
0000
,
1001
0000
0000
0000
,
0001
0000
1000
0000
,
0001
0000
0000
0000
,
0001
0000
1000
0000
,
1000
0000
0000
0000
,
1000
0000
0001
0000
,
1000
0000
0000
0000
,
0001
0000
1000
0000
,
0001
0000
1000
0000
,
0001
0000
0000
0000
,
1000
0000
0001
0000
,
1000
0000
0000
0000
,
0001
0000
0000
0000
,
0001
0000
1000
0000
,
1000
0000
0000
0000
,
0001
0000
0001
0000
,
1000
0000
0000
0000
,
0001
0000
0000
0000
,
1000
0000
0000
0000
,
0001
0000
0000
0000
,
1000
0000
0000
0000
,
0001
0000
0000
0000
,
1000
0000
0000
0000
,
0001
0000
0000
0000
,
1001
0000
0000
0000
,
0000
0000
0000
0000
,
1001
0000
0000
0000
,
0000
0000
0000
0000
,
1001
0000
0000
0000
,
0000
0000
0000
0000
,
1001
0000
0000
0000
,
0000
0000
0000
0000
,
1001
0000
0000
0000
,
0000
0000
0000
0000
,
1001
0000
0000
0000
,
0000
0000
0000
0000
,
1001
0000
0000
0000
,
0000
0000
0000
0000
,
1001
0000
0000
0000
,
0000
0000
0000
0000
,
1001
0000
0000
0000
;

//--------------- dance-single - XLev450X-BSP ----------------
#NOTES:
     dance-single:
     XLev450X:
     Easy:
     6:
     0,0,0,0,0:
0000
0000
0000
0000
,
0000
0000
0000
0000
,
0000
0000
0000
0000
,
0000
0000
0000
0000
,
0000
0000
0000
0000
,
0001
0000
0010
1000
,
0100
0000
1000
0001
,
0100
0000
0010
1000
,
2002
0000
0000
3003
,
1000
0100
0001
0000
,
0010
0001
1000
0001
,
0100
1000
0010
0000
,
0001
0100
1000
0010
,
1000
0000
0001
0000
,
0100
0001
0010
0100
,
0010
0000
1000
0000
,
0001
1000
0001
0000
,
0010
1000
0100
0010
,
0001
0010
1000
0000
,
0100
1000
0001
1000
,
0010
1000
0010
0000
,
0001
0000
0100
0000
0001
0100
0001
0000
,
1000
0000
0010
0000
1000
0010
1000
0000
,
0010
0100
0001
0000
,
1000
0001
1000
0000
,
0010
0100
0010
0001
,
1000
0000
0100
0000
1000
0100
1000
0000
,
0010
0100
0001
0010
,
1000
0000
0100
0000
0010
0001
0010
0000
,
0001
1000
0001
0000
,
0010
0000
1000
0000
0010
1000
0010
0000
,
0100
0001
1000
0000
,
0010
1000
0100
0010
,
0001
0000
1000
0010
,
0100
0000
0001
1000
,
0010
1000
0010
0000
0001
0010
0001
0000
,
0100
0010
0100
0000
0001
0000
1000
0000
,
0001
0000
0010
1000
,
0100
0000
0010
0001
,
0100
0001
1000
0001
,
1000
0000
0000
0000
2000
0000
0002
3003
,
0010
1000
0100
0000
,
0010
0001
1000
0001
,
0001
1000
0001
0000
,
0010
1000
1001
1001
,
0001
1000
0001
0000
,
0010
1000
1000
0001
,
0100
1000
0010
0000
,
0100
0010
0001
1000
,
0001
1000
0100
0010
,
0001
0000
0010
0000
1000
0001
1000
0000
,
1000
0100
0001
0100
,
0010
0000
1000
0000
0001
0100
0001
0000
,
1000
0100
0001
0010
,
1000
0000
0001
0000
0100
0010
0100
0000
,
0010
0000
1000
0000
0001
1000
0001
0000
,
0010
1000
0010
0000
0001
0100
0001
0100
,
2002
0000
0000
0000
,
0000
0000
0000
0000
,
3003
0000
0000
0000
;

//--------------- dance-single - XLev450X-DSP ----------------
#NOTES:
     dance-single:
     XLev450X:
     Medium:
     10:
     0,0,0,0,0:
0000
0000
0000
0000
,
0000
0000
0000
0000
,
0000
0000
0000
0000
,
0000
0000
0000
0000
,
0000
0000
0000
0000
,
0001
0000
1000
0000
0010
0000
0100
0001
,
0100
0000
0001
0000
1000
0000
0010
0100
,
0010
0000
1000
0000
0001
0000
1000
0001
,
1000
0000
0000
1001
0000
0000
0000
0000
,
0010
1000
0100
0001
,
0010
0000
0100
0000
1000
0000
0010
0001
,
0010
1000
0100
0001
,
0010
0000
1000
0000
0100
0000
0010
1000
,
0010
0100
0001
1000
,
0001
0000
0100
0000
0010
0000
1000
0010
,
1000
0001
0100
1000
,
0001
0010
0001
0000
1000
0100
1000
0000
,
0001
0000
0000
1000
0000
0000
0000
0000
0000
0000
0000
0000
0010
0000
0100
0000
,
0001
0000
0000
1000
0000
0000
0010
0000
0000
0000
0100
0000
0001
0000
0000
0000
,
0001
0000
0000
1000
0000
0000
0000
0000
0000
0000
0000
0000
0010
0000
1000
0000
,
0001
0000
0000
0100
0000
0000
0010
0000
0000
0000
0001
0000
1000
0000
0000
0000
,
0010
0000
0000
0100
0000
0000
0001
0000
1000
0000
0000
0000
0010
0000
0000
0000
,
0100
0000
0000
1000
0000
0000
0001
0000
0000
0000
0100
0000
0010
0000
1000
0000
,
0001
0000
0000
0010
0000
0000
0000
0000
1000
0000
0000
0000
0100
0000
0001
0000
,
0010
0000
0000
0100
0000
0000
1000
0000
0000
0000
0001
0000
1000
0000
0000
0000
,
0010
0000
0001
0000
1000
0100
0001
0000
,
0010
1000
0010
0000
0100
0010
0100
0000
,
0001
1000
0001
0100
,
0001
0010
0001
0000
1000
0100
1000
0000
,
0010
1000
0001
0100
,
0001
0000
1000
0000
0010
1000
0010
0000
,
0100
0001
0100
0000
0001
1000
0001
0000
,
0010
0001
0010
0000
1000
0100
1000
0000
,
0001
1000
0100
0000
,
0010
1000
0001
0000
,
0100
1000
0010
0100
,
0001
1000
0010
0000
,
1000
0001
1000
0000
,
0010
1000
0100
0000
,
0010
0100
0001
1000
,
0010
0100
0101
1010
,
0010
0001
1000
0000
0001
0100
1000
0000
,
0100
1000
0100
0000
0010
0100
0010
1000
,
0001
1000
0010
0000
1000
0100
0001
0000
,
0100
0001
0010
0000
0001
0010
0001
0100
,
1000
0100
0001
0000
1000
0001
1000
0000
,
0010
0001
0100
0000
0010
1000
0010
0001
,
0100
0001
1000
0000
0001
0010
0100
0000
,
1000
0001
0100
0000
0001
0100
0001
1000
,
0010
0000
0000
1000
0000
0000
0001
0000
0000
0100
0000
0000
0010
0000
0000
0000
,
1000
0000
0000
0001
0000
0000
1000
0000
0000
0001
0000
0000
0010
0000
0000
0000
,
1000
0000
0000
0001
0000
0000
1000
0000
0000
0010
0000
0000
1000
0000
0000
0000
,
0100
0000
0000
1000
0000
0000
0001
0000
0000
0100
0000
0000
0001
0000
0000
0000
,
0010
0000
0000
1000
0000
0000
0100
0000
0000
0001
0000
0000
0100
0000
0000
0000
,
0010
0000
0000
0100
0000
0000
0001
0000
0000
0100
0000
0000
1000
0000
0000
0000
,
0001
0000
0000
1000
0000
0000
0010
0000
0000
0100
0000
0000
0001
0000
0000
0000
,
0001
0000
0000
0010
0000
0000
1000
0000
0000
0001
0000
0000
1000
0000
0010
0000
,
2002
0000
0000
0000
,
0000
0000
0000
0000
,
3003
0000
0000
0000
;

//--------------- dance-single - XLev450X-ESP ----------------
#NOTES:
     dance-single:
     XLev450X:
     Hard:
     13:
     0,0,0,0,0:
0000
0000
0000
0000
,
0000
0000
0000
0000
,
0000
0000
0000
0000
,
0000
0000
0000
0000
,
0000
0000
0000
0000
,
0001
0000
0000
1000
0010
0000
0100
0000
0001
0000
0010
0000
1000
0000
0000
0000
,
0001
0000
0000
1000
0010
0000
0100
0000
0001
0000
0010
0000
0100
0000
0000
0000
,
0001
0000
0000
0001
0010
0000
1000
0000
0010
0000
0100
0000
0010
0000
0000
0000
,
0001
0000
0000
1000
0000
0000
0010
0000
0100
0000
0000
0000
0001
0000
0000
0000
,
1000
0010
1000
0000
0100
0001
0100
0000
,
0001
0000
1000
0000
0010
0000
0100
0000
1000
0000
0001
0000
0010
0000
0000
1000
,
0000
0001
0100
0000
0001
0010
0100
0000
,
1000
0000
0001
0000
1000
0000
0010
0000
0100
0000
0001
0000
0001
0000
0000
1000
,
0000
0010
0100
0000
0001
0010
0100
0000
,
1000
0000
0001
0000
0100
0000
0010
0000
1000
0000
0001
0000
0100
0000
0000
0010
,
0000
1000
0001
0000
0100
1000
0100
0000
,
0010
0000
1000
0000
0001
0000
0100
0000
0010
1000
0010
0000
0100
0000
0001
0000
,
1000
0000
0000
0001
0000
0000
0100
0000
0010
0000
1000
0000
0001
0000
0100
0000
,
0001
0000
0000
1000
0000
0000
0010
0000
0000
0000
0100
0000
0001
0000
0000
0000
,
1000
0000
0000
0001
0000
0000
0100
0000
0000
1000
0000
0000
0010
0000
0100
0000
,
0010
0000
0000
0001
0000
0000
1000
0000
0000
0010
0000
0000
0100
0000
0001
0000
,
1000
0000
0000
0010
0000
0000
1000
0000
0000
0100
0000
0000
0001
0000
0010
0000
,
0100
0000
0000
1000
0000
0000
0010
0000
0000
1000
0000
0000
0100
0000
0001
0000
,
0010
0000
0000
1000
0000
0000
0001
0000
0000
0100
0000
0000
1000
0000
0001
0000
,
1000
0000
0000
0010
0000
0000
1000
0000
0000
0100
0000
0000
0010
0000
0001
0000
,
0010
0000
0001
0000
1000
0000
0000
0000
0010
0000
1000
0000
0100
0000
0001
0010
,
0001
0000
1000
0000
0001
0000
0000
0000
0100
0000
1000
0000
0100
0000
0010
1000
,
0010
0100
0001
0000
0010
0100
1000
0001
,
0010
1000
0001
0000
0100
1000
0100
0000
,
0001
0000
0000
1000
0000
0000
0000
0000
0010
0000
0100
0000
0001
0000
0000
0000
,
1000
0000
0000
0010
0000
0000
0100
0000
0000
0001
0000
0000
1000
0000
0010
0000
,
1000
0000
0000
0100
0000
0000
0001
0000
1000
0000
0010
0000
1000
0000
0000
0000
,
0001
0000
0000
0100
0000
0000
0010
0000
0000
1000
0000
0000
0001
0000
0010
0000
,
1000
0001
0100
0000
0001
0010
1000
0010
,
0100
1000
0001
0000
0010
1000
0100
0000
,
0010
1000
0100
0001
0010
0100
1000
0000
,
0001
0000
0010
0000
1000
0000
0100
0000
0001
0000
1000
0001
1000
0000
0010
0000
,
1000
0010
0100
0000
0001
0010
0001
0000
,
0100
0000
1000
0000
0100
0000
0001
0000
1000
0000
0010
1000
0010
0000
0100
0000
,
0001
0010
1000
0000
0001
0010
1000
0000
,
0100
0010
0100
0000
0101
0000
1010
0000
,
0010
1000
0001
0000
1000
0100
0001
0000
,
0010
0000
1000
0000
0001
0000
1000
0000
0010
0000
1000
0010
1000
0000
0010
0000
,
0100
0001
0010
0000
0001
0100
0001
0000
,
1000
0000
0001
0000
0100
0000
0010
0000
1000
0000
0001
1000
0001
0000
1000
0000
,
0010
0100
0001
0000
1000
0010
0100
0000
,
1000
0000
0001
0000
0010
0000
0100
0000
1000
0000
0001
1000
0001
0000
0010
0000
,
1000
0100
0001
0000
0010
0100
1000
0000
,
0010
0000
1000
0000
0100
0000
0001
0000
0010
0000
1000
0010
1000
0000
0010
0000
,
0100
0001
0010
0100
1000
0001
0010
0100
,
1000
0000
0001
0000
0010
0000
0100
0000
0010
0000
0001
0010
0001
0000
1000
0000
,
0001
0100
1000
0010
0100
1000
0001
0010
,
1000
0000
0100
0000
0001
0000
1000
0000
0010
0000
1000
0010
1000
0000
0010
0000
,
0100
0001
1000
0001
0100
0010
1000
0001
,
0100
0000
0010
0000
1000
0000
0001
0000
0100
0000
0010
0100
0010
0000
1000
0000
,
0001
1000
0010
1000
0100
0001
0010
1000
,
0001
0000
0100
0000
0010
0000
1000
0000
0001
0000
1000
0001
1000
0000
0010
0000
,
2002
0000
0000
0000
,
0000
0000
0000
0000
,
3003
0000
0000
0000
;
