#TITLE:era (step mix);
#ARTIST:TaQ;
#GENRE:DRUM'N'BASS;
#MUSIC:era (step mix).ogg;
#BANNER:era (step mix).png;
#BACKGROUND:era (step mix)-bg.png;
#CDTITLE:./CDTitles/bm IIDX 4th style.png;
#SAMPLESTART:76;
#SAMPLELENGTH:15;
#SELECTABLE:YES;
#BPMS:0=180
,164=90
,196=180
,260=90;
#BGSTAGE:3;

//--------------- dance-single - XLev450X-bSP ----------------
#NOTES:
     dance-single:
     XLev450X:
     Beginner:
     3:
     0,0,0,0,0:
0000
0000
0000
0000
,
0000
0000
0000
0000
,
0000
0000
0000
0000
,
0000
0000
0000
0000
,
0000
0000
0000
0000
,
0000
0000
0000
0000
,
0000
0000
0000
0000
,
0000
0000
0000
0000
,
0000
0000
0000
0000
,
1000
0000
0000
0000
,
0010
0000
0000
0000
,
0001
0000
0000
0000
,
0100
0000
0000
0000
,
0010
0000
0010
0000
,
0010
0000
0000
0000
,
0100
0000
0100
0000
,
0100
0000
0000
0000
,
0001
0000
0000
0000
,
1000
0000
0000
0000
,
0010
0000
0000
0000
,
0100
0000
0000
0000
,
1000
0000
1000
0000
,
0100
0000
0100
0000
,
0010
0000
0010
0000
,
0001
0000
0001
0000
,
0010
0000
0100
0000
,
0001
0000
0000
0000
,
1000
0000
0010
0000
,
0100
0000
0000
0000
,
0001
0000
1000
0000
,
0010
0000
0000
0000
,
0100
0000
0001
0000
,
1000
0000
0000
0000
,
0010
0000
0100
0000
,
0001
0000
0100
0000
,
0010
0000
0000
0000
,
1000
0000
0000
0000
,
0100
0000
0001
0000
,
1000
0000
0010
0000
,
0100
0000
0000
0000
,
0001
0000
0000
0000
,
0001
0000
0000
0000
,
1000
0000
0000
0000
,
0010
0000
0000
0000
,
0100
0000
0000
0000
,
0001
0000
0001
0000
,
1000
0000
1000
0000
,
0100
0000
0100
0000
,
0010
0000
0010
0000
,
0001
0000
0001
0000
,
0001
0000
0000
0000
,
1000
0000
1000
0000
,
1000
0000
0000
0000
,
0010
0000
0010
0000
,
0010
0000
0000
0000
,
0100
0000
0100
0000
,
0100
0000
0000
0000
,
0010
0000
0100
0000
,
0001
0000
1000
0000
,
0010
0000
0100
0000
,
0001
0000
0000
0000
,
1000
0000
1000
0000
,
1000
0000
0010
0000
,
0010
0000
0010
0000
,
0100
0000
0001
0000
,
0100
0000
0010
0000
,
0100
0000
0001
0000
,
1000
1000
0100
0100
,
0010
0010
0001
0001
,
1001
0000
0000
0000
;

//--------------- dance-single - XLev450X-BSP ----------------
#NOTES:
     dance-single:
     XLev450X:
     Easy:
     5:
     0,0,0,0,0:
0000
0000
0000
0000
,
0000
0000
0000
0000
,
0000
0000
0000
0000
,
0000
0000
0000
0000
,
0000
0000
0000
0000
,
0000
0000
0000
0000
,
0000
0000
0000
0000
,
0000
0000
0000
0000
,
0000
0000
0000
0000
,
1000
0010
0100
0000
,
0001
0100
0010
0000
,
1000
0010
0100
0001
,
1000
0000
0010
0000
,
0100
0001
1000
0000
,
0010
0100
0001
0000
,
1000
0000
0010
0000
,
0100
0001
1000
0000
,
1000
1000
1000
1000
,
1000
1000
0010
0000
,
0100
0001
1000
0010
,
0100
0001
0010
0000
,
0100
0001
1000
0010
,
0100
0001
1000
0000
,
0010
0100
0001
0000
,
0010
1000
0100
0000
,
0010
1000
0100
0001
,
1000
0010
0100
0000
,
0010
1000
0001
0100
,
0010
1000
0010
0000
,
0100
0001
1000
0010
,
0100
0001
1000
0010
,
0100
0001
1000
0010
,
0100
0001
1000
0000
,
0001
0000
1000
0000
,
0010
0000
0100
0000
,
0001
0000
0100
0000
,
1000
0000
0001
0000
,
0010
0100
0001
0000
,
1000
0010
0100
0000
,
0001
1000
0010
0100
,
0001
1000
0010
0000
,
0200
0300
0002
0003
0020
0030
0002
0003
,
2000
3000
0020
0030
0200
0300
0020
0030
,
2000
3000
0002
0003
0020
0030
0200
0300
,
0002
0003
2000
3000
0020
0000
0000
0030
,
0200
0300
0002
0003
2000
3000
0020
0030
,
0200
0300
0020
0030
0002
0003
0020
0030
,
2000
3000
0002
0003
0200
0300
0020
0030
,
2000
3000
0200
0300
0002
0003
0200
0300
,
0010
1000
0001
0000
,
0100
0010
1000
0000
,
0010
0100
0001
1000
,
0010
0100
0001
0000
,
0010
0001
0100
0000
,
1000
0010
0100
0000
,
0010
0001
0100
0010
,
1000
0000
0001
0000
,
0100
0010
1000
0010
,
0100
0001
1000
0010
,
0000
0100
0000
0001
,
0000
0100
0000
0010
,
0001
1000
0010
0100
,
0001
0100
0010
1000
,
0100
0010
0000
0100
,
0000
0001
0010
0100
,
2000
0000
0000
3000
0020
0000
0000
0030
,
0200
0000
0000
0300
0002
0000
0000
0003
,
0020
0000
0000
0030
0200
0000
0000
0300
,
2000
0000
0000
3000
0020
0000
0000
0030
,
0220
0330
0000
0000
;

//--------------- dance-single - XLev450X-DSP ----------------
#NOTES:
     dance-single:
     XLev450X:
     Medium:
     8:
     0,0,0,0,0:
0000
0000
0000
0000
,
0000
0000
0000
0000
,
0000
0000
0000
0000
,
0000
0000
0000
0000
,
0000
0000
0000
0000
,
1000
0000
0010
0000
,
0000
0100
0001
0000
,
1000
0000
0000
0010
0100
0000
0000
0000
,
0000
1001
0000
0110
,
0001
1000
0010
0100
,
0001
0000
1000
0000
0010
0100
0001
0000
,
1000
0010
0100
0001
,
1000
0000
0100
0000
1000
0100
1000
0000
,
0010
0000
0100
0000
0001
0100
0010
0000
,
1000
0000
0001
0000
0100
0010
1000
0000
,
0002
0003
0200
0300
,
0010
1000
0002
0003
,
0100
0010
1000
0001
,
0100
0010
2000
3000
,
0001
0100
0010
1000
,
0001
0100
0020
0030
,
0100
0001
0100
0000
,
1000
0010
0100
0000
,
0001
1000
0010
0100
,
0001
1000
0010
0000
,
0100
0001
1000
0010
,
0100
0001
1000
0000
,
0010
0100
0001
1000
,
0010
0100
1001
0000
,
0010
0100
0001
1000
,
0010
0100
1000
0000
,
1100
0110
1001
0110
,
1001
0110
0011
1100
,
2002
0000
3003
0000
,
0010
0000
1000
0010
,
0100
0000
0001
1000
,
0010
0000
0100
0000
0001
1000
0010
0000
,
0100
0010
1000
0001
,
0100
0000
0010
0000
,
1000
0010
0100
0000
,
0001
1000
0010
0000
,
0100
0001
1000
0010
0100
0001
1000
0010
,
0100
0001
1000
0010
0100
0001
1000
0010
,
0100
0001
1000
0010
0100
0001
1000
0000
,
0010
0100
0001
0000
1000
0010
0100
0000
,
0001
1000
0010
0100
0001
1000
0010
0100
,
0001
1000
0010
0100
0001
1000
0010
0100
,
0001
0000
1000
0000
0010
0100
0001
0000
,
1000
0010
0100
0001
1000
0010
0100
0000
,
0010
0001
0010
0000
0100
0000
0001
0000
,
0010
0001
0010
0001
0100
0000
0010
0000
,
1000
0001
0100
0010
1000
0001
0100
0010
,
1000
0010
0100
0001
,
0010
0001
0010
0000
0100
1000
0100
0000
,
0010
0100
0001
0000
0010
0001
0100
0000
,
0010
1000
0001
0100
0010
1000
0001
0000
,
0100
0010
1000
0001
,
0100
0010
1000
0000
0001
0100
0010
0000
,
1000
0001
0100
0000
0010
1000
0001
0000
,
0010
0000
1000
0010
,
0100
0001
1000
0000
0010
0000
0100
0000
,
0001
1000
0010
0000
0100
0001
1000
0000
,
0010
0100
0001
0000
1000
0010
0100
0000
,
0010
0001
0010
0000
1000
0010
0100
0000
,
0001
1000
0010
0100
0001
1000
0010
0000
,
0100
0001
1000
0010
0100
0001
1000
0010
,
0100
0000
0001
0000
1000
0010
0100
0000
,
0001
1000
0010
0100
0001
1000
0010
0100
,
0001
0000
1000
0000
0010
0100
0001
1000
,
0022
0033
0000
0000
;

//--------------- dance-single - XLev450X-ESP ----------------
#NOTES:
     dance-single:
     XLev450X:
     Hard:
     13:
     0,0,0,0,0:
0000
0000
0000
0000
,
0000
0000
0000
0000
,
0000
0000
0000
0000
,
0000
0000
0000
0000
,
0000
0000
0000
0000
,
1100
0000
0101
0000
,
0000
0110
1100
0000
,
0011
0000
0000
1100
0011
0000
0000
0000
,
0000
1001
0000
0110
,
0100
0001
1000
0010
0100
0001
1000
0000
,
0010
0100
0001
1000
0010
0100
0001
0000
,
0010
0001
0010
0000
0100
1000
0100
0000
,
0010
0100
0001
1000
0010
0100
0001
0000
,
1000
0010
0100
0001
1000
0010
0100
0000
,
0001
1000
0010
0100
0001
1000
0010
0000
,
0100
0001
0010
0000
0100
1000
0001
0000
,
0010
0100
0001
1000
0010
0000
1001
0000
,
0010
0100
0001
1000
0010
0100
0001
1000
,
0010
0100
0001
1000
0010
0100
0001
1000
,
0010
0100
0001
1000
0010
0100
0001
0100
,
0010
0001
1000
0010
0100
0001
0010
0000
,
0100
0001
1000
0010
0100
0001
1000
0010
,
0100
0001
1000
0010
0100
0001
1000
0010
,
0100
0001
1000
0010
0100
0001
1000
0010
,
0100
0001
1000
0010
0100
0001
1000
0000
,
0010
0100
0001
0000
1000
0001
0100
0000
,
0010
1000
0001
0100
0010
1000
0001
0000
,
0100
0010
0001
0000
0010
0001
0010
0000
,
0100
1000
0100
0001
1000
0010
0100
0000
,
0001
1000
0010
0000
0100
0001
1000
0000
,
0010
0100
0001
1000
0010
0100
0001
0000
,
1000
0010
0100
0000
0001
1000
0010
0000
,
0100
0001
1000
0010
0100
0001
0010
0000
,
2000
0000
0010
0000
,
0100
0000
0001
0000
,
0010
0000
0100
0000
,
0010
0000
0001
3000
,
0010
0001
0010
0000
0100
1000
0100
0000
,
0010
0100
0001
0000
1000
0010
0100
0000
,
0001
1000
0010
0000
0100
0001
1000
0000
,
0010
0100
0001
1000
0010
0001
0100
0000
,
0100
0010
0100
0010
0001
0010
0100
1000
0100
1000
0001
0010
0001
0100
0010
1000
,
0100
0010
0001
0010
0100
1000
0010
0100
0010
0100
0010
1000
0001
1000
0100
0010
,
0100
1000
0001
1000
0010
0100
0001
0010
0100
0010
0001
1000
0010
0100
0001
1000
,
0100
0010
0001
0100
0001
1000
0100
0010
0001
0100
0010
1000
0001
0100
0001
0000
,
1000
0010
0100
0010
0001
1000
0010
0100
0010
0100
0010
1000
0100
1000
0010
1000
,
0010
0100
0010
0100
0001
0100
0010
1000
0010
0100
0010
1000
0001
0010
0001
1000
,
0010
0100
0001
0100
0010
1000
0001
1000
0010
1000
0100
0010
0001
1000
0001
1000
,
0010
0000
0000
0000
0000
0000
0000
0000
0000
0000
0000
0000
1000
0000
0000
0000
0000
0000
0000
0000
0000
0000
0000
0000
0010
0000
0000
0000
0000
0000
0000
0000
0000
0000
0000
0000
0100
0000
0000
0000
0000
0000
0000
0000
0000
0000
0000
0000
0010
0000
0000
0000
0000
0000
0000
0000
0000
0000
0000
0000
1000
0000
0000
0000
0000
0000
0000
0000
0000
0000
0000
0000
0001
0000
0000
0000
0000
0000
0000
0000
0000
0000
0000
0000
0010
0000
0000
0000
0000
0000
0000
0000
0000
0000
0000
0000
0100
0000
0000
0000
0000
0000
0000
0000
0000
0000
0010
0000
0000
0000
0000
0000
0000
0000
0000
0001
0000
0000
0000
0000
0000
0000
0000
0000
0000
0010
0000
0000
0000
0000
0000
0000
0000
0000
0100
0000
0000
0000
0000
0000
0000
0000
0000
0000
1000
0000
0000
0000
0000
0000
0000
0000
0000
0000
0010
0000
0000
0000
0000
0000
0000
0000
0000
0100
0000
0000
0000
0000
0000
0000
0000
0000
0000
0001
0000
0000
0000
0000
0000
0000
0000
0000
0100
0000
0000
0000
0000
0000
0000
0000
0000
0000
,
0010
1000
0001
0100
0010
0000
1001
0000
,
0010
0100
0001
1000
0010
0000
1100
0000
,
0001
1000
0010
0100
0001
1000
0010
0100
,
0001
0000
1000
0000
0010
0000
0100
0000
0001
0010
0001
0100
0010
1000
0010
0100
,
0001
0010
0001
0000
0100
1000
0100
0000
,
0010
1000
0001
0000
0100
0010
1000
0000
,
0001
0100
0010
1000
0001
0100
0010
0001
,
0001
0100
0010
1000
0001
0100
0001
1000
0010
0100
0001
0100
0010
0100
0001
0000
,
0100
0010
1000
0000
0001
0100
0010
0000
,
1000
0100
0001
0000
0010
0001
1000
0000
,
0200
0000
0010
0000
1000
0300
0010
0000
,
1000
0001
0100
0010
1000
0001
0100
0000
,
0010
1000
0001
0000
0100
0010
1000
0000
,
0001
0100
0010
0000
1000
0001
0100
0000
,
0010
1000
0001
0100
0010
1000
0001
0100
,
0010
0000
1000
0000
0001
0000
0100
0000
0010
0100
0010
1000
0010
1000
0100
1000
,
0010
0100
0001
0100
0001
0100
0010
1000
0100
0010
0100
1000
0001
0100
0010
1000
,
0001
0010
0001
1000
0010
0100
0001
0010
0100
0010
0100
0010
0001
0100
0001
1000
,
0100
0010
0001
0010
0001
0010
0100
1000
0100
0010
0001
0100
0010
1000
0001
0100
,
0010
1000
0010
1000
0001
1000
0001
0010
0001
1000
0001
0010
1000
0100
0001
0010
,
2200
3300
0000
0000
;

//--------------- dance-single - XLev450X-CSP ----------------
#NOTES:
     dance-single:
     XLev450X:
     Challenge:
     16:
     0,0,0,0,0:
0000
0000
0000
0000
,
0000
0000
0000
0000
,
0000
0000
0000
0000
,
0000
0000
0000
0000
,
0000
0000
0000
0000
,
0001
0000
1000
0000
,
0000
0010
0100
0000
,
0001
0000
0000
1000
0010
0000
0100
0000
,
0001
1000
0000
0001
,
0010
0001
0010
0000
1000
0010
0100
0001
,
1000
0000
0010
0100
0010
0000
0001
0000
1000
0000
0100
0000
0010
0000
0000
0000
,
0100
0001
0100
0000
0010
0000
0000
0000
0001
0000
1000
0000
0000
0000
0010
0000
,
0100
0000
0000
0000
0001
0010
0001
0000
0010
1000
0010
0000
0001
0000
1000
0000
,
0001
0000
1000
0000
0010
1000
0010
0000
0001
0000
1000
0000
0100
0000
0001
0100
,
0001
0000
1000
0010
1000
0000
0100
0000
0001
0000
0000
0000
0100
0000
0000
0000
,
0010
0001
0010
0000
1000
0010
0100
0000
,
0001
0000
0010
0000
0001
0000
0010
0000
0001
0100
0010
1000
0010
0100
0001
1000
,
0100
0001
1000
0010
0100
0001
1000
0000
,
0010
0100
0001
1000
0010
0000
1001
0000
,
1000
0010
0100
0001
1000
0000
0010
0001
,
0000
0000
1000
0000
0010
0000
0100
0000
0001
0010
0001
0000
1000
0000
0100
0000
,
0010
0100
0001
1000
0010
0001
0010
0000
,
1000
0001
1000
0000
0001
1000
0001
0000
,
0100
0010
1000
0000
0001
0100
0010
0000
,
1000
0000
0001
0000
0100
0000
0010
0001
0010
0000
1000
0000
0010
0000
0000
0000
,
0100
0001
1000
0010
0100
0001
1000
0000
,
0010
0000
0001
0000
1000
0000
0010
0000
0100
0000
0010
1000
0010
0000
0000
0000
,
0100
0000
0001
0000
1000
0000
0010
0000
0100
0000
0001
0000
1000
0000
0001
1000
,
0010
0000
0100
0000
0001
0000
0100
0001
0100
0000
0010
0000
1000
0000
0000
0000
,
0001
0100
0010
0000
1000
0010
0100
0010
,
1000
0010
0100
0000
0001
0100
0010
0000
1000
0000
0100
0000
0001
0000
0100
0000
,
0001
0100
0001
0000
1000
0010
1000
0000
,
0001
0000
0010
0000
0010
0001
0010
0000
1000
0000
0100
1000
0100
0000
0000
0000
,
0010
0000
1000
0000
0001
0100
0010
0001
,
1000
0010
0100
0001
,
0010
0000
0001
1000
0010
0000
0100
0000
1000
0000
0010
0001
1000
0000
0100
0000
,
0001
0000
0100
1000
0010
0000
0001
0000
1000
0000
0001
1000
0100
0000
0010
0000
,
0001
1000
0001
0000
0100
0000
0000
0000
0010
0000
1000
0001
1000
0000
0000
0000
,
0100
0000
0010
1000
0001
0000
0010
0000
0100
0000
0010
0001
1000
0000
0001
0000
,
0100
0000
0010
0100
0001
0000
1000
0000
0100
0000
0010
0001
1000
0000
0010
0000
,
1000
0000
0010
0000
1000
0100
0001
0000
0100
0000
0001
1000
0010
0000
1000
0000
,
0001
0000
1000
0000
0010
0100
0001
0000
1000
0010
0100
0000
0001
0010
0001
0000
,
1000
0010
1000
0000
0100
0001
1000
0010
0100
0001
1000
0000
0010
0000
0100
0000
,
0010
0001
0010
0000
1000
0010
0100
0001
1000
0010
0100
0000
0001
0000
1000
0000
,
0101
0000
1010
0000
0010
0000
0100
0000
0001
1000
0010
0100
0001
0000
1000
0000
,
0001
0100
0001
0000
1000
0010
1000
0000
0010
0100
0010
0000
0001
0010
0001
0000
,
1000
0100
1000
0000
0010
0100
0001
0000
1000
0010
0100
0000
0001
1000
0010
0000
,
0100
0001
1000
0010
0100
0001
1000
0000
0010
0100
0001
1000
0010
0100
0001
0000
,
1000
0000
0010
0000
0100
0000
0001
0000
1000
0000
0000
0000
0010
0000
0000
0000
0001
0100
1000
0000
0001
0000
0100
0000
0010
0100
1000
0010
0001
1000
0100
0001
,
0010
0000
1000
0000
0001
0000
0100
0000
0010
1000
0010
0000
0001
0000
0000
0100
,
0000
0000
0010
0000
1000
0001
1000
0000
0010
0000
0001
0010
0001
0000
0000
1000
,
0000
0000
0010
0000
0100
0001
0100
0000
0010
1000
0010
0000
0001
0000
0000
1000
,
0000
0000
0001
0000
0100
0000
0010
0000
1000
0001
1000
0000
0100
0000
0001
0000
,
0010
1000
0010
0000
0100
0000
0010
0000
0001
0100
0001
0000
1000
0000
0100
0000
,
0010
1000
0010
0000
0001
0000
0100
0000
0010
0100
0010
0000
1000
0000
0010
0000
,
0001
0100
0010
0001
0100
0000
1000
0000
0010
1000
0010
1000
0100
0000
0010
0000
,
0100
0001
1000
0100
0001
0000
1000
0000
0010
1000
0001
0100
0020
0000
0000
0030
,
1000
0000
0001
0000
0010
0001
0010
0000
,
1000
0000
0010
0000
0100
0000
0001
0000
1000
0010
0001
0010
0001
0000
0100
0000
,
1000
0010
0100
0000
0001
1000
0010
0000
,
0100
0000
0001
0000
1000
0000
0001
0000
0010
1000
0010
0000
0100
0000
0000
0000
,
0001
0000
1000
0000
0010
0000
0100
0001
0100
0000
1000
0100
1000
0000
0001
0000
,
0010
0000
0100
0000
0001
0000
1000
0010
1000
0000
0100
0010
0100
0000
0001
0000
,
1000
0001
0100
0000
0010
1000
0001
1000
,
0001
0100
0010
1000
0010
1000
0001
0010
0100
1000
0010
1000
0001
0100
0001
0100
,
0001
0100
1000
0000
0001
1000
0010
0000
0100
0001
1000
0000
0010
0100
0001
0000
,
0010
0001
1000
0010
0100
0000
0001
0000
1000
0001
0100
0010
1000
0001
0100
0000
,
0010
0000
1000
0000
0001
0100
0010
0000
1000
0001
0100
0000
0010
1000
0001
0000
,
0100
0000
0010
0000
1000
0000
0001
0000
0100
0000
0000
0000
0010
0000
0000
0000
1000
0100
0001
0000
0100
0000
0010
0000
1000
0010
0001
0000
0100
0000
0020
0000
,
0000
0030
0000
0000
;
