#TITLE:blackout;
#ARTIST:louis wolf;
#GENRE:TRAP;
#MUSIC:blackout.ogg;
#BANNER:blackout.png;
#BACKGROUND:blackout-bg.png;
#SAMPLESTART:18.864;
#SAMPLELENGTH:15;
#OFFSET:-0.077;
#BPMS:0=204;
#BGSTAGE:30;

//--------------- dance-single - XLev450X-bSP ----------------
#NOTES:
     dance-single:
     XLev450X:
     Beginner:
     5:
     0,0,0,0,0:
0000
0000
0000
0000
,
0000
0000
0000
0000
,
0000
0000
0000
0000
,
0000
0000
0000
0000
,
0000
0000
0000
0000
,
0000
0000
0000
0000
,
0000
0000
0000
0000
,
0000
0000
0000
0000
,
0000
0000
0000
0000
,
0000
0000
0000
0000
,
0000
0000
0000
0000
,
0000
0000
0000
0000
,
0000
0000
0000
0000
,
0000
0000
0000
0000
,
0000
0000
0000
0000
,
0000
0000
0000
0000
,
0010
0010
0010
0000
,
0001
0000
1000
0010
,
0100
0001
0000
1000
,
0000
0010
0100
0001
,
0000
0010
0000
0100
,
0000
0001
1000
0010
,
0000
0100
0000
0001
,
0000
0100
0001
1000
,
0000
0010
0000
0100
,
0000
0001
1000
0010
,
0000
0100
0000
0001
,
0000
1000
0010
0100
,
0001
1000
0000
0010
,
0000
0100
0000
0001
,
1000
0010
0000
0100
,
0000
0001
1000
0010
,
0100
0001
0000
0100
,
0000
0010
0000
1000
,
0001
0100
0000
0010
,
0000
1000
0001
0100
,
0010
0001
0000
1000
,
0000
0010
0000
0100
,
0001
1000
0000
0010
,
0000
0100
0001
1000
,
0000
0010
0000
0100
,
0000
0001
1000
0010
,
0000
0100
0000
0001
,
0000
1000
0010
0100
,
0000
0001
0000
0100
,
0000
0001
1000
0010
,
0000
0100
0000
1000
,
0000
0010
0100
0001
,
0000
1000
0000
0010
,
0000
0100
0000
0001
,
1000
0010
0000
0100
,
0000
0001
1000
0010
,
0000
0100
0000
0001
,
1000
0010
0100
0001
,
0000
1000
0000
0010
,
0000
0100
0001
1000
,
0010
0100
0000
0001
,
0000
1000
0000
0010
,
0100
1000
0000
0001
,
0000
0100
0010
1000
,
0000
0001
0000
0100
,
0000
0010
0001
1000
,
0000
0010
0000
0100
,
0000
0001
1000
0010
,
0000
0100
0000
0001
,
0000
1000
0010
1000
,
0000
0001
0000
0100
,
0010
1000
0001
1000
,
0101
0000
0000
0000
;

//--------------- dance-single - XLev450X-BSP ----------------
#NOTES:
     dance-single:
     XLev450X:
     Easy:
     7:
     0,0,0,0,0:
0000
0000
0000
0000
,
0000
0000
0000
0000
,
0000
0000
0000
0000
,
0000
0000
0000
0000
,
0000
0000
0000
0000
,
0000
0000
0000
0000
,
0000
0000
0000
0000
,
0000
0000
0000
0000
,
1000
0010
0100
0001
,
0010
1000
0001
0100
,
0000
0001
0000
0000
1000
0000
0010
0000
,
0100
0000
0001
0000
0000
1000
0000
0000
,
0010
0000
0100
0000
0000
0001
0000
0000
,
1000
0010
0100
0001
,
0000
1000
0000
0000
0010
0000
0001
0000
,
0010
0000
1000
0000
0000
0100
0000
0000
,
0001
0000
1000
0000
0000
0001
0000
0000
,
0100
0000
0010
1000
,
0000
0001
0000
0100
,
0010
1000
0000
0001
,
0100
0010
1000
0000
,
0001
0000
0100
0010
,
0001
1000
0000
0001
,
0100
0010
0000
1000
,
0001
0000
0100
0000
0000
0010
0000
0000
,
1000
0000
0001
0100
,
0000
0010
0000
0000
0001
0000
1000
0000
,
0010
0000
0100
0000
0000
0001
0000
0000
,
1000
0000
0010
0000
0000
0100
0000
0000
,
0001
0000
1000
0010
,
0100
0001
0000
1000
,
0010
0100
0000
0001
,
1000
0010
0000
0100
,
0000
0001
0000
1000
,
0100
0001
1000
0010
,
0100
0001
1000
0010
,
0100
0000
0001
0000
0000
1000
0000
0000
,
0010
0000
0100
0001
,
1000
0010
0000
0100
,
0000
0001
1000
0001
,
0100
0000
0010
0000
0000
1000
0000
0000
,
0001
0000
0100
0010
,
0001
1000
0000
0010
,
0100
0001
1000
0010
,
0100
0000
0001
0000
0000
1000
0000
0000
,
0010
0000
0100
0001
,
0010
1000
0000
0001
,
0000
0100
0010
1000
,
0001
0000
0100
0000
0000
0010
0000
0000
,
1000
0000
0001
0100
,
0010
0001
0000
1000
,
0010
0000
0100
0000
0000
0001
0000
0000
,
1000
0000
0010
0000
0000
0100
0000
0000
,
0001
0000
0010
1000
,
0001
0100
0000
1000
,
0001
0000
0100
0000
0000
0010
0000
0000
,
1000
0000
0001
0000
0000
1000
0000
0000
,
0100
0000
0010
0001
,
0010
0001
0000
1000
,
0010
0100
1000
0001
,
0100
0000
0010
0000
0000
1000
0000
0000
,
0001
0000
0010
0100
,
0001
1000
0000
0010
,
0000
0100
0001
1000
,
0010
0000
0100
0000
0000
0001
0000
0000
,
1000
0000
0010
0100
,
0000
0001
0000
0000
1000
0000
0000
0000
,
0010
0000
0100
0000
0000
0001
0000
0000
,
1000
0000
0000
0000
;

//--------------- dance-single - XLev450X-DSP ----------------
#NOTES:
     dance-single:
     XLev450X:
     Medium:
     10:
     0,0,0,0,0:
0000
0000
0000
0000
,
0000
0000
0000
0000
,
0000
0000
0000
0000
,
0000
0000
0000
0000
,
0000
0000
0000
0000
,
0000
0000
0000
0000
,
0000
0000
0000
0000
,
0000
0000
0000
0000
,
1000
0010
0100
0000
,
0001
1000
0010
0100
,
0000
0001
0000
0000
1000
0000
0010
0000
,
0100
0000
0001
0000
0000
1000
0000
0000
,
0010
0000
0001
0010
0001
0000
1000
0000
,
0010
0100
0001
1000
,
0000
0010
0000
0000
0100
0000
0001
0000
,
1000
0000
0010
0000
0000
0100
0000
0000
,
0001
0000
1000
0000
0000
0010
0000
0000
,
0100
0000
0000
0001
0000
0000
1000
0000
,
0000
0010
0000
0000
0100
0000
0001
0000
,
1000
0000
0010
0000
0001
0010
0001
0000
,
1000
0000
0010
0000
0100
1000
0000
0000
,
0010
0100
0001
0010
,
0000
0100
0000
0000
0001
0000
1000
0000
,
0010
0000
0100
0000
0000
0001
0000
0000
,
0010
0000
1000
0001
0100
0000
0010
0000
,
1000
0001
0010
0100
,
0000
0001
0000
0000
1000
0000
0010
0000
,
0100
0000
0001
0000
0000
1000
0000
0000
,
0010
0000
1000
0001
0100
0000
0010
0000
,
1000
0001
0100
0010
,
0000
1000
0000
0000
0001
0000
0100
0000
,
0010
0000
1000
0000
0000
0001
0000
0000
,
0010
0000
0100
0001
1000
0000
0010
0000
,
0100
0001
1000
0010
,
0000
0001
0000
1000
0010
0000
0100
0000
,
0001
0000
1000
0000
0000
0010
0000
0000
,
0100
0000
0001
0000
0000
1000
0000
0000
,
0001
0000
0010
0000
0100
0000
0001
0010
,
0001
1000
0010
0100
,
1000
0000
0010
0100
1000
0000
0001
0000
,
0010
0000
0100
0001
1000
0000
0010
0000
,
0100
0001
0010
0001
,
0000
1000
0000
0000
0010
0000
0100
0000
,
0001
0000
1000
0000
0000
0010
0000
0000
,
0100
0000
0001
0000
0000
1000
0000
0000
,
0001
0100
0010
0001
,
0000
1000
0000
0000
0010
0000
0100
0000
,
0001
0000
1000
0000
0000
0010
0000
0000
,
0100
0000
0001
0000
1000
0010
0000
0100
,
0001
1000
0010
0100
,
0000
0001
0000
0000
1000
0000
0010
0000
,
0100
0000
0001
0000
1000
0010
0000
0100
,
0001
0000
1000
0000
0010
0100
0000
0001
,
1000
0010
0100
0001
,
0000
1000
0000
0000
0010
0000
0100
0000
,
0001
0000
1000
0000
0000
0010
0000
0000
,
0100
0000
0001
0000
0000
1000
0000
0000
,
0010
0000
0000
0100
0000
0000
0001
0000
,
0000
1000
0000
0000
0010
0000
0100
0000
,
0001
0000
1000
0000
0000
0010
0000
0000
,
0100
0000
0001
0000
1000
0010
0000
0100
,
0001
1000
0010
0100
,
0000
0001
0000
0000
1000
0000
0010
0000
,
0100
0000
1000
0000
0000
0001
0000
0000
,
0100
0000
0010
0000
0000
1000
0000
0000
,
0001
0100
0010
1000
,
0000
0001
0000
0000
0100
0000
0010
0000
,
1000
0000
0001
0000
0000
0100
0000
0000
,
0010
0000
0000
0000
;

//--------------- dance-single - XLev450X-ESP ----------------
#NOTES:
     dance-single:
     XLev450X:
     Hard:
     14:
     0,0,0,0,0:
0000
0000
0000
0000
,
0000
0000
0000
0000
,
0000
0000
0000
0000
,
0000
0000
0000
0000
,
0000
0000
0000
0000
,
0000
0000
0000
0000
,
0000
0000
0000
0000
,
0000
0000
0000
0000
,
0001
1000
0000
0010
0100
0000
0001
0000
,
1000
0000
0010
0000
0100
0001
0000
1000
,
0000
0010
0100
0000
0001
0000
1000
0000
,
0010
0000
0100
0000
0001
1000
0000
0000
,
0010
0000
0100
0000
0001
1000
0000
0000
,
0010
0100
0001
1000
,
0010
0100
0000
1000
0001
0000
1000
0000
,
0010
0000
1000
0000
0001
0100
0000
0000
,
0010
0000
1000
0001
0100
0000
1000
0000
0010
0000
0100
0000
0000
0000
0001
0000
,
1000
0000
0010
0000
0100
0000
0001
1000
,
0010
0100
0001
0010
,
0001
1000
0010
0000
0100
0000
0001
0000
,
1000
0000
0001
0000
0100
0000
0010
0001
1000
0000
0001
0000
0000
0000
0100
0000
,
0010
0000
1000
0000
0001
0000
0100
0010
,
1000
0001
0100
0010
,
0001
1000
0010
0000
0100
0001
0000
1000
,
0010
0001
1000
0010
0100
0000
0000
0000
0001
0000
1000
0000
0000
0000
0010
0000
,
0100
0000
0001
0000
1000
0000
0010
0001
,
0010
1000
0010
0000
0100
0000
0001
0000
,
1000
0000
0001
0100
0010
1000
0001
0000
,
0100
0001
0010
0000
1000
0000
0000
0000
0001
0010
1000
0000
0010
0100
1000
0000
,
0001
0000
0100
0000
0010
1000
0001
0000
,
0100
0010
0000
1000
0001
0000
0100
0000
,
0010
0000
1000
0001
0100
0010
1000
0000
,
0001
0000
0100
0000
0010
0000
0000
0000
1000
0100
0001
0000
0000
0000
0100
0000
,
0001
0000
1000
0000
0010
0100
0001
0000
,
1000
0010
0100
0000
0001
0000
1000
0000
,
0010
0100
0001
0000
1000
0010
0000
0100
,
0001
0000
0000
0000
1000
0000
0010
0001
0100
0000
0000
1000
0000
0000
0001
0000
,
1000
0000
0010
0000
0100
0000
0001
1000
,
0010
0100
0001
0000
1000
0000
0010
0000
,
0001
1000
0010
0100
0001
1000
0010
0000
,
0001
0000
1000
0000
0010
0000
0000
0000
0100
0000
0001
1000
0000
0000
0010
0000
,
0001
0000
1000
0000
0010
0000
0100
0001
,
1000
0010
0100
0001
,
1000
0010
0100
0000
0001
0000
0010
0000
,
0001
0000
1000
0000
0010
0000
0100
0000
1000
0001
0100
0000
0010
0000
0000
0000
,
0100
0000
0001
1000
0010
0000
0100
0000
,
0001
1000
0010
0000
0100
0000
0001
0000
,
1000
0000
0010
0000
0100
0001
1000
0000
,
0010
0000
0100
1000
0001
0000
1000
0001
0010
0000
0100
0000
0000
0000
0001
0000
,
1000
0000
0001
0000
0100
0000
0010
1000
,
0001
0100
0010
0000
1000
0000
0001
0000
,
0100
0010
1000
0000
0001
0000
0100
0000
,
0010
0000
0001
0100
1000
0001
0010
1000
0100
0010
0001
0010
0100
0000
1000
0000
,
0010
0000
0100
0000
0001
0000
1000
0010
,
0100
0001
1000
0000
0010
0000
0100
0000
,
1000
0000
0010
0100
0001
1000
0010
0000
,
0100
0000
0001
0000
1000
0000
0000
0000
0010
0001
0100
0010
1000
0000
0001
0000
,
1000
0000
0010
0000
0100
0000
0001
1000
,
0010
0100
0001
0000
0010
0000
0001
0000
,
1000
0010
0100
0000
0001
1000
0010
0000
,
0100
0000
0001
0000
1000
0000
0000
0000
0010
0001
0100
1000
0010
0000
0001
0000
,
1000
0000
0010
0000
0100
0000
0001
1000
,
0010
0100
0001
0000
0010
0000
0100
0000
,
0001
0000
1000
0010
0100
0001
1000
0000
,
0010
0100
0001
0000
1000
0000
0000
0000
,
0001
1000
0010
0100
,
0000
0001
0000
0000
1000
0000
0010
0000
,
0100
0000
0001
0000
0000
1000
0000
0000
,
0010
0000
0000
0000
;

//--------------- dance-single - XLev450X-CSP ----------------
#NOTES:
     dance-single:
     XLev450X:
     Challenge:
     15:
     0,0,0,0,0:
0000
0000
0000
0000
,
0000
0000
0000
0000
,
0000
0000
0000
0000
,
0000
0000
0000
0000
,
0000
0000
0000
0000
,
0000
0000
0000
0000
,
0000
0000
0000
0000
,
0000
0000
0000
0000
,
0001
0010
1000
0000
0010
0000
0100
0000
0001
0000
1000
0000
0000
0000
0010
0000
,
0001
0000
1000
0000
0010
0000
0000
0000
0100
0000
0000
0000
1000
0010
0001
0000
,
0100
0010
1000
0000
0001
0000
0100
0000
,
0010
0000
0001
0100
1000
0000
0010
0000
0100
0000
0001
0000
1000
0000
0000
0000
,
0010
1000
0100
0000
0001
0000
0010
0000
1000
0000
0001
0000
0000
0000
0100
0000
,
0001
0000
1000
0000
0010
0000
0000
0000
0100
0000
0000
0000
0001
0010
1000
0000
,
0010
0001
0100
0000
1000
0000
0000
0000
0001
0000
0000
0000
0100
0000
0000
0000
,
0010
0001
1000
0000
0001
1000
0100
0000
0010
0000
0000
0000
1000
0000
0000
0000
,
0100
0010
0001
1000
0100
0000
0001
0000
1000
0000
0100
0000
0000
0000
0010
0000
,
0100
0000
0000
0000
0001
0000
1000
0000
0001
0000
0010
0000
0000
0000
0100
1000
,
0001
1000
0010
0000
0100
0000
0001
0000
,
1000
0010
0100
0001
1000
0010
0100
0000
,
0001
0100
1000
0010
0100
0000
0001
0000
1000
0000
0100
0000
0000
0000
0010
0000
,
0001
0000
1000
0000
0010
0000
0100
0001
,
1000
0010
0100
0000
0001
0000
1000
0000
,
0100
0001
1000
0000
0010
0100
0000
0001
,
0010
1000
0010
1000
0001
0100
0010
0100
0001
0000
1000
0000
0000
0000
0010
0000
,
1000
0000
0001
0000
0100
0000
0010
0001
,
1000
0010
0100
0000
0001
0000
0010
0000
,
1000
0000
0010
0100
0001
1000
0010
0000
,
0001
0100
1000
0001
0100
0000
0001
0000
0010
0000
1000
0000
0000
0000
0010
0000
,
0100
0000
0001
0000
1000
0000
0001
0100
,
0010
1000
0001
0000
0010
0000
0100
0000
,
0001
1000
0010
0000
0100
0001
0000
1000
,
0010
0001
1000
0000
0100
0000
0010
0100
0001
0000
1000
0000
0000
0000
0010
0000
,
0100
0000
0001
0000
1000
0000
0010
0100
,
0001
1000
0001
0000
0100
0000
0010
0000
,
0001
1000
0010
0000
0100
0001
1000
0000
,
0010
1000
0100
0000
0001
0000
0010
0000
1000
0000
0010
0000
0000
0000
0100
0000
,
0001
0000
0000
0000
0010
0000
0000
0000
1000
0000
0000
0000
0001
0010
0100
0000
,
0010
1000
0001
0000
0100
0000
0010
0000
,
0001
0000
0100
0000
0001
0000
0010
0001
1000
0000
0000
0000
0100
0000
0000
0000
,
0010
0000
0100
0001
1000
0000
0100
0000
0001
0000
0100
0000
0000
0000
0010
0000
,
0001
0000
0000
0000
1000
0000
0000
0000
0010
0000
0000
0000
0100
0010
0001
0000
,
1000
0000
0010
1000
0100
0000
0010
0000
0001
0000
0000
0000
0010
0000
1000
0000
,
0000
0000
0010
0000
0100
0000
0001
0000
1000
0001
0010
0000
0100
0000
0000
0000
,
0001
0000
1000
0001
0010
0000
1000
0000
0100
0000
0001
0000
0000
0000
1000
0001
,
0010
0000
0100
0010
0001
0000
1000
0000
,
0100
0000
0001
0100
0010
0000
0001
1000
,
0010
0000
0100
0001
1000
0010
0100
0000
,
0001
0000
1000
0100
0010
0001
1000
0000
0100
0000
0001
0000
0000
0000
0010
0000
,
0001
0000
0000
0000
1000
0000
0000
0000
0010
0000
0000
0000
0001
1000
0010
0000
,
0001
0000
1000
0100
0001
0000
0010
0000
,
0100
0000
0000
0000
0001
0000
0000
0000
0010
1000
0100
0000
0001
0000
0000
0000
,
0010
1000
0001
0000
1000
0000
0000
0000
0010
1000
0100
0000
0000
0000
0001
0000
,
1000
0000
0000
0000
0010
0000
0000
0000
0100
0000
0000
0000
0001
0010
1000
0000
,
0010
0100
0001
0000
0010
0000
0001
0000
,
1000
0000
0010
0000
0100
1000
0001
0000
1000
0000
0010
0000
0100
0000
0000
0000
,
0001
0000
0010
0000
0001
0010
0100
0000
1000
0000
0010
0000
0000
0000
0100
0000
,
1000
0000
0000
0000
0001
0000
0000
0000
0100
0000
0000
0000
0010
0001
1000
0000
,
0001
0100
0010
0000
0001
0000
0010
0000
,
1000
0001
0100
0000
0010
1000
0001
0000
,
0100
0000
0010
0000
1000
0001
0100
0000
0001
0000
0100
0000
0000
0000
0010
0000
,
1000
0000
0000
0000
0001
0000
0100
0000
0001
0000
0000
0000
0010
0001
1000
0000
,
0001
0100
0010
0000
1000
0000
0001
0000
,
0100
0000
0010
0000
1000
0010
0100
0000
0001
0000
0100
0000
0010
0000
0000
0000
,
1000
0010
0001
0000
0100
0000
0000
0000
1000
0001
0100
0000
1000
0000
0010
0000
,
0000
0000
0000
0000
0001
0010
0001
0000
1000
0100
1000
0000
0010
0000
0000
0000
,
0000
0000
0100
0000
0000
0000
0000
0000
0001
0010
0001
0000
1000
0100
1000
0000
,
0010
0001
0010
0000
0100
1000
0100
0000
0000
0000
0001
0000
0000
0000
0000
0000
,
0010
0000
0000
0000
;
