#TITLE:beyond the Ave.;
#ARTIST:BEMANI Sound Team "SYUNN";
#ARTISTTRANSLIT:SYUNN;
#MUSIC:beyond the Ave.ogg;
#BANNER:beyond the Ave.png;
#BACKGROUND:beyond the Ave-bg.png;
#CDTITLE:./CDTitles/jb beyond the Ave.png;
#SAMPLESTART:72.887;
#SAMPLELENGTH:15;
#SELECTABLE:YES;
#OFFSET:-0.443;
#BPMS:0.000=135;
#BGSTAGE:31;

//--------------- dance-single - XLev450X ----------------
#NOTES:
     dance-single:
     XLev450X:
     Challenge:
     14:
     0,0,0,0,0:
0000
0000
0000
0000
,
0000
0000
0000
0000
,
0000
0000
0000
0000
,
0000
0000
0000
0000
,
0000
0000
0000
0000
0000
0000
0001
1000
,
0010
0100
0000
0001
1000
0000
0100
0010
,
1000
0001
0000
0100
1000
0000
0010
0100
,
0001
1000
0010
0100
0001
1000
0010
0001
,
0100
1000
0100
0010
1001
0000
0010
0000
,
0100
0000
0000
0001
0000
0000
1000
0000
0010
0000
0000
0000
0010
0000
1000
0000
,
0001
0000
0000
0100
0000
0000
0010
0000
1000
0000
0000
0000
0010
0000
0000
0000
,
0100
0000
0000
0001
0000
0000
1000
0000
0010
0000
0000
0000
0100
0000
0001
0000
,
1000
0000
0000
0010
0000
0000
0100
0000
0001
0000
0000
0000
1000
0000
0000
0000
,
0010
0000
0000
0100
0000
0000
1000
0000
0001
0000
0000
0000
0100
0000
0000
0000
,
0010
1001
0010
0100
,
0001
0000
0000
0000
0010
0001
0000
0010
0000
1000
0000
0100
0010
1000
0001
1000
,
0001
1000
0010
0100
0010
0100
0001
0010
0100
1000
0001
0000
1000
0100
0001
0000
,
0010
0000
0100
0010
0001
0000
0100
0000
0001
0010
0001
0000
1000
0001
0100
0000
,
0001
0000
0010
0001
1000
0000
0100
0000
0010
0000
0000
0000
0100
0000
0001
0100
,
1000
0000
0010
0000
1000
0010
0100
0000
0001
0000
0000
0000
1000
0000
0010
0001
,
0100
0000
1000
0000
0010
1000
0010
0000
0100
0000
0000
0000
0001
0000
0010
0100
,
1000
0000
0001
0000
0010
0001
0100
0000
0001
0000
0000
0000
1000
0000
1000
0100
,
0010
0000
0100
0000
0001
0010
0001
0000
1000
0000
0000
0000
0010
0000
0000
0000
,
0100
0000
0000
0001
0000
0000
0000
0000
1000
0000
0220
0000
0000
0000
0000
0000
,
0000
0000
0000
0000
0000
0000
0000
0000
0000
0330
0000
0000
0001
0000
0000
0000
,
1000
0000
0010
0100
0001
0000
1000
0000
,
0010
0000
1000
0100
1000
0000
0010
0000
,
0001
0000
0100
0001
1000
0000
0010
0000
,
0100
0000
0010
1000
0001
0100
0010
0000
,
1000
0000
0010
0001
0010
0000
0100
0000
,
1000
0000
0110
0000
0000
0000
0001
1000
,
0010
0000
0100
0000
0001
0000
0010
0001
,
1000
0010
0100
0000
0001
0000
0010
1000
,
0010
0100
0001
1000
0010
0000
0100
0001
,
1000
0010
0100
0001
1000
0000
0010
0001
,
0010
0000
0100
1000
0010
0000
0100
0000
,
0001
0000
1000
0010
0100
0000
0001
0000
,
1000
0000
0010
0100
0001
0000
1000
0000
,
0100
0000
1000
0010
1000
0000
0001
0100
,
0010
0001
0100
0010
0100
0020
0000
0000
,
0000
0000
0000
0000
0000
0030
0010
0000
,
0100
0000
0000
0001
0000
0000
1000
0000
0010
0000
0000
0000
0010
0000
1000
0000
,
0001
0000
0000
0100
0000
0000
0010
0000
1000
0000
0000
0000
0010
0000
0000
0000
,
0100
0000
0000
0001
0000
0000
1000
0000
0010
0000
0000
0000
0100
0000
0001
0000
,
1000
0000
0000
0010
0000
0000
0100
0000
0001
0000
0000
0000
1000
0000
0000
0000
,
0010
0000
0000
0100
0000
0000
1000
0000
0001
0000
0000
0000
0100
0000
0001
0000
,
0010
1001
0010
0100
,
0001
0000
0000
0000
0010
0001
0000
0010
0000
1000
0100
0000
0100
0010
0001
0100
,
0010
0100
0001
0010
0001
1000
0001
0100
0010
0100
0001
0000
2002
0000
0000
0000
,
0000
0000
0000
0000
3003
0000
0000
0200
0000
0300
0020
0000
0000
0000
0000
0000
,
0000
0000
0030
2002
,
0000
0000
0000
0000
3003
0000
0000
0000
0022
0000
0033
2200
0000
0000
0000
0000
,
0000
0000
3300
2020
,
0000
0000
0000
0000
3030
0000
0000
0022
0000
0033
2200
0000
0000
0000
0000
0000
,
0000
0000
3300
0220
,
0000
0000
0000
0330
0000
2002
0000
0000
,
0000
0000
0000
3003
;
