#TITLE:abstract.;
#SUBTITLE:;
#ARTIST:Lul.Mergo;
#TITLETRANSLIT:;
#SUBTITLETRANSLIT:;
#ARTISTTRANSLIT:;
#GENRE:;
#CREDIT:;
#MUSIC:abstract.ogg;
#BANNER:abstract.png;
#BACKGROUND:abstract-bg.png;
#CDTITLE:;
#SAMPLESTART:5.885;
#SAMPLELENGTH:14.999;
#SELECTABLE:YES;
#OFFSET:-0.185;
#BPMS:0.000=168.428;
#STOPS:;
#BGSTAGE:4;
#BGCHANGES:;
#FGCHANGES:;

//--------------- dance-single - XLev450X-CSP ----------------
#NOTES:
     dance-single:
     XLev450X:
     Challenge:
     15:
     0,0,0,0,0:
0000
0000
0000
0000
,
0000
0000
0000
0000
,
0000
0000
0000
0000
,
0000
0000
0000
0000
,
0000
0000
0000
0000
,
0000
0000
0000
0000
,
0000
0000
0000
0000
,
0000
0000
0000
0000
,
0000
0000
0000
0000
,
0000
0000
0000
0000
,
0000
0000
0000
0000
,
0000
0000
0000
0000
,
0000
0000
0000
0000
,
0000
0000
0000
0000
,
0000
0000
0000
0000
,
0000
0000
0000
0000
,
0000
0000
0000
0000
,
0000
0000
0000
0000
0000
0000
0000
0000
0100
1000
0001
0100
,
0001
0100
0001
0010
0100
1000
0001
1000
0010
0100
0010
1000
,
0010
0100
0001
0100
0001
1000
0100
1000
0100
1000
0010
0100
,
0010
0100
0001
0010
0001
1000
0010
1000
0010
1000
0001
0010
,
0001
0010
0001
1000
0100
0010
0001
0100
0010
1000
0100
1000
,
0220
0330
0000
0100
0010
0100
0010
1000
0001
0100
0001
0100
,
0001
1000
0100
0010
0001
1000
0001
0100
0010
0100
0001
0010
,
0001
0010
0001
1000
0100
1000
0001
0010
0001
0100
0010
0100
,
0010
0100
0001
1000
0010
1000
0001
0100
0010
1000
0010
1000
,
0100
0010
0000
0010
0001
0010
0100
1000
0001
0010
0100
1000
,
0100
0010
0100
1000
0010
0100
0001
0100
0010
1000
0010
1000
,
0010
0100
0001
1000
0100
1000
0001
1000
0010
0100
0001
0010
,
0100
1000
0100
0010
0100
1000
0001
1000
0001
0100
0010
0200
,
0300
0000
0001
0010
0100
1000
0010
1000
0100
0010
0100
0020
,
0030
1000
0001
0010
0001
0100
0001
0010
0100
0010
0100
1000
,
0010
0100
0010
0100
0001
1000
0001
0010
0001
0100
0010
0100
,
0001
0100
0010
1000
0010
1000
0100
0010
0100
0010
0001
1000
,
0000
1000
0001
1000
0001
0100
0000
1000
0100
1000
0100
1000
,
0001
0010
0001
0010
0100
0010
0000
1000
0010
1000
0100
1000
,
0001
0010
0100
1000
0100
0010
0100
0010
0001
0100
0010
0100
,
0001
0100
0001
1000
0010
0100
0001
0100
0001
0100
0010
1000
,
0100
1000
0010
1000
0100
0010
0100
1000
0100
1000
0001
1000
,
0010
0100
0001
0100
0001
1000
0100
1000
0001
1000
0001
0100
,
0001
1000
0000
0010
0001
0100
0001
0010
0001
0100
0010
0100
,
0010
1000
0010
0100
0001
0010
0100
0010
0001
0100
0010
1000
,
0000
0000
0000
0000
0100
0000
0000
0010
,
0001
0000
1000
0000
0001
0000
0000
0000
0100
0010
0100
0010
0000
0000
0000
0000
,
0001
0010
0001
0100
0001
0200
0300
1000
,
0001
0000
0010
0000
0100
0000
1000
0000
0100
0000
1000
0000
0001
1000
0010
0100
,
0001
0010
0001
1000
0001
0100
0010
0002
,
0003
1000
0010
0100
0010
0100
0001
0200
,
0300
0010
0100
0010
0001
0010
0100
1000
,
0001
0000
1000
0000
0001
0000
1000
0000
0010
0001
0100
0010
1000
0000
0010
0000
,
0100
1000
0010
0100
0001
1100
0000
0011
,
0000
1001
0000
0000
2000
0000
3000
0200
,
0000
0300
0020
0030
0002
0003
0000
0100
,
0001
0010
0001
0100
0001
0100
0010
1000
,
0011
0000
0000
0000
0011
1100
0000
0011
,
0000
1001
0000
0000
2000
0000
3000
0200
,
0000
0300
0020
0030
0002
0003
0000
0100
,
1000
0001
0010
0100
0010
0001
0100
0000
,
0100
0001
1000
0000
1000
0010
0100
0001
,
0010
0001
0100
0010
1000
0001
0010
0000
,
2002
0000
0000
0000
,
3003
0000
0000
0000
;
