#TITLE:Your Own Miracle;
#ARTIST:Ruby Tuesday;
#GENRE:Miracle Pop;
#MUSIC:Your Own Miracle.ogg;
#BANNER:Your Own Miracle.png;
#BACKGROUND:Your Own Miracle-bg.png;
#SAMPLESTART:47.763;
#SAMPLELENGTH:15;
#OFFSET:-0.116;
#BPMS:0=136;
#BGSTAGE:31;

//--------------- dance-single - XLev450X -奇跡--bSP ----------------
#NOTES:
     dance-single:
     XLev450X -奇跡-:
     Beginner:
     2:
     0,0,0,0,0:
0000
0000
0000
0000
,
0000
0000
0000
0000
,
0000
0000
0000
0000
,
0000
0000
0000
0000
,
0000
0000
0000
0000
,
0000
0000
0000
0000
,
0001
0001
0001
0000
,
1000
1000
1000
0000
,
0001
0001
0001
0000
,
1000
1000
1000
0000
,
1001
0000
0000
0000
,
0000
0000
0000
0000
,
1001
0000
0000
0000
,
0000
0000
0000
0000
,
0001
0000
0001
0000
,
0001
0000
0000
0000
,
1000
0000
1000
0000
,
1000
0000
0000
0000
,
1001
0000
0000
0000
,
1001
0000
0000
0000
,
0001
0000
1000
0000
,
0001
0000
0000
0000
,
1001
0000
0000
0000
,
1001
0000
0000
0000
,
1000
0000
0001
0000
,
1000
0000
0000
0000
,
1001
0000
0000
0000
,
0001
0000
0001
0000
,
0001
0000
0000
0000
,
1000
0000
1000
0000
,
1000
0000
0000
0000
,
1000
0000
0001
0000
,
1000
0000
0000
0000
,
0001
0000
1000
0000
,
0001
0000
0000
0000
,
1000
0000
1000
0000
,
1000
0000
0000
0000
,
0001
0000
0001
0000
,
0001
0000
0000
0000
,
1000
0000
0001
0000
,
1000
0000
0000
0000
,
0001
0000
1000
0000
,
0001
0000
0000
0000
,
1001
0000
0000
0000
;

//--------------- dance-single - XLev450X -通常--BSP ----------------
#NOTES:
     dance-single:
     XLev450X -通常-:
     Easy:
     5:
     0,0,0,0,0:
0000
0000
0000
0000
,
0000
0000
0000
0000
,
0000
0000
0000
0000
,
0000
0000
0000
0000
,
0000
0000
0000
0000
,
0000
0000
0000
0000
,
0001
1000
0001
0010
,
1000
0100
0001
0010
,
0100
1000
0001
1000
,
0010
1000
0010
0000
0010
0100
0010
0000
,
2002
0000
0000
3003
,
0001
0000
0010
1000
,
0010
0000
0100
0001
,
0100
0000
0010
0010
,
1000
0001
1000
0000
,
0100
1000
0010
0000
,
1000
0100
0010
0001
,
0010
0100
1000
0000
,
0002
0000
0000
0000
,
2000
0000
0000
0000
0000
0000
0000
3003
,
1000
0001
0010
1000
,
0100
0010
0001
0010
,
2000
0000
0000
0000
,
0002
0000
0000
0000
0000
0000
0000
3003
,
0001
1000
0100
0010
,
0001
0010
0100
0000
1000
0100
0010
0000
,
0100
0000
2002
0000
0000
0000
0000
3003
,
0010
1000
0100
0001
,
0001
1000
0010
0000
,
1000
0100
0010
0001
,
0100
1000
0001
0000
,
0010
0010
1000
0100
,
0001
0010
0100
1000
,
0010
1000
0100
0010
,
0001
0010
0100
0000
,
1000
1000
0001
0100
,
0010
1000
0010
0000
,
0001
1000
0100
0001
,
0010
0100
0010
0000
0010
1000
0010
0000
,
0001
1000
0100
0001
,
0010
0100
1000
0000
,
0001
0010
0001
0000
0100
1000
0100
0000
,
0010
0000
1000
0000
0010
1000
0010
0000
,
2002
0000
0000
0000
,
3003
0000
0000
0000
;

//--------------- dance-single - XLev450X -難しい--DSP ----------------
#NOTES:
     dance-single:
     XLev450X -難しい-:
     Medium:
     8:
     0,0,0,0,0:
0000
0000
0000
0000
,
0000
0000
0000
0000
,
0000
0000
0000
0000
,
0000
0000
0000
0000
,
0000
0000
0000
0000
,
0000
0000
0000
0000
,
0001
1000
0010
1000
,
0100
0000
0001
0000
0010
0001
0010
0000
,
1000
0100
0001
1000
,
0001
1000
0001
0000
0010
1000
0010
0000
,
0001
0000
0000
0000
,
1000
0000
0010
1000
,
0100
0000
0001
0000
,
1000
0100
0010
0001
,
1000
0000
0010
0000
,
1000
0100
0001
0010
,
0100
0010
0100
0000
0001
0010
0001
0000
,
1000
0100
1000
0000
0001
0000
1000
0000
,
0001
0000
0000
1000
0000
0000
0001
0000
0100
0000
0000
0000
0010
0000
0000
0000
,
1000
0000
0000
0100
0000
0000
0010
0000
0001
0000
0000
0010
0000
0000
0100
0000
,
0000
0000
0001
0000
1000
0000
0000
0100
0000
0000
0010
0000
0001
0000
0000
0100
,
0000
0000
1000
0000
0001
0000
0000
1000
0000
0000
0010
0000
0100
0000
0000
0000
,
0001
0000
0000
1000
0000
0000
0100
0000
0010
0000
0000
0000
0001
0000
0000
0000
,
1000
0000
0000
0100
0000
0000
0010
0000
0001
0000
0000
1000
0000
0000
0010
0000
,
0000
0000
0100
0000
0001
0000
0000
0010
0000
0000
1000
0000
0100
0000
0000
0001
,
0000
0000
1000
0000
0100
0000
0000
0010
0000
0000
1000
0000
0001
0000
0000
0000
,
1010
0000
2002
0000
0000
0000
0000
3003
,
0001
1000
0010
0100
,
0001
0010
0001
0000
0100
0010
0100
0000
,
1000
0100
0001
0010
,
1000
0001
1000
0100
0010
0000
0001
0000
,
0010
0000
0100
0000
1000
0000
0010
0010
,
1000
0000
0100
0000
0001
0010
0100
0000
,
0001
0001
0100
0000
1000
1000
0010
0000
,
0100
0010
0100
0000
0001
0010
0001
0000
,
1000
0000
0100
0000
0001
0100
0010
0000
,
0001
0000
0000
1000
0000
0000
0100
0000
0010
0000
0000
0000
0001
0000
0000
0000
,
1000
0100
0001
1000
,
0010
0000
0000
1000
0000
0000
0100
0000
0010
0000
0000
0000
0001
0000
0000
0000
,
1000
0001
1000
0000
0010
1000
0010
0000
,
0100
0010
0100
0000
0001
0000
0010
0000
,
1000
0100
1000
0000
0001
0010
0001
0000
,
1000
0100
0001
0010
0100
0010
1000
0001
,
2002
0000
0000
0000
,
3003
0000
0000
0000
;

//--------------- dance-single - XLev450X -最大--ESP ----------------
#NOTES:
     dance-single:
     XLev450X -最大-:
     Hard:
     12:
     0,0,0,0,0:
0000
0000
0000
0000
,
0000
0000
0000
0000
,
0000
0000
0000
0000
,
0000
0000
0000
0000
,
0000
0000
0000
0000
,
0000
0000
0000
0000
,
0010
0001
0010
0000
0001
0000
1000
0000
0010
1000
0010
0000
0010
0000
0100
0000
,
0010
0100
0010
0000
0010
0000
0001
0000
0010
0001
0010
0000
0001
0000
1000
0000
,
0001
1000
0001
0000
0010
0000
1000
0000
0010
1000
0010
0000
0010
0000
0100
0000
,
0010
0100
0010
0000
0001
0010
0001
0000
0100
1000
0100
0000
0001
1000
0001
0000
,
0001
0000
0000
0000
1000
0000
0001
1000
0000
0000
0001
0000
0000
1000
0000
0000
,
0010
0000
0000
0100
0000
0000
0010
0000
0001
0000
0000
1000
0000
0000
0100
0001
,
0100
0000
0000
0000
0010
0000
1000
0010
0001
0000
0000
1000
0000
0000
0001
0000
,
0000
0100
0001
1000
0100
0010
1000
0001
,
0010
0000
0000
0000
0001
0000
0010
0001
0000
0000
1000
0000
0100
0000
0010
0000
,
1000
0000
0000
0000
0010
0000
1000
0010
0000
0000
0100
0000
0001
0010
0000
0100
,
1000
0000
0100
0000
0001
0000
1000
0001
1000
0000
0001
0000
0010
0000
1000
0000
,
0010
1000
0010
0000
0001
0000
0010
0000
0100
0001
0100
0000
0001
0000
1000
0000
,
0001
0000
0000
1000
0000
0000
0100
0000
0010
0000
0000
0000
1000
0000
0010
0001
,
0010
0000
0000
1000
0000
0000
0100
0000
0001
0000
0000
1000
0000
0000
0010
0000
,
1000
0000
0100
0000
0010
0000
0000
0001
0000
0000
0100
0000
1000
0000
0000
0001
,
0000
0000
0100
0000
1000
0000
0000
0010
0000
0000
0100
0000
0010
0000
1000
0001
,
0100
0000
0000
0001
0000
0000
0100
0000
0010
0000
0000
0000
1000
0000
0001
1000
,
0001
0000
0000
1000
0000
0000
0100
0000
0010
0000
0000
0001
0000
0000
0010
0000
,
0100
0000
1000
0000
0001
0000
0000
1000
0000
0000
0100
0000
0010
0000
0000
0001
,
0000
0000
0100
0000
1000
0000
0000
0001
0000
0000
0100
0000
0010
0000
0000
0000
,
0110
0000
2002
0000
0000
0000
0000
3003
,
0001
1000
0010
1000
0100
0010
0001
0010
,
0100
0000
0000
0001
0000
0000
1000
0000
0010
0000
0000
0000
0110
0000
0000
0000
,
0001
0010
1000
0100
0001
0010
0100
1000
,
0001
0000
0000
1000
0000
0000
0100
0000
0010
0000
0001
0000
0010
1000
0000
0001
,
0100
1000
0001
1000
0010
1000
0100
0000
,
0010
0001
0010
0100
1000
0001
0010
1000
,
0000
0000
0010
1000
0010
0000
0100
0000
0000
0000
0001
0010
0001
0000
0100
0000
,
1000
0000
0001
1000
0001
0000
1000
0000
0010
0000
1000
0010
1000
0000
0010
0000
,
0100
0001
0010
0100
1000
0001
0010
0100
,
1000
0000
0000
0001
0000
0000
1000
0000
0100
0000
0010
0000
1001
0000
0000
0000
,
0001
0010
0100
1000
0001
0010
1000
0100
,
0001
0000
0000
1000
0000
0000
0100
0000
0010
0000
1000
0000
0010
1000
0000
0010
,
1000
0001
0010
0100
1000
0001
0010
1000
,
0100
0001
0010
0100
1000
0001
1000
1000
,
0000
0001
1000
0001
0100
1000
0001
0000
0000
1000
0010
1000
0001
0010
1000
0000
,
1000
0000
0100
0000
0001
0000
0100
0000
1000
0100
0001
0010
1000
0100
0010
0001
,
2000
0000
0000
0000
,
3000
0000
0000
0000
;

//--------------- dance-single - XLev450X -超クレイジー--CSP ----------------
#NOTES:
     dance-single:
     XLev450X -超クレイジー-:
     Challenge:
     15:
     0,0,0,0,0:
0000
0000
0000
0000
,
0000
0000
0000
0000
,
0000
0000
0000
0000
,
0000
0000
0000
0000
,
0000
0000
0000
0000
,
0000
0000
0000
0000
,
0010
0100
0001
1000
0010
1000
0010
0100
0010
1000
0001
0010
0100
1000
0001
0100
,
0001
0010
0100
0010
0100
1000
0100
1000
0001
1000
0010
0100
0010
1000
0001
0010
,
0100
0010
0001
0100
0010
0100
0001
0100
0001
0010
0100
1000
0100
1000
0010
1000
,
0001
0010
0100
1000
0100
1000
0001
1000
0100
0010
0001
1000
0001
0010
0100
0010
,
1000
0000
0000
0000
0001
0000
1000
0001
0000
0000
0010
0000
1000
0000
0001
0000
,
1000
0000
0001
0000
0010
1000
0000
0001
0000
0000
1000
0010
0001
0000
1000
0100
,
0001
0000
0010
0000
1000
0010
0000
0001
0100
0000
0000
0100
0000
0000
0100
0000
,
0010
0000
0001
0010
0001
0000
0100
0010
0100
0000
0010
1000
0010
0000
0010
0000
,
1000
0000
0001
0000
0010
0000
1000
0001
0000
0000
0010
0000
1000
0000
0100
0000
,
0010
0000
0001
0000
0010
0000
0001
0010
0001
0000
0100
0000
0001
1000
0000
0010
,
1000
0000
0010
0000
0100
0000
0010
0001
0010
0000
0100
0000
1000
0000
0001
0000
,
1000
0010
1000
0000
0010
0000
0100
0000
0010
0100
0001
0000
0010
0000
1000
0000
,
0001
0000
0000
1000
0000
0000
0010
0000
0100
0000
0010
0000
0001
0000
0010
0001
,
0010
0000
0000
1000
0000
0000
0001
0000
0100
0000
0000
1000
0000
0000
0001
0000
,
1000
0000
0010
1000
0010
0000
0010
0000
0100
0000
0010
0001
0010
0000
0001
0000
,
0100
0000
1000
0001
1000
0000
0010
0000
0100
0000
0010
0100
0010
0000
0001
0000
,
1000
0000
0000
0001
0000
0000
0100
0000
1000
0000
0010
0000
1000
0000
0010
1000
,
0010
0000
0000
0100
0000
0000
0001
0000
0010
0000
0000
0100
0000
0000
1000
0000
,
0001
0000
1000
0001
1000
0000
0010
0000
1000
0000
0100
0010
0100
0000
0010
0000
,
0001
0000
0010
0001
0010
0000
0100
0000
1000
0000
0001
1000
0001
0000
0010
0000
,
0100
0000
2002
0000
0000
0000
0000
3003
,
0010
1000
0100
0001
0010
0001
0100
0010
,
1000
0010
1000
0000
0010
0000
0100
0000
0001
0010
0001
0000
0100
0000
1000
0000
,
0001
1000
0001
0000
1000
0000
0010
0000
0100
0000
0010
0000
0001
0000
0010
0000
,
0001
0010
0001
0000
0100
0000
0010
0000
1000
0010
1000
0000
0010
0100
0010
0000
,
0001
0010
0001
0000
0100
0000
1000
0000
0001
0000
1000
0000
0010
0000
1000
0000
,
0001
1000
0001
0000
1000
0000
0010
0000
1000
0010
1000
0000
0010
0000
0100
0000
,
0010
0100
0010
0000
0001
0000
0010
0000
0001
0010
0001
0000
0100
0000
0100
0000
,
0001
1000
0001
0000
1000
0000
0010
0000
1000
0010
1000
0000
0010
0000
0100
0000
,
0100
1000
0001
0010
0001
1000
0100
1000
0100
1000
0001
0010
0100
1000
0010
0100
,
0001
1000
0010
1000
0100
1000
0010
0100
0010
1000
0001
0100
0010
0100
0010
1000
,
0100
1000
0001
1000
0001
0010
0001
0100
0010
0100
0001
0100
0010
1000
0100
1000
,
0010
0100
0010
0100
0010
1000
0100
0010
0100
1000
0010
1000
0001
0010
0001
0100
,
0001
0100
0010
0100
0010
1000
0001
0100
0001
0010
0100
0010
0001
1000
0010
0100
,
0001
1000
0001
1000
0010
1000
0100
0010
0100
0010
0100
1000
0001
0010
0100
1000
,
0001
0100
0001
0100
0001
0010
0100
0010
0001
0010
0001
1000
0010
0100
0010
0100
,
0001
0100
0001
1000
0010
1000
0001
0100
0001
0010
0100
1000
0010
1000
0001
1000
,
0002
0000
0000
0000
,
0003
0000
0000
0000
;
