#TITLE:XHRONOXAPSULΞ;
#ARTIST:Silentroom;
#TITLETRANSLIT:XHRONOXAPSULE;
#GENRE:CHRONO-SYMPHONIC SPEEDCORE;
#MUSIC:XHRONOXAPSULE.ogg;
#BANNER:XHRONOXAPSULE.png;
#BACKGROUND:XHRONOXAPSULE-bg.png;
#CDTITLE:./CDTitles/SOUND VOLTEX EXCEED GEAR.png;
#SAMPLESTART:97.743;
#SAMPLELENGTH:15;
#OFFSET:-0.053;
#BPMS:0=277
,54=138.5
,60=277
,132=138.5
,144=277
,300=138.5
,324=277;
#DISPLAYBPM:138:277;
#BGSTAGE:30;

//--------------- dance-single - XLΞv450X-bSP ----------------
#NOTES:
     dance-single:
     XLΞv450X:
     Beginner:
     5:
     0,0,0,0,0:
0000
0000
0000
0000
,
0000
0000
0000
0000
,
0000
0000
0000
0000
,
0000
0000
0000
0000
,
0000
0000
0000
0000
,
0000
0000
0000
0000
,
0000
0000
0000
0000
,
0000
0000
0001
0001
,
0000
0100
0100
0000
,
1000
1000
0000
0001
,
0000
1000
0010
0000
,
0010
0100
0000
0000
,
0001
1000
0001
1000
,
0000
0000
1001
0000
,
0000
0000
0000
0000
,
0001
0000
0000
0001
,
0000
0000
0001
0000
,
0000
0000
0000
0000
,
1000
0000
0000
1000
,
0000
0000
1000
0000
,
0000
0010
0000
0000
,
0100
0000
0000
0001
,
0000
0000
1000
0000
,
0000
0010
0000
0000
,
0100
0000
0000
0000
,
0000
0000
0001
0000
,
0000
1000
0000
0000
,
0001
0000
0000
0000
,
0000
0000
0010
0000
,
0000
1000
0000
0000
,
0010
0000
0000
0000
,
0000
0000
0100
0000
,
0000
0001
0000
0000
,
0100
0000
0000
0000
,
0000
0000
0000
0000
,
0000
0000
0000
0000
,
0001
0000
0100
0000
,
1000
0000
0001
0000
,
0000
0000
0000
0000
,
0010
0000
1000
0000
,
0001
0000
0100
0000
,
0000
0000
0000
0000
,
0120
0000
0000
0000
,
0030
0000
1002
0000
,
0000
0000
0003
0000
,
0210
0000
0000
0000
,
0300
0000
2001
0000
,
0000
0000
0000
3000
,
0001
0000
0000
0000
,
0000
0000
1000
0000
,
0000
0000
0000
0000
,
0010
0000
0000
0000
,
0000
0000
0100
0000
,
0000
0000
0000
0000
,
0001
0000
0001
0000
,
0001
0000
0000
0000
,
0000
0000
0000
0000
,
1000
0000
1000
0000
,
1000
0000
0000
0000
,
0000
0000
0000
0000
,
0010
0000
0000
0000
,
1000
0000
0100
0000
,
0000
0000
0000
0000
,
0001
0000
0000
0000
,
1000
0000
0001
0000
,
0010
0000
0000
0000
,
1001
0000
0000
0000
,
0000
0000
0000
0000
,
0000
0000
0000
0000
,
0110
0000
0000
0000
,
0000
0000
0000
0000
,
0000
0000
0000
0000
,
0010
0010
0010
0010
,
0000
0000
0001
0001
,
0001
0001
0000
0000
,
1000
0000
0000
0000
,
0000
0000
0001
0000
,
0000
0000
0000
0000
,
0100
0000
0000
0010
,
0000
0000
1000
0000
,
0000
0000
0000
0000
,
0001
0000
0100
0000
,
1000
0000
0100
0000
,
0001
0000
0000
0000
,
1000
0000
0001
0000
,
1000
0000
0010
0000
,
0000
0000
0000
0000
,
0010
0100
0000
0000
,
0001
0100
0001
0000
,
0000
1000
0100
1000
,
0100
0000
0010
0000
,
0001
0010
0100
0000
,
1000
0000
0010
0100
,
2002
0000
0000
0000
,
0000
0000
0000
0000
,
0000
0000
0000
0000
,
3003
0000
0000
0000
,
0000
0000
0000
0000
,
0000
0000
0000
0000
,
1000
0000
0000
0001
,
0000
0000
0100
0000
,
0000
0010
0000
0000
,
0000
0001
1000
0001
,
1000
0000
0000
0000
,
0000
0000
0000
0000
,
0010
0001
0010
0001
,
0000
0000
0000
0000
,
0000
0000
0000
0000
,
1000
0100
1000
0100
,
0000
0000
0000
0000
,
0000
0000
0000
0000
,
0001
0000
0000
1000
,
0000
0000
0100
0000
,
0000
1000
0000
0000
,
0001
0000
0000
0010
,
0000
0000
1000
0000
,
0000
0001
0000
0000
,
0001
0000
0000
1000
,
0000
0000
0001
0000
,
0000
0000
0000
0000
,
0010
0000
0000
1000
,
0000
0000
0010
0000
,
0000
0000
0000
0000
,
1001
0000
0000
0000
,
0000
0000
0000
0000
,
0000
0000
0000
0000
,
0010
0010
0010
0000
,
0000
0000
0100
0100
,
0100
0000
0000
0000
;

//--------------- dance-single - XLΞv450X-BSP ----------------
#NOTES:
     dance-single:
     XLΞv450X:
     Easy:
     8:
     0,0,0,0,0:
0000
0000
0000
0000
,
0000
0000
0000
0000
,
0000
0000
0000
0000
,
0000
0000
0000
0000
,
0000
0000
0000
0000
,
0000
0000
0000
0000
,
0000
0000
0000
0000
,
0000
0000
0100
1000
,
0000
0001
1000
0010
,
0100
1000
0000
0001
,
1000
0000
0010
0000
1000
0000
0000
0100
,
0000
0000
0001
0000
0000
0100
0000
0000
,
1000
0010
1000
0020
,
0000
0030
0200
0000
,
0300
0000
0001
0000
0000
1000
0000
0000
,
0001
0000
0000
0100
0000
0000
1000
0000
,
0000
0100
0000
0000
0001
0000
0000
1000
,
0000
0100
0020
0030
,
0001
0000
1000
0000
,
0010
1000
0010
0000
,
0001
0000
0100
0001
,
0100
0000
0010
0000
,
0100
0000
1000
0001
,
1000
0001
1000
0000
,
0010
1000
0010
1000
,
0001
0000
0010
0000
0001
0000
0000
0100
,
0000
0000
1000
0000
0000
0001
0000
0000
,
1000
1000
0010
1000
,
0010
0100
1000
0001
,
1000
0001
0010
0000
,
0100
1000
0010
1000
,
0010
1000
0010
0100
,
1000
0000
0001
0010
0002
0000
0003
0000
,
0001
1000
0010
1000
0010
0000
0001
0000
,
0010
0001
0010
0000
1000
0000
0100
2002
,
0000
0000
0000
3003
,
0001
1000
0010
1000
,
0001
0010
1000
0001
,
0100
1000
0001
0010
,
1000
0000
0001
0000
,
0100
1000
0100
0000
,
0010
0000
0100
0000
,
2000
0000
3000
0001
,
0000
0001
0000
0000
2000
0000
0000
0000
,
0000
0000
3010
0000
0000
0010
0000
0000
,
0200
0000
0300
0100
,
0000
0100
0000
0000
2000
0000
0000
0000
,
3000
0000
1000
0000
0000
1000
0000
0000
,
0001
0000
1000
0000
,
0001
0000
0010
0001
,
0010
0000
1000
0000
,
0100
0100
0010
0000
,
1000
0010
1000
0100
,
0001
0010
0200
0000
0000
0000
0300
0000
,
0001
0000
1000
0000
,
0010
1000
0100
0000
,
0001
0000
0010
1000
,
0010
0000
0100
0000
,
1000
0010
1000
0000
,
0001
0000
0100
0000
,
0010
0000
1000
0000
,
0001
0000
0010
0000
0001
0000
0000
1000
,
0000
0000
0100
0000
0000
0010
0000
0000
,
0001
0000
1000
0010
,
0100
0000
1000
0000
,
0001
0000
0100
0020
0000
0000
0030
0000
,
0001
0000
1000
0000
,
0001
1000
0001
0000
,
0010
0000
1000
0010
,
1000
0000
0100
0000
,
1000
0010
0100
0000
,
1000
0000
0100
0000
,
0001
0010
0001
0000
0100
0000
1000
0000
,
0010
0000
0001
0000
1000
0010
1000
0000
,
0010
0002
0000
0003
,
0001
1000
0001
1000
,
0100
1000
0001
0100
,
1000
0010
1000
0100
,
0001
0010
0001
0000
1000
0000
0010
1000
,
0010
0000
0100
0000
0100
0010
0100
0000
,
1000
0000
0010
1000
0010
0000
0001
0000
,
1000
0000
0001
0000
,
0100
0000
1000
0000
,
0001
0000
0010
0000
,
1000
0000
0001
0000
,
0100
0001
0100
0000
,
0010
0000
1000
0000
,
0001
0000
1000
0000
,
0001
0000
1000
0000
,
0100
0000
1000
0000
,
0010
0000
0100
0000
,
1000
0000
0001
0000
,
0100
0000
0010
0000
,
2002
0000
0000
0000
,
0000
0000
0000
0000
,
0000
0000
0000
3003
,
0220
0000
0000
0000
,
0000
0000
0000
0000
,
0000
0000
0000
0330
,
0001
0000
1000
0000
,
0001
0000
0100
0000
,
0010
0000
1000
0000
,
0000
0001
0000
1000
,
0000
0000
0010
0000
0100
0000
0000
0001
,
0000
0000
1000
0000
0000
0010
0000
0000
,
0100
0000
1000
0000
,
0001
0000
0000
0000
0100
0000
0000
0010
,
0000
0000
1000
0000
0000
0001
0000
0000
,
1000
0000
0000
0001
0000
0000
0100
0000
,
0000
0000
0010
0000
1000
0000
0000
0010
,
0000
0200
0000
0300
,
0001
0000
1000
0000
,
0001
1000
0001
0000
,
1000
0000
0010
1000
,
0010
0000
0100
0000
,
0001
0010
0001
0000
,
1000
0000
0000
0002
0000
0000
0003
0000
,
1000
0000
0010
0000
,
0001
1000
0001
0000
1000
0000
0000
0000
,
0001
0000
0010
0100
,
0010
0000
1000
0000
,
0001
1000
0010
0000
0001
0000
0000
0000
,
1000
0000
0200
0300
,
0001
0000
1000
0000
,
0100
0000
0001
0000
,
1000
0000
0010
0000
,
1000
0010
0100
0001
,
1000
0000
0001
0010
0100
1000
0001
1000
,
0100
0010
0001
0001
0000
0000
0000
0000
;

//--------------- dance-single - XLΞv450X-DSP ----------------
#NOTES:
     dance-single:
     XLΞv450X:
     Medium:
     14:
     0,0,0,0,0:
0000
0000
0000
0000
,
0000
0000
0000
0000
,
0000
0000
0000
0000
,
0000
0000
0000
0000
,
0000
0000
0000
0000
,
0000
0000
0000
0000
,
0000
0000
0000
0000
,
0000
0000
0001
1000
,
0000
0100
0001
1000
,
0010
0100
0000
1000
,
0010
0000
0100
0000
0001
0000
0000
1000
,
0000
0000
0100
0000
0000
0001
0000
0000
,
0010
0000
0001
0000
0100
1000
0010
0100
,
0001
0010
1000
0100
0010
0000
0100
0000
,
0001
0000
0000
0000
1000
0000
0000
0010
0000
0000
0001
0000
0000
1000
0000
0000
,
0001
0000
0000
1000
0000
0000
0100
0000
,
0000
0001
0000
0000
0010
0000
0000
0100
,
0000
1000
0002
0003
,
0100
1000
0001
0100
,
0010
0000
0001
0000
0100
0000
0001
0100
,
1000
0000
0010
1000
0001
0000
0100
0000
,
0001
1000
0010
0100
,
0001
0010
1000
0001
,
0010
1000
0100
0001
1000
0100
0001
0000
,
1000
0010
0100
0001
,
1000
0000
0010
0000
0100
0000
0000
0001
,
0000
0000
1000
0000
0000
0010
0000
0000
,
0100
0010
0001
1000
,
0010
0100
0001
0000
,
1000
0110
0202
0303
,
0010
1000
0001
0100
,
0010
0000
1000
0100
0001
0000
0100
0000
,
0001
1000
0020
0030
,
0010
0000
1000
0100
0001
0010
0200
0300
,
0010
1000
0001
0010
1000
0000
0020
0200
,
0000
0000
0000
0000
,
0100
0001
1000
0010
,
0100
0001
1000
0010
,
0100
0000
0001
0000
1000
0000
0010
0001
,
0100
1000
0100
1000
,
0010
0001
0010
0100
,
1000
0100
0001
0000
,
0010
0010
0010
0010
,
0100
1000
0100
0100
,
0100
0100
0001
1000
,
0001
1000
0010
0100
,
0001
1000
0010
0001
,
0100
0010
2000
3000
,
0001
0100
0010
0001
,
1000
0000
0010
0000
1000
0100
0001
0010
,
0100
0010
1000
0100
0001
0010
0100
1000
,
0010
0001
0010
0100
1000
0100
0001
1000
,
0010
0100
0001
0010
0100
0010
1000
0100
,
0010
0001
0200
0000
0000
0000
0300
0000
,
0010
1000
0100
0010
,
0001
1000
0010
0001
,
0100
0000
1000
0000
0001
0000
1000
0100
,
0010
0000
0001
0000
0100
0000
1000
0010
,
0001
0100
1000
0100
0010
0000
0001
0000
,
0100
1000
0001
1000
,
0010
0001
0100
0010
,
1000
0000
0001
0000
0100
0000
0000
0010
,
0000
0000
0001
0000
0000
1000
0000
0000
,
0001
0100
0010
1000
,
0001
0100
0001
0010
,
0100
1000
0002
0003
,
0100
1000
0100
0000
0010
0000
0001
0000
,
1000
0000
0100
0000
0001
0010
0001
0000
,
0100
0001
0010
0100
,
1000
0100
0010
0000
0001
0000
0010
0000
,
0100
0000
1000
0000
0010
0001
1000
0100
,
0001
0100
0020
0030
,
1000
0001
0100
0010
0001
0000
0100
0000
,
0010
0001
1000
0100
0001
1000
0001
0010
,
0100
1000
0020
0000
0000
0000
0030
0000
,
0100
0001
1000
0010
,
0100
0000
0001
1000
0010
0000
0001
0000
,
1000
0000
0100
0001
1000
0000
0100
0000
,
0001
0000
1000
0000
0010
0100
0001
0000
,
1000
0000
0010
0100
0001
0000
1000
0000
,
0010
0100
0001
1000
0010
0100
0001
1000
,
0010
1000
0001
0100
,
0010
1000
0001
0100
,
0010
0000
1000
0100
0001
0000
0100
0000
,
0010
0001
1000
0010
,
0100
0001
1000
0001
,
0010
0100
0001
1000
,
0001
1000
0000
0100
,
0001
1000
0010
0100
,
0000
1000
0010
0100
,
0001
0000
0000
1000
0000
0000
0100
0000
,
0000
0001
0000
0000
0010
0000
0001
0000
,
0100
1000
0010
0100
0001
0010
1000
0100
,
2000
0000
0000
0000
,
3000
0000
0100
0001
0200
0000
0000
0000
,
0000
0000
0000
0300
,
2002
0000
0000
0000
,
0000
0000
0000
0000
,
0000
0000
0000
3003
,
0001
0010
0100
1000
0100
0010
0001
1000
,
0010
0001
0100
1000
0001
0010
0100
0001
,
1000
0001
1000
0001
0010
1000
0100
0020
,
0030
0001
1000
0010
,
0100
0000
0001
0000
1000
0000
0000
0100
,
0000
0000
0010
0000
0000
0001
0000
0000
,
1000
0010
0100
0001
,
1000
0000
0010
0000
0100
0000
0000
0001
,
0000
0000
1000
0000
0000
0010
0000
0000
,
0100
0001
1000
0010
,
0100
0000
0001
0000
1000
0100
0010
0001
,
0010
1000
0200
0000
0000
0000
0300
0000
,
1000
0010
0100
0001
,
1000
0000
0100
0000
0001
0100
1000
0000
,
0010
0000
0100
0000
0001
0000
1000
0001
,
1000
0100
0001
1000
,
0010
0100
0001
0100
,
0010
0001
0010
0100
,
0001
0100
1000
0010
0001
0100
0001
0100
,
0001
1000
0010
1000
0100
0010
0001
0100
,
1000
0001
0010
0100
1000
0001
0100
1000
,
0010
0001
0100
1000
0001
0100
1000
0010
,
0100
0010
0001
0100
1000
0001
0010
0100
,
0001
0100
1000
0001
1000
0010
0200
0300
,
0001
1000
0100
0001
,
0010
1000
0010
0001
,
1000
0001
1000
0001
,
0010
0100
0001
0100
1000
0010
0100
0010
,
0001
1000
0010
1000
0100
0001
1000
0100
,
0010
0100
0001
1000
0000
0000
0000
0000
;

//--------------- dance-single - XLΞv450X-ESP ----------------
#NOTES:
     dance-single:
     XLΞv450X:
     Hard:
     17:
     0,0,0,0,0:
0000
0000
0000
0000
,
0000
0000
0000
0000
,
0000
0000
0000
0000
,
0000
0000
0000
0000
,
0000
0000
0000
0000
,
0000
0000
0000
0000
,
0000
0000
0000
0000
,
0000
0000
1001
1001
,
0000
0010
1000
0001
,
0100
1000
0000
0001
,
1000
0000
0010
0000
0100
0000
0000
0001
,
0000
0000
1000
0000
0000
0010
0000
0000
,
0100
0000
1000
0001
1000
0001
0200
0000
,
0000
0000
0300
0000
0001
1000
0001
0100
,
1000
0000
0001
0000
0010
0000
0000
1000
0000
0000
0001
0000
0000
0010
0000
0000
,
0001
0000
0000
1000
0000
0000
0001
0000
,
0000
0100
0000
0000
0001
0000
0000
1000
,
0000
0000
0001
0000
1000
0000
0001
0100
,
1000
0001
1000
0010
,
1000
0100
1000
0001
,
0010
0000
0000
0000
0001
0000
0100
0000
1000
0000
0001
0000
1000
0100
0001
0000
,
0010
0001
1000
0001
,
0100
0000
1000
0000
0001
0000
0010
0100
,
1000
0010
0001
0000
0010
0000
1000
0000
,
0001
1000
0001
0100
,
0010
0000
1000
0000
0001
0000
0000
0100
,
0000
0000
1000
0000
0000
0010
0000
0000
,
0001
0000
1000
0010
0100
0000
0100
0001
,
0010
0001
0010
1000
0100
0001
0010
0001
,
1000
0000
0000
0000
0001
0000
1000
0100
0020
0000
0000
0000
0030
0000
0000
0000
,
0001
0100
1000
0010
1000
0001
1000
0010
,
0001
0010
0001
1000
0010
1000
0001
0010
,
1000
0000
0010
0000
0100
0000
0001
0000
0020
0000
0000
0000
0000
0000
0030
0000
,
2000
0000
0000
0000
0000
0000
0000
3000
1001
0000
0000
0000
1000
0000
0000
0000
0010
0000
0000
0000
1000
0000
0000
0000
0001
0000
0000
0000
0000
0000
0000
0000
,
0010
0001
0010
1000
0001
0000
0001
2002
,
0000
0000
0000
3003
,
0001
1000
0010
1000
,
0001
1000
0010
0100
,
1000
0000
0100
0000
0001
0000
0000
0000
0010
0000
1000
0000
0001
1000
0010
0000
,
1000
0001
1000
0001
,
0100
1000
0001
0010
,
1000
0001
0210
0300
,
0002
1000
0000
1000
0000
1000
0000
1000
,
0000
1000
0003
1000
0200
0010
0000
0010
,
0000
0010
0000
0010
0000
0310
0001
0010
,
2000
0100
0000
0100
0000
0100
0000
0100
,
0000
0100
0000
3100
0001
1000
0020
0100
,
0000
0000
0100
0000
0000
0000
0100
0000
0000
0000
0130
0000
0001
0100
1000
0000
,
0001
0000
0000
0000
1000
0000
0000
0000
0100
0000
0000
0000
1000
0100
0010
0001
,
0010
0100
1000
0001
,
1000
0000
0010
1000
0100
0001
0010
0100
,
1000
0000
0000
0101
0000
0000
1010
0000
,
0000
0110
0000
0000
1001
0000
0000
0011
,
0000
2002
0000
3003
,
0001
1000
0010
0100
,
1000
0001
0010
1000
,
0001
0100
1000
0010
,
1000
0000
0001
0000
0010
0000
1000
0001
,
0100
1000
0010
0001
1000
0000
0001
0000
,
1000
0010
0001
0010
,
1000
0010
1000
0001
,
0100
0010
1000
0001
,
0000
1000
0010
0000
,
0100
1000
0001
0010
,
1000
0001
1000
0100
,
0001
0000
2002
0000
0000
0000
0000
3003
,
0001
0010
0001
0100
1000
0001
0010
1000
,
0100
0001
1000
0100
0001
1000
0001
1000
,
0100
0010
0001
1000
0001
0010
1000
0100
,
0010
0001
1000
0001
0100
0010
1000
0001
,
0100
0010
0001
0100
1000
0100
0010
0001
,
1000
0001
0100
0010
0001
1000
0100
0000
,
0010
0000
0001
0100
1000
0000
0100
0000
0001
0000
0010
0000
1000
0000
0100
0000
,
0001
0010
0100
1000
0001
1000
0001
0010
,
0100
1000
0200
0000
0000
0000
0300
0000
,
0001
0100
0010
0100
0010
0100
0001
1000
,
0001
0000
0010
1000
0001
0000
0010
0000
0100
0000
0010
0000
0100
0000
1000
0000
,
0100
0000
1000
0000
0001
0000
0100
0000
0001
0000
0010
1000
0001
0000
0010
0000
,
0100
0010
0100
0000
0010
0000
0010
1000
0010
0000
0100
0000
0100
0010
0001
0000
,
0001
0000
0010
0100
0010
0000
0001
0000
0001
0100
0010
0000
0001
0000
0001
1000
,
0001
0000
1000
0000
0001
0010
0100
1000
0001
0010
0001
0010
0100
0010
0100
1000
,
0001
1000
0001
0010
0100
1000
0100
0001
,
0010
0000
0100
0000
1000
0100
0001
0000
1000
0000
0001
0000
0010
0000
0100
0000
,
1000
0001
1000
0010
0001
0100
1000
0001
,
0010
1000
0001
1000
0100
0001
1000
0001
,
0010
0000
0100
0000
1000
0000
0001
0000
0100
0000
0001
0100
1000
0000
0010
0000
,
0001
0000
0100
0010
2000
0000
0000
0000
0000
0000
0000
0000
0000
0000
3000
0000
,
0001
1000
0000
0100
,
1000
0001
0010
0011
,
0000
1000
0100
1000
,
0001
0000
0000
0101
0000
0000
1000
0000
,
0000
0010
0000
0000
1000
0000
0001
0000
,
0010
0000
0000
0000
1000
0000
0100
0000
0010
0000
0001
0000
0001
0010
0100
1000
,
0002
0000
0000
0000
,
0003
0000
0010
0001
0020
0000
0000
0000
,
0000
0000
0000
0030
,
2020
0000
0000
0000
,
0000
0000
0000
0000
,
0000
0000
0000
3030
,
0010
0001
1000
0010
0001
0100
1000
0001
,
0010
0100
1000
0100
0001
0100
0010
1000
,
0001
0000
0010
0000
0100
0000
1000
0000
0100
0000
0001
0000
1000
0100
0010
0001
,
0000
0000
0100
0001
1000
0010
0100
0010
,
1000
0001
0010
1000
0001
0000
0000
0101
,
0000
0000
1010
0000
0000
1001
0000
0000
,
0010
0001
0010
0001
1000
0010
0001
1000
,
0001
0100
1000
0100
0001
0000
0000
0100
,
0000
0000
0000
0000
1000
0000
0100
0010
0001
0000
1000
0000
0010
0000
0000
0000
,
0001
0000
0000
1000
0000
0000
0001
0000
,
0001
0000
1000
0000
0010
0000
1000
0001
,
0010
0000
0001
0000
1000
0100
0002
0000
0000
0000
0000
0000
0000
0003
0000
0000
,
0010
1000
0001
0100
0001
1000
0001
0010
,
0100
1000
0001
1000
0001
0010
0100
1000
,
0100
0000
0010
0000
0100
0000
0010
0000
0001
0010
0100
1000
0100
0010
0001
0010
,
0100
1000
0010
1000
0010
1000
0100
0010
,
0001
1000
0010
1000
0010
0100
0001
0010
,
0100
0010
0100
0010
0001
2000
0000
3000
,
0100
0001
0010
0000
0100
0000
1000
0000
0001
0000
0100
0000
0010
0000
0100
0000
,
0001
0000
1000
0000
0010
0000
0100
0000
0010
0000
1000
0100
0010
0001
1000
0000
,
0001
1000
0100
0010
0001
0100
0001
0010
,
0001
1000
0100
0000
0010
0000
0001
0000
1000
0000
0010
0000
0001
0000
0100
0000
,
1000
0000
0001
0000
0100
0000
0010
0000
1000
0100
0010
0001
0010
0100
1000
0100
,
0010
0001
0010
0100
1000
0100
0010
0001
0020
0000
0000
0000
0000
0000
0030
0000
,
0001
1000
0010
0100
1000
0001
0010
0001
,
0010
0100
1000
0100
1000
0100
0001
0010
,
0001
1000
0010
0001
1000
0010
0001
0010
,
1000
0100
0001
0000
0100
0000
1000
0000
0001
0000
0010
0000
0100
0000
1000
0000
,
0100
0000
0010
0000
0001
0000
1000
0001
0010
0000
0001
0000
0100
0000
0010
0000
,
0001
0010
0100
0000
1000
0000
0001
0000
0000
0000
0000
0000
0000
0000
0000
0000
;
