#TITLE:X-Hale;
#SUBTITLE:;
#ARTIST:Tom Orlando feat. Breana Marin;
#TITLETRANSLIT:;
#SUBTITLETRANSLIT:;
#ARTISTTRANSLIT:;
#GENRE:;
#CREDIT:;
#MUSIC:X-Hale.ogg;
#BANNER:X-Hale.png;
#BACKGROUND:X-Hale-bg.png;
#CDTITLE:;
#SAMPLESTART:16.261;
#SAMPLELENGTH:15.000;
#SELECTABLE:YES;
#OFFSET:-0.323;
#BPMS:0.000=128.000;
#STOPS:;
#BGSTAGE:4;
#BGCHANGES:;
#FGCHANGES:;

//--------------- dance-single - XLev450X-bSP ----------------
#NOTES:
     dance-single:
     XLev450X:
     Beginner:
     3:
     0,0,0,0,0:
0000
0000
0000
0000
,
0000
0000
0000
0000
,
0000
0000
0000
0000
,
0000
0000
0000
0000
,
0000
0000
0000
0000
,
0000
0000
0000
0000
,
0000
0000
0000
0000
,
0000
0000
0000
0000
,
0000
0000
0010
1000
,
0001
0000
0100
0010
,
1000
0000
0001
0100
,
0010
1000
0001
0100
,
0010
0000
1000
0010
,
1000
0000
0100
0001
,
0100
0000
0010
1000
,
0100
0001
0010
1000
,
0100
0000
0010
0010
,
0010
0000
0100
0100
,
0100
0000
0001
1000
,
0010
0100
0001
1000
,
0010
0000
0100
0001
,
1000
0000
0010
0100
,
0010
0000
0010
0001
,
1000
0010
0100
0000
,
0001
0000
0100
0000
,
0000
0000
0010
0000
,
0000
0000
0001
0000
,
0000
0000
1000
0000
,
0000
0000
0010
0010
,
0000
0000
1000
1000
,
0000
0000
0001
0001
,
0000
0000
0100
0100
,
0000
0000
0001
1000
,
0001
0000
0010
0000
,
0100
0000
1000
0010
,
1000
0000
0100
0000
,
0001
0000
0010
0001
,
0010
0000
0100
0000
,
1000
0000
0010
0100
,
0001
0000
1001
0000
,
0000
0000
0010
0100
,
0001
1000
0010
0000
,
0100
0000
0001
1000
,
0010
0100
0001
1000
,
0010
0000
0100
0000
,
0001
0000
1000
0010
,
0100
0000
0001
0000
,
0100
0000
0010
1000
,
0001
0000
0010
0000
,
0100
0000
0001
1000
,
0010
0100
0001
0000
,
1000
0000
0010
1000
,
0010
0000
0100
0001
,
1000
0000
0100
0001
,
1000
0000
0010
0100
,
1000
0001
0100
0010
,
1000
0001
1001
0000
;

//--------------- dance-single - XLev450X-BSP ----------------
#NOTES:
     dance-single:
     XLev450X:
     Easy:
     5:
     0,0,0,0,0:
0000
0000
0000
0000
,
0000
0000
0000
0000
,
0000
0000
0000
0000
,
0000
0000
0000
0000
,
0000
0000
0000
0000
,
0000
0000
0000
0000
,
0000
0000
0000
0000
,
0000
0000
0000
0000
,
0000
0000
0001
1000
,
0010
0100
0001
1000
,
0010
0000
0001
0100
,
0001
1000
0010
0000
,
0100
0001
1000
0000
,
0100
0010
0001
1000
,
0010
0100
0001
0000
1000
0000
0000
0000
,
0010
0000
0100
0001
,
1000
0001
1000
0000
0010
0000
0000
0000
,
0100
0001
1000
0000
,
0010
1000
0100
0000
,
0001
0100
0010
0000
,
1000
0001
0100
0000
,
0010
1000
0001
0100
,
0001
1000
0001
0000
0100
0000
0010
0000
,
1000
0010
1000
0000
0100
0000
0001
0000
,
0100
0001
0100
0000
0010
0000
0000
0000
,
1000
0000
0001
0000
,
0100
0000
1000
0000
,
0010
0000
0100
0000
,
0001
0000
1001
0000
,
1010
0000
0101
0000
,
0110
0000
1010
0000
,
0101
0000
0110
0000
,
1001
0000
0001
1000
,
0001
0100
0010
0000
,
1000
0000
0010
0100
,
0001
1000
0010
0000
,
1000
0000
0001
0100
,
0010
0000
1000
0000
0001
0100
0001
0000
,
1000
0010
0100
0000
,
0001
1000
0110
0000
,
0000
0000
0001
1000
,
0010
0100
1000
0000
,
0001
0100
0010
0000
,
0001
1000
0010
0000
,
0100
0000
0001
0000
1000
0010
1000
0000
,
0001
0000
0100
0000
0001
0000
0000
0010
,
0000
0000
0100
0000
0001
0100
0001
0000
,
1000
0010
0100
0000
,
0001
0000
1000
0000
0010
0100
0010
0000
,
0001
0000
1000
0000
0010
1000
0010
0000
,
0100
0000
0001
0000
0010
0001
0010
0000
,
0100
1000
0100
0000
0010
0100
0010
0000
,
0001
1000
0010
0000
,
0100
0000
0001
0000
0100
0001
0100
0000
,
0010
0000
1000
0000
1000
0010
1000
0000
,
0010
0000
0100
0000
0001
1000
0001
0000
,
0010
0100
0001
1000
0110
0000
0000
0000
;

//--------------- dance-single - XLev450X-DSP ----------------
#NOTES:
     dance-single:
     XLev450X:
     Medium:
     7:
     0,0,0,0,0:
0000
0000
0000
0000
,
0000
0000
0000
0000
,
0000
0000
0000
0000
,
0000
0000
0000
0000
,
0000
0000
0000
0000
,
0000
0000
0000
0000
,
0000
0000
0000
0000
,
0000
0000
0000
0000
,
0000
0000
0001
1000
,
0010
0100
0001
0000
1000
0000
0010
0000
,
0100
1000
0010
0100
0001
0000
0010
0000
,
1000
0001
1000
0000
0010
0000
0000
0000
,
0100
0000
0001
0000
1000
0010
1000
0000
,
0100
0001
0100
0000
0010
1000
0100
0001
,
0010
1000
0001
0100
,
0010
0000
0001
0000
0010
0001
0100
1000
,
0001
0100
0010
0001
0000
0000
1000
0000
,
0010
0100
0001
0000
,
1000
0000
0000
0000
0010
1000
0010
0000
,
0100
0001
0100
0000
0010
1000
0001
0100
,
0010
0001
1000
0010
,
0100
0000
0001
1000
,
0010
0001
0010
0000
0100
0000
1000
0000
,
0010
1000
0010
0000
0100
0000
0001
0000
,
0100
0001
0100
0000
0010
0000
0000
0000
,
0001
0000
1000
0001
,
0100
0000
0010
0000
,
1000
0000
0001
0100
,
0001
0100
0001
0000
1000
0000
0010
0000
,
1000
0010
0100
0000
0001
0000
0010
0000
,
0010
0100
0001
0000
1000
0000
0010
0000
,
0100
0001
0010
0000
,
1010
0101
0110
0001
,
1000
0000
0010
0100
,
0001
0100
0001
0000
0001
0000
1000
0000
,
0100
0000
0101
1010
,
0110
0000
1001
0000
0100
0001
1000
0000
,
0010
0000
0100
0000
0010
1000
0010
0000
,
0100
0001
0100
0000
0010
0000
0100
0000
,
0001
0010
1001
0000
,
0000
0000
0001
1000
,
0010
0100
0001
0000
1000
0000
0010
0000
,
0100
1000
0100
0000
0010
0000
0001
0000
,
0100
0001
0100
0000
0010
0000
0000
0000
,
1000
0000
0001
0000
0010
0100
0001
0000
,
0010
0000
1000
0000
0010
0001
1000
0010
,
0100
0000
0001
0000
1000
0010
1000
0000
,
0100
0001
0100
0000
0010
0000
1000
0000
,
0001
0100
0001
0000
0010
0000
1000
0000
,
0010
0100
0001
0000
0010
0000
0000
0000
,
1000
0000
0000
0000
0001
0100
0001
0000
,
1000
0010
1000
0000
0010
0100
0001
1000
,
0000
0000
0010
0000
0100
0001
1000
0000
,
0010
0000
0100
0000
0010
0001
0010
0000
,
0100
1000
0100
0000
0001
0100
0010
0000
,
1000
0001
0100
0000
0010
1000
0001
0100
,
0010
1000
0001
0000
1001
0000
0000
0000
;

//--------------- dance-single - XLev450X-ESP ----------------
#NOTES:
     dance-single:
     XLev450X:
     Hard:
     11:
     0,0,0,0,0:
0000
0000
0000
0000
,
0000
0000
0000
0000
,
0000
0000
0000
0000
,
0000
0000
0000
0000
,
0000
0000
0000
0000
,
0000
0000
0000
0000
,
0000
0000
0000
0000
,
0000
0000
0000
0000
,
0000
0000
0000
0000
0000
0010
0100
1000
,
0010
0000
0100
0000
0001
0010
1000
0000
0010
0000
0100
0001
0010
0000
1000
0000
,
0010
0000
1000
0010
0000
0000
1000
0000
0100
0000
0010
0000
0001
0000
0010
0000
,
0100
0000
0010
0000
0001
0000
1000
0000
0100
0000
1000
0000
0000
0000
0100
0010
,
0001
0100
0001
0010
0000
0010
0001
0010
,
0001
1000
0001
1000
0010
1000
0100
0010
,
0100
1000
0010
1000
0001
1000
0010
0100
,
0010
1000
0100
1000
0010
1000
0100
0010
,
0001
0010
0100
1000
0000
1000
0100
1000
,
0001
0000
0010
0000
0100
0010
1000
0000
0000
0000
0100
0000
0010
0000
0100
0000
,
0001
0000
0100
0000
0001
0000
0000
0000
0010
0000
1000
0010
0000
0100
0010
0000
,
0001
0010
0000
0100
0001
0000
0010
0000
0001
0100
0000
1000
0010
0001
0100
0000
,
0001
1000
0001
0100
0000
0000
0010
0000
,
0001
0000
0000
0000
0000
0000
0000
0000
0100
0010
1000
0000
0100
0000
0010
0000
,
0100
1000
0010
0000
0001
0000
0000
0000
0001
0010
1000
0000
0010
0000
0100
0000
,
0010
0000
1000
0100
0010
0000
0100
0000
0001
1000
0010
0000
0001
0000
0100
0000
,
0001
0010
0100
0000
0010
0000
1001
0000
0010
0000
0000
0000
0100
0000
0000
0000
,
0001
0000
1000
0000
0010
0000
0000
1000
,
0001
0100
0010
1000
0001
0000
0100
0000
,
0001
1000
0010
0000
,
0100
0001
1000
0010
0100
0000
0001
0000
,
1000
0010
0101
0000
,
0010
1000
0001
0100
0010
0000
1000
0000
,
0010
0000
0100
0000
0001
0000
0000
1000
,
0010
0100
0001
1000
0000
0000
0000
0000
,
0000
0000
0000
0000
0000
0000
1000
0001
,
0100
0010
1000
0001
0000
0000
0000
0000
,
0000
0000
0000
0000
0001
0001
0001
1000
,
0010
0100
0001
1000
0000
0000
0000
0000
,
0000
0000
0000
0000
0000
0000
0010
0100
,
0001
1000
0010
0100
0000
0000
0000
0000
,
0000
0000
0001
1000
0000
0000
0010
0100
,
0000
0000
0000
0000
0000
0100
0001
0000
,
0000
0000
1000
0001
0100
0010
1000
0000
0001
0000
0100
0000
0010
0000
0100
0000
,
0010
0000
1000
0100
0010
0000
0000
0000
0001
0000
0010
0000
0001
0000
0010
0000
,
0001
1000
0100
0010
0001
0000
0000
0010
,
0100
1000
0010
0100
0001
0000
0000
0000
0000
0000
1000
0000
0100
0000
0010
0000
,
0100
0000
0000
0000
0001
1000
0010
0000
0001
0000
1000
0000
0010
0000
0100
0000
,
0010
0000
0100
0000
0001
0000
0100
0000
0000
0000
1000
0000
0010
0000
0100
1000
,
0010
0100
0000
1000
0001
0100
0001
0100
,
0010
1000
0010
0100
0000
1000
0010
1000
,
0100
1000
0100
0010
0001
0100
0010
0100
,
0010
0100
0001
0010
0001
0100
0001
1000
,
0010
0000
0100
0000
0010
0000
1000
0000
0001
0000
0100
1000
0010
0000
1000
0000
,
0001
1000
0010
0100
0000
1000
0001
0010
,
0001
0000
0010
1000
0001
0000
0000
0000
0100
0000
1000
0000
0001
0000
0010
0000
,
0100
0000
1000
0001
0010
0000
1000
0000
0001
0000
1000
0000
0001
0000
0010
0000
,
0001
0000
1000
0001
0100
0000
1000
0000
0001
0000
0010
0000
0001
0000
0010
0000
,
0100
0000
0010
0001
0100
0000
0001
0000
1010
0000
0000
0000
0000
0000
0000
0000
;
