#TITLE:Woke Up This Morning (Chosen One Mix);
#ARTIST:A3;
#MUSIC:Woke Up This Morning (Chosen One Mix).ogg;
#BANNER:Woke Up This Morning (Chosen One Mix).png;
#BACKGROUND:Woke Up This Morning (Chosen One Mix)-bg.png;
#SAMPLESTART:4.114;
#SAMPLELENGTH:15;
#OFFSET:-0.092;
#BPMS:0=179;
#BGSTAGE:4;

//--------------- dance-single - XLev450X-bSP ----------------
#NOTES:
     dance-single:
     XLev450X:
     Beginner:
     2:
     0,0,0,0,0:
0000
0000
0000
0000
,
0000
0000
0000
0000
,
0000
0000
0000
0000
,
1000
0000
0000
0000
,
0001
0000
1000
0000
,
0010
0000
0000
0000
,
0001
0000
0001
0000
,
1000
0000
0000
0000
,
0001
0000
0100
0000
,
0010
0000
0000
0000
,
0001
0000
1000
0000
,
0010
0000
0000
0000
,
1000
0000
0000
0000
,
0001
0000
0000
0000
,
0100
0000
0000
0000
,
0010
0000
0000
0000
,
1000
0000
0010
0000
,
1000
0000
0000
0000
,
0010
0000
0100
0000
,
0101
0000
0000
0000
,
1010
0000
0000
0000
,
0110
0000
0000
0000
,
1001
0000
0000
0000
,
0001
0000
0000
0000
,
1000
0000
0000
0000
,
0001
0000
0000
0000
,
0100
0000
0000
0000
,
0010
0000
1000
0000
,
0010
0000
0000
0000
,
0100
0000
0001
0000
,
0100
0000
0000
0000
,
1000
0000
0000
0000
,
0001
0000
0100
0000
,
0010
0000
0000
0000
,
1000
0000
0001
0000
,
1000
0000
0000
0000
,
1000
0000
0001
0000
,
0010
0000
0000
0000
,
0100
0000
0010
0000
,
0100
0000
0000
0000
,
1000
0000
0001
0000
,
1000
0000
0000
0000
,
0010
0000
0100
0000
,
0001
0000
0000
0000
,
0001
0000
0001
0000
,
0001
0000
1000
0000
,
0010
0000
0100
0000
,
0010
0000
0000
0000
,
0001
0000
0000
0000
,
1000
0000
0000
0000
,
0010
0000
0100
0000
,
0010
0000
0000
0000
,
0001
0000
0000
0000
,
1000
0000
0000
0000
,
0010
0000
0000
0000
,
0100
0000
0000
0000
,
0001
0000
0000
0000
,
1000
0000
0001
0000
,
0010
0000
0000
0000
,
0100
0000
0001
0000
,
1000
0000
0000
0000
,
1000
0000
0001
0000
,
0010
0000
0000
0000
,
0100
0000
0001
0000
,
0100
0000
0000
0000
,
1000
0000
0010
0000
,
1000
0000
0000
0000
,
2002
0000
0000
0000
,
0000
0000
3003
0000
;

//--------------- dance-single - XLev450X-BSP ----------------
#NOTES:
     dance-single:
     XLev450X:
     Easy:
     6:
     0,0,0,0,0:
0000
0000
0000
0000
,
0000
0000
0000
0000
,
0000
0000
0000
0000
,
1000
1000
1000
0001
,
0100
0000
0010
0000
,
0001
0001
0001
0001
,
1000
0000
0010
0000
,
0010
0001
0010
0000
,
1000
0100
1000
0000
,
0010
0100
0001
1000
,
0010
0000
1000
0000
,
0101
0000
1010
0000
,
0010
0000
0100
0000
,
0001
0000
1000
0001
,
0100
0000
0010
0000
,
0100
0000
0010
0000
,
1000
0001
1000
0010
,
0100
0000
0001
0000
,
1000
0000
0000
0000
,
0001
0000
1000
0000
,
0001
0000
1000
0010
,
1000
0000
0100
0000
,
0010
0000
0001
0010
,
0001
0000
1000
0000
,
0001
0000
0100
0010
,
1000
0000
0001
0000
,
1000
0000
0000
0000
,
0001
0000
0100
0000
,
0010
0000
1000
0000
,
0001
0000
0100
0000
,
0010
0000
0000
0000
,
1000
0000
0001
0000
,
1000
0000
0010
0000
,
0100
0000
0001
0000
,
1010
0000
0000
0000
,
0001
0000
0001
1000
,
0010
0000
0100
0000
,
0010
0001
1000
0000
,
1010
0000
0101
0000
,
0110
0001
1000
0010
,
0100
0000
0001
0000
,
0100
0000
0001
0000
,
1000
0001
1000
0010
,
0100
0000
0001
0000
,
1000
0000
0000
0000
,
1000
0000
0001
0100
,
0010
0000
0000
0000
,
0001
0000
0100
0010
,
1000
0000
0000
0000
,
0001
0000
1000
0001
,
0100
0000
0010
0000
,
0001
0000
1000
0000
,
0001
1000
0010
0100
,
0001
0000
0000
0000
,
1000
0000
0001
0100
,
0010
0000
0001
0000
,
0010
0100
1000
0000
,
0001
0100
0010
0000
,
1001
0000
0000
0000
,
1000
0000
0001
0000
,
0100
0001
0100
0000
,
0010
0000
1000
0000
,
0001
0100
0010
0000
,
0000
0000
1000
0000
,
0001
0100
0010
0000
,
0000
0000
0001
0000
,
1000
0001
0100
0010
,
2002
0000
0000
0000
,
0000
3003
0110
0000
;

//--------------- dance-single - XLev450X-DSP ----------------
#NOTES:
     dance-single:
     XLev450X:
     Medium:
     9:
     0,0,0,0,0:
0000
0000
0000
0000
,
0000
0000
0000
0000
,
0000
0000
0000
0000
,
1000
0000
0001
0000
0100
0010
0001
0000
,
1000
0000
0001
0000
1000
0010
1000
0000
,
0001
0000
0100
0000
0000
0001
0000
0000
,
1000
0000
0010
0100
0000
0001
1000
0000
,
0000
0000
0001
0000
1000
0010
0000
0000
,
0100
0000
0001
0000
1000
0001
0100
0000
,
0001
1000
0100
0001
,
1000
0000
0000
0001
0000
1000
0010
0000
,
0000
0000
0100
0000
0001
0010
0000
1000
,
0000
0001
0000
0000
0100
0001
1000
0000
,
0000
0000
0010
0100
,
0001
0010
0001
0000
1000
0010
1000
0000
,
0000
0000
0100
0000
0001
1000
0000
0001
,
0000
1000
0001
0000
,
0100
0000
0010
0000
1000
0001
0000
0100
,
0000
0010
1000
0001
,
0001
0000
1000
0000
,
0001
0100
0010
0000
,
1000
0000
0010
0000
0100
0001
0000
1000
,
0000
0010
0100
0001
,
1000
0000
0010
0000
,
0010
0000
0001
0000
1000
0001
0000
0000
,
0100
0000
0101
1010
,
0110
0000
0001
1000
,
0010
0000
1000
0001
,
0100
0000
0010
1000
,
0001
0000
0100
0000
0010
0001
0010
0000
,
1000
0010
1000
0000
0100
0000
0001
0000
,
1000
0000
0001
1000
,
0010
0000
1000
0000
,
0100
0000
0001
0000
1000
0000
0010
1000
,
0001
0100
0010
1000
,
0001
0000
1000
0000
,
0100
0001
1000
0000
,
0010
1000
0001
0100
,
0010
0000
1000
0000
0001
0100
0000
0010
,
0000
1000
0001
0000
,
0010
0001
1000
0000
,
0010
0100
1000
0001
,
0010
0001
1000
0000
0010
0100
0010
0000
,
1000
0000
0001
0000
,
0100
0001
1000
0000
,
0010
0000
0100
0000
,
0010
0000
1000
0000
0001
0100
0010
0000
,
1000
0001
1000
0010
,
0100
1000
0001
0000
,
1000
0001
0100
0010
,
1000
0000
0101
0000
,
0010
1000
0001
0000
,
1000
0000
0001
0000
0100
0010
0100
0000
,
0001
1000
0101
1010
,
0110
0000
0000
0001
0000
1000
0010
0100
,
0000
0000
0001
0000
0000
1000
0000
0001
,
0000
0000
0100
0000
0010
1000
0000
0000
,
0001
0000
1000
0000
0010
0100
0000
0001
,
0000
1000
0001
0100
,
0000
0000
0001
0000
1000
0010
0000
0000
,
0100
0000
0000
1000
0000
0000
0001
0000
,
0100
0010
1000
0000
,
0001
0000
1000
0000
0001
0000
0100
0010
,
1000
0001
0100
0000
,
1000
0000
0001
0000
0100
0000
0010
1000
,
0001
0100
0010
0000
,
1000
0001
0100
0000
,
0001
0000
1000
0000
0010
0000
0100
0001
,
1000
0000
0000
0000
0010
0000
0000
0000
2002
3003
0000
0000
0000
0000
0000
0000
;

//--------------- dance-single - XLev450X-ESP ----------------
#NOTES:
     dance-single:
     XLev450X:
     Hard:
     14:
     0,0,0,0,0:
0000
0000
0000
0000
,
0000
0000
0000
0000
,
0000
0000
0000
0000
,
0000
0000
0000
1000
0001
0000
0010
0000
0100
0000
0001
0000
0010
0000
0000
0000
,
0001
0000
0000
0000
0010
0000
0000
0000
0001
1000
0001
1000
0001
0000
0000
0000
,
1000
0000
0001
0000
0100
0000
0010
0001
,
1000
0000
0000
0000
0100
0000
0000
0000
0010
0001
0010
0001
0010
0000
0000
0000
,
1000
0000
0001
0000
0100
1000
0010
0001
,
1000
0000
0000
0010
0000
0000
0001
0000
1000
0010
1000
0010
1000
0000
0000
0000
,
0100
0000
0001
0000
0010
0100
0001
0000
,
1000
0000
0000
0000
0010
0000
0000
0000
1000
0001
1000
0001
1000
0000
0000
0000
,
0100
0000
0000
0001
1000
0010
0000
0100
,
0000
0000
0002
0000
0000
0003
0000
0000
1000
0000
0001
0000
0000
0000
0200
0000
,
0000
0300
0000
0000
0001
1000
0000
0020
,
0000
0000
0030
0000
0000
0000
0100
0000
0001
1000
0001
1000
0001
0000
0000
0000
,
0000
0000
1000
0000
0001
0100
0000
0010
,
0000
1000
0000
0001
1000
0000
0100
0000
,
0010
0000
1000
0000
0001
0100
0000
0010
,
1000
0000
0000
0000
0001
0000
0000
0000
0010
1000
0001
0010
1000
0000
0001
0000
,
1000
0000
0001
0000
0010
0001
0010
0000
,
1000
0000
0000
0000
0001
0000
0000
0000
0001
0100
0001
0100
0001
0000
0000
0000
,
1000
0000
0010
0000
1000
0001
0100
0010
,
1000
0000
0000
0000
0001
0000
0000
0000
0001
1000
0001
1000
0001
0000
0000
0000
,
0001
0000
0000
1000
0100
0000
0010
0000
0001
0000
0100
1000
0000
0000
0100
0000
,
0001
0000
0000
1000
0000
0000
0001
0000
0100
0000
0000
0010
0000
0000
0100
0000
,
0000
0000
0000
0000
0000
0000
0000
0000
1000
0100
0000
0001
0000
0000
0010
0000
,
0100
0000
0000
0000
0001
0000
0000
0000
0010
0001
0010
0001
0010
0000
0100
1000
,
0002
0000
0000
0000
0003
0000
0000
0001
0100
0000
1000
0000
0001
0000
0000
0000
,
1000
0000
0010
0100
0000
0001
0000
0010
,
1000
0001
0010
0100
0001
1000
0010
0200
,
0000
0000
0300
0001
0000
1000
0010
0100
,
0000
0000
1000
0000
0001
0100
0000
0010
,
0000
1000
0001
0100
,
0001
1000
0010
0000
0100
0001
0000
1000
,
0000
0000
0010
0000
0001
0100
0001
0000
,
0000
0000
0010
0000
1000
0001
0000
0000
,
0100
0000
0000
0010
0000
0000
1000
0000
,
0001
0010
0001
0000
1000
0000
0001
0000
,
0101
0000
1010
0000
0010
0100
0000
0001
,
0000
1000
0000
0001
,
0100
0010
1000
0000
,
0001
0100
0010
0000
,
0001
0000
1000
0000
0010
0000
0100
0000
0001
0000
1000
0001
0010
1000
0010
0001
,
0100
0000
0001
0000
0100
0010
0000
0000
,
1010
0000
0000
0101
0000
0000
0000
1000
,
0001
0000
0100
0000
0010
0001
0000
1000
,
0000
0000
0000
0001
0000
0100
0010
1000
,
0001
0100
0010
0000
1000
0000
0001
0100
,
0000
0000
0010
0000
0000
0000
0000
0000
1000
0000
0100
0000
0001
1000
0001
0000
,
0100
0000
0000
0000
0001
0000
0000
0000
1000
0000
0000
0001
0000
0000
0100
0000
,
0000
0000
0000
0000
0001
0000
0000
0000
1000
0000
0010
0000
0001
0100
0001
0000
,
0000
0000
0000
1000
0001
0100
0000
0010
,
0000
1000
0000
0100
0001
0100
0000
0020
,
0000
0030
0000
0000
1001
0000
0101
0000
,
1010
0000
0000
0001
0000
0100
0001
1000
,
0000
0000
0001
0000
1000
0010
0000
0100
,
0000
0001
0000
1000
0001
1000
0000
0000
,
0010
0000
0100
0000
0001
1000
0000
0001
,
0100
0000
0010
0000
1000
0001
0100
0010
,
0000
0000
1000
0000
0001
0100
0000
0000
,
0010
0000
0000
0101
0000
0000
0010
1000
,
0001
0100
1000
0001
,
0010
0001
0010
0000
1000
0000
0010
0100
,
0001
1000
0001
0100
,
0010
1000
0001
0000
0100
0000
0010
1000
,
0010
0000
0100
0000
0001
0000
1000
0010
,
0100
0000
0001
0000
1000
0010
0100
0001
,
1000
0000
0010
0000
0100
0000
0001
0100
,
0010
0000
0100
0000
0010
0000
0000
0000
2002
3003
0000
0000
0000
0000
0000
0000
;
