#TITLE:With My Mind;
#ARTIST:Cold;
#GENRE:ROCK;
#MUSIC:With My Mind.ogg;
#BANNER:With My Mind.png;
#BACKGROUND:With My Mind-bg.png;
#SAMPLESTART:61.102;
#SAMPLELENGTH:15;
#OFFSET:-0.313;
#BPMS:0=190;
#BGCHANGES:0=With My Mind.mp4=1.000=0=0=0=StretchNoLoop====,
99999=-nosongbg-=1.000=0=0=0 // don't automatically add -songbackground-;
#BGSTAGE:27;

//--------------- dance-single - XLev450X-bSP ----------------
#NOTES:
     dance-single:
     XLev450X:
     Beginner:
     2:
     0,0,0,0,0:
0000
0000
0000
0000
,
0000
0000
0000
0000
,
0000
0000
0000
0000
,
0000
0000
0000
0000
,
0000
0000
0000
0000
,
0000
0000
0000
0000
,
0000
0000
0000
0000
,
0000
0000
0000
0000
,
0000
0001
0000
0001
0000
0001
0000
0000
,
0000
0010
0000
0010
0000
0010
0000
0000
,
0000
0100
0000
0000
0000
0100
0000
0000
,
0000
0100
0000
0000
0000
0000
0000
0000
,
0000
1000
0000
1000
0000
1000
0000
0000
,
0000
0001
0000
0001
0000
0001
0000
0000
,
0000
0010
0000
0000
0000
0100
0000
0000
,
0000
0010
0000
0000
0000
0000
0000
0000
,
0000
0001
0000
0000
0000
0000
0000
0000
,
0000
0000
0000
0000
,
0000
0010
0000
0000
0000
0000
0000
0000
,
0000
0000
0000
0000
,
0000
0100
0000
0000
0000
0000
0000
0000
,
0000
0000
0000
0000
,
0000
1000
0000
0000
0000
0000
0000
0000
,
0000
0000
0000
0000
,
0000
0100
0000
0000
0000
0000
0000
0000
,
0000
0010
0000
0000
0000
0000
0000
0000
,
0000
0100
0000
0000
0000
0000
0000
0000
,
0000
0000
0000
0000
,
0000
0001
0000
0000
0000
0000
0000
0000
,
0000
0010
0000
0000
0000
0000
0000
0000
,
0000
0001
0000
0000
0000
0000
0000
0000
,
0000
0000
0000
0000
,
0000
1000
0000
0000
0000
0010
0000
0000
,
0000
1000
0000
0000
0000
0000
0000
0000
,
0000
0100
0000
0000
0000
0010
0000
0000
,
0000
0100
0000
0000
0000
0000
0000
0000
,
0000
0001
0000
0000
0000
0010
0000
0000
,
0000
0001
0000
0000
0000
0000
0000
0000
,
0000
1000
0000
0000
0000
0010
0000
0000
,
0000
1000
0000
0000
0000
0000
0000
0000
,
0000
0001
0000
0000
0000
0001
0000
0000
,
0000
0001
0000
0000
0000
0000
0000
0000
,
0000
1000
0000
0000
0000
1000
0000
0000
,
0000
1000
0000
0000
0000
0000
0000
0000
,
0000
1001
0000
0000
0000
0000
0000
0000
,
0000
0000
0000
0000
,
0000
1001
0000
0000
0000
0000
0000
0000
,
0000
0000
0000
0000
,
0000
0001
0000
0001
0000
0001
0000
0000
,
0000
0000
0000
0000
,
0000
1000
0000
1000
0000
1000
0000
0000
,
0000
0000
0000
0000
,
0000
0010
0000
0010
0000
0010
0000
0000
,
0000
0000
0000
0000
,
0000
0100
0000
0100
0000
0100
0000
0000
,
0000
0000
0000
0000
,
0000
0001
0000
0000
0000
1000
0000
0000
,
0000
0001
0000
0000
0000
0000
0000
0000
,
0000
0010
0000
0000
0000
0001
0000
0000
,
0000
0010
0000
0000
0000
0000
0000
0000
,
0000
0100
0000
0000
0000
1000
0000
0000
,
0000
0100
0000
0000
0000
0000
0000
0000
,
0000
0010
0000
0000
0000
0100
0000
0000
,
0000
0010
0000
0000
0000
0000
0000
0000
,
0000
1001
0000
0000
0000
0000
0000
0000
;

//--------------- dance-single - XLev450X-BSP ----------------
#NOTES:
     dance-single:
     XLev450X:
     Easy:
     5:
     0,0,0,0,0:
0000
0000
0000
0000
,
0000
0000
0000
0000
,
0000
0000
0000
0000
,
0000
0000
0000
0000
,
0000
0000
0000
0000
,
0000
0000
0000
0000
,
0000
0000
0000
0000
,
0000
0000
0000
0000
,
0000
0001
0000
1000
0000
0001
0000
0000
,
0000
0010
0000
1000
0000
0010
0000
0000
,
0000
0010
0000
0100
0000
0010
0000
0000
,
0000
0001
0000
0010
0000
0001
0000
0000
,
0000
1000
0000
0000
0000
0001
0000
0000
,
0000
0010
0000
1000
0000
0010
0000
0000
,
0000
0100
0000
0000
0000
0001
0000
0000
,
0000
0010
0000
0100
0000
1000
0000
0000
,
0000
0001
0000
0000
0000
0001
0000
0000
,
0000
1000
0000
0000
0000
1000
0000
0000
,
0000
0010
0000
0000
0000
1000
0000
0000
,
0000
0010
0000
0000
0000
0000
0000
0000
,
0000
1000
0000
0000
0000
0100
0000
0000
,
0000
0001
0000
0000
0000
0010
0000
0000
,
0000
1000
0000
0000
0000
0001
0000
0000
,
0000
1000
0000
0000
0000
0000
0000
0000
,
0000
0010
0000
0000
0000
0100
0000
0000
,
0000
0010
0000
0000
0000
1000
0000
0000
,
0000
0100
0000
0000
0000
0001
0000
0000
,
0000
0010
0000
0000
0000
0000
0000
0000
,
0000
1000
0000
0000
0000
0001
0000
0000
,
0000
0100
0000
0000
0000
0010
0000
0000
,
0000
1000
0000
0000
0000
0001
0000
0000
,
0000
1001
0000
0000
0000
0000
0000
0000
,
0000
1000
0000
0000
0000
0001
0000
0000
,
0000
0100
0000
0000
0000
0010
0000
0000
,
0000
1000
0000
0000
0000
0001
0000
0001
,
0000
0000
0000
1000
0000
0010
0000
0000
,
0000
0100
0000
0000
0000
1000
0000
0000
,
0000
0001
0000
0000
0000
0100
0000
0000
,
0000
0010
0000
0000
0000
0100
0000
1000
,
0000
0000
0000
0000
,
0000
0001
0000
0000
0000
1000
0000
0000
,
0000
0010
0000
0000
0000
0100
0000
0000
,
0000
0001
0000
0000
0000
1000
0000
0010
,
0000
0000
0000
0100
0000
0010
0000
1001
,
0000
0000
0000
0000
,
0000
0000
0000
0001
0000
0100
0000
1000
,
0000
0000
0000
0000
0000
0000
0000
0001
,
0000
0000
0000
0000
,
0000
1000
0000
0000
0000
0001
0000
0000
,
0000
0100
0000
0000
0000
0010
0000
0000
,
0000
1000
0000
0000
0000
0001
0000
1000
,
0000
0000
0000
0000
0000
0010
0000
0100
,
0000
0001
0000
0000
0000
1000
0000
0000
,
0000
0010
0000
0000
0000
0100
0000
0000
,
0000
0001
0000
0000
0000
1000
0000
0010
,
0000
0000
0000
0000
0000
0000
0000
1000
,
0000
0001
0000
0000
0000
0100
0000
0000
,
0000
0010
0000
0000
0000
1000
0000
0000
,
0000
0001
0000
0000
0000
0100
0000
1000
,
0000
0000
0000
0001
0000
0010
0000
0101
,
0000
0000
0000
0000
,
0000
0000
0000
0001
0000
1000
0000
1000
,
0000
0000
0000
0000
0000
0000
0000
0100
,
0000
0000
0000
0000
,
0000
0001
0000
0010
0000
0001
0000
0000
,
0000
1000
0000
0010
0000
1000
0000
0000
,
0000
0001
0000
1000
0000
0001
0000
0000
,
0000
1000
0000
0000
0001
0000
0000
1001
;

//--------------- dance-single - XLev450X-DSP ----------------
#NOTES:
     dance-single:
     XLev450X:
     Medium:
     8:
     0,0,0,0,0:
0000
0000
0000
0000
,
0000
0000
0000
0000
,
0000
0000
0000
0000
,
0000
0000
0000
0000
,
0000
0000
0000
0000
,
0000
0000
0000
0000
,
0000
0000
0000
0000
,
0000
0000
0000
0000
,
0000
0001
0000
0010
0000
1000
0000
0010
,
0000
0000
0000
0001
0000
1000
0000
0010
,
0000
0100
0000
1000
0000
0001
0000
0010
,
0000
0000
0000
1000
0000
0100
0000
0001
,
0000
0010
0000
1000
0000
0010
0000
0100
,
0000
0000
0000
1000
0000
0010
0000
1000
,
0000
0001
0000
0010
0000
0100
0000
1000
,
0000
0000
0000
0001
0000
1000
0000
0010
,
0000
1000
0000
0001
0000
0010
0000
0001
,
0000
0000
0000
0001
0000
0010
0000
1000
,
0000
0000
0000
0010
0000
1000
0000
0100
,
0000
0000
0000
0010
0000
1000
0000
0001
,
0000
0010
0000
1000
0000
0001
0000
0010
,
0000
0000
0000
1000
0000
1000
0000
0010
,
0000
0100
0000
0001
0000
0010
0000
1000
,
0000
0000
0000
0001
0000
0010
0000
1000
,
0001
1000
0000
0010
0000
1000
0000
0100
,
0000
0000
0000
0010
0000
0001
0000
0010
,
0000
1000
0000
0100
0000
1000
0000
0010
,
0000
0000
0000
0001
0000
0010
0000
0001
,
0010
0001
0000
1000
0000
0001
0000
0100
,
0000
0000
0000
0001
0000
1000
0000
0010
,
0000
0000
0000
0100
0000
0001
0000
0010
,
0000
0001
0010
0001
0000
0010
0100
0010
,
0000
1000
0000
0001
0000
0100
0000
0010
,
0000
0000
1000
0000
0000
0001
0000
0000
,
0000
0100
0000
0010
0000
1000
0000
0001
,
0000
0000
0100
0000
0000
0001
0000
1000
,
0000
0010
0000
0100
0000
1000
0000
0001
,
0000
0000
0100
0000
0000
0010
0000
0000
,
0000
1000
0000
0001
0000
0010
0000
1000
,
0000
0000
0001
0000
0000
0100
0000
0001
,
1000
0001
0000
0010
0000
1000
0000
0010
,
0000
0000
0100
0000
0000
0001
0000
0000
,
0000
1000
0000
0001
0000
0100
0000
1000
,
0000
0000
0010
0000
0000
0100
0000
0000
,
0000
0001
0000
0010
0000
0010
0000
0010
,
0000
0000
0000
0100
0000
0010
0000
1000
,
0000
0100
0000
0100
0000
0100
0000
1001
,
0000
0000
0000
0000
,
0000
1000
0000
0001
0000
0100
0000
0010
,
0000
0000
1000
0000
0000
0001
0000
0000
,
0000
0100
0000
0001
0000
1000
0000
0010
,
0000
0000
0100
0000
0000
0001
0000
0000
,
0000
1000
0000
0010
0000
1000
0000
0010
,
0000
0000
0100
0000
0000
0001
0000
0000
,
0000
0001
0000
0010
0000
1000
0000
1001
,
0000
0000
0000
1000
0000
1001
0000
0000
,
1000
0001
0000
1000
0000
0010
0000
0100
,
0000
0000
0001
0000
0000
1000
0000
0000
,
0000
0010
0000
0100
0000
1000
0000
0001
,
0000
0000
0010
0000
0000
1000
0000
0000
,
0000
0010
0000
0001
0000
0001
0000
0001
,
0000
0000
0000
0010
0000
0100
0000
1000
,
0000
1000
0000
1000
0000
1000
0000
0001
,
0000
0000
0000
1000
0000
0001
0000
0100
,
0000
1000
0000
0001
0000
0010
0000
1000
,
0000
0000
0000
0001
0000
1000
0000
0010
,
0000
0100
0000
0001
0000
0010
0000
1000
,
0000
0001
0000
0000
1000
0000
0000
1001
;

//--------------- dance-single - XLev450X-ESP ----------------
#NOTES:
     dance-single:
     XLev450X:
     Hard:
     10:
     0,0,0,0,0:
0000
0000
0000
0000
,
0000
0000
0000
0000
,
0000
0000
0000
0000
,
0000
0000
0000
0000
,
0000
0000
0000
0000
,
0000
0000
0000
0000
,
0000
0000
0000
0000
,
0000
0000
0000
0000
,
0000
0001
0000
1000
0000
0001
0000
0010
,
0000
0000
0100
0000
0000
0001
0000
0010
,
0000
0001
0000
1000
0000
0010
0000
0100
,
0000
0000
0001
0000
0000
1000
0000
0010
,
1000
0010
0000
0100
0000
0001
0000
1000
,
0000
0000
0001
0000
0000
0100
0000
0010
,
0000
1000
0000
0001
0000
0010
0000
0100
,
0000
0000
0001
0000
0000
1000
0000
0001
,
1000
0001
0000
0010
0000
1000
0000
0001
,
0000
0000
0000
0010
0000
1000
0000
0010
,
0000
0001
0000
0010
0001
0010
0000
1000
,
0000
0010
0000
0100
0000
1000
0000
0001
,
0000
1000
0000
0010
0100
0010
0000
1000
,
0000
0000
0000
0001
0000
0010
0000
1000
,
0010
1000
0000
0010
0000
0001
0000
0100
,
0000
0000
0000
1000
0000
0001
0000
1000
,
0001
1000
0000
0010
0000
0100
0000
0010
,
0000
0000
0000
0001
0000
0010
0000
0001
,
0010
0001
0000
1000
0010
1000
0000
0010
,
0100
0010
0000
0001
0000
1000
0000
0001
,
0000
0100
0000
1000
0000
0001
0000
0010
,
0000
0000
0000
0100
0000
1000
0000
0001
,
0000
0010
0000
1000
0000
0001
0000
0010
,
0000
1000
0010
0100
0001
1000
0010
1000
,
0001
1000
0000
0010
0000
1000
0000
0010
,
0000
0000
0100
0000
0000
0001
0000
0010
,
0000
1000
0000
0010
0000
0100
0000
1000
,
0000
0000
0001
0000
0000
0001
0000
1000
,
0001
0010
0000
1000
0000
0100
0000
1000
,
0000
0000
0010
0000
0000
0110
0000
0000
,
0000
0001
0000
0010
0000
1000
0000
0001
,
0000
0000
1000
0000
0000
0010
0000
1000
,
0010
0001
0000
1000
0000
0001
0000
0100
,
0000
0000
1000
0000
0000
0001
0000
0000
,
1000
0010
0000
1000
0000
0100
0000
0001
,
0000
0000
0100
0000
0000
1000
0000
0001
,
0010
1000
0000
0010
0000
0100
0000
1000
,
0000
0000
0001
0000
0000
0010
0000
0000
,
1000
0001
0000
1000
0000
0010
0000
1000
,
0000
0010
0000
0100
0000
0001
1000
0010
,
1000
0010
0000
0100
0000
0001
0000
1000
,
0000
0011
0000
0101
0000
1001
0000
0001
,
0000
1000
0000
0010
0000
0100
0000
0001
,
0000
1100
0000
1010
0000
1001
0000
0001
,
0100
1000
0000
0010
0000
1000
0000
0001
,
0000
1100
0000
0110
0000
0011
0000
1000
,
0000
0001
0000
1000
0010
1000
0000
0010
,
0001
0010
0000
1000
0000
0001
0010
0000
,
0100
1000
0000
0001
0000
0010
0000
0100
,
0000
0011
0000
0110
0000
1100
0000
0001
,
0000
0010
0000
1000
0010
1000
0000
0001
,
0000
1100
0000
0110
0000
0011
0000
0001
,
0000
1000
0000
1000
0000
1000
0000
1000
,
0000
0010
0000
0100
0000
0001
0000
1000
,
0000
0001
0000
0001
0000
0001
0000
1000
,
0000
0010
0000
0100
0000
1000
0100
0001
,
0000
0001
0010
1000
0000
0010
0000
0100
,
0000
0010
0100
0010
0000
0001
0000
0010
,
0000
0001
0010
0001
0100
1000
0100
1000
,
0010
1001
0000
0000
1010
0000
0000
0110
;
