#TITLE:WhiteBlue;
#ARTIST:zts;
#GENRE:TRANCE;
#MUSIC:WhiteBlue.ogg;
#BANNER:WhiteBlue.png;
#BACKGROUND:WhiteBlue-bg.png;
#CDTITLE:./CDTitles/DJMAX Portable 2.png;
#SAMPLESTART:1.477;
#SAMPLELENGTH:15;
#SELECTABLE:YES;
#OFFSET:-0.227;
#BPMS:0=144
,135=72
,167=144;
#STOPS:;
#DISPLAYBPM:72:144;
#BGSTAGE:3;
#BGCHANGES:0.250=WhiteBlue.mp4=1.000=0=0=0=StretchNoLoop====,
99999.000=-nosongbg-=1.000=0=0=0=StretchNoLoop====;

//--------------- dance-single - XLev450X-bSP ----------------
#NOTES:
     dance-single:
     XLev450X:
     Beginner:
     5:
     0,0,0,0,0:
0000
0000
0000
0000
,
0000
0000
0000
0000
,
0000
0000
0000
0000
,
0000
0000
0000
0000
,
0000
0000
0000
0000
,
0000
0000
0000
0000
,
0000
0000
0000
0000
,
0000
0000
0000
0000
,
0000
0000
0000
1000
,
1000
1000
0000
0010
,
0010
0010
0000
0001
,
0001
0001
0000
0100
,
0100
0100
0000
1000
,
0001
1000
0000
0010
,
0100
0010
0000
0010
,
0001
1000
0010
0100
,
0000
0000
0000
1000
,
0001
0100
0000
0010
,
0001
1000
0000
1000
,
0001
1000
0000
0010
,
1000
0010
0000
0100
,
0001
0100
0000
0001
,
1000
0010
0000
0100
,
0001
1000
0000
0010
,
1000
0001
0000
1000
,
0001
0100
0000
0010
,
0010
1000
0000
1000
,
0001
0100
0000
0100
,
0100
0001
0000
1000
,
0001
0100
0000
0010
,
0100
0001
0000
1000
,
0010
0100
0010
1001
,
0000
0000
0000
0110
,
0000
0000
0000
1000
,
1000
1000
0000
0010
,
0100
0010
0000
0001
,
1000
0001
0000
0010
,
0001
0010
0000
0010
,
1000
0001
0100
0010
,
1000
0001
0100
0010
,
0001
1000
0010
0100
,
1001
0000
0000
0001
,
0001
1000
0000
0010
,
0100
0001
0000
1000
,
0010
1000
0001
0100
,
0010
1000
0000
0001
,
0000
1000
0000
0010
,
0100
1000
0000
0010
,
0000
0001
0000
0100
,
0000
1000
0000
0001
,
1000
0010
0000
1000
,
0010
0100
0000
0001
,
1000
0010
0000
1000
,
0001
0100
0000
0010
,
1000
0001
0000
0010
,
0100
0001
0000
1000
,
0010
0100
0010
1001
,
0000
0000
0000
0000
,
0001
1000
0010
1000
,
0000
0001
0100
0001
,
0000
1000
0010
1000
,
0000
0010
0100
0001
,
0000
1000
0001
1000
,
0010
0100
0001
0010
,
0000
1000
0001
0100
,
0000
0010
1000
0001
,
0001
0001
1000
1000
,
0010
0100
0001
1000
,
0010
1000
0001
0100
,
0010
1000
0000
0001
,
0001
0001
1000
1000
,
1000
0010
0100
0001
,
1000
0010
0100
1001
,
0000
0000
0000
0110
;

//--------------- dance-single - XLev450X-BSP ----------------
#NOTES:
     dance-single:
     XLev450X:
     Easy:
     7:
     0,0,0,0,0:
0000
0000
0000
0000
,
0000
0000
0000
0000
,
0000
0000
0000
0000
,
0000
0000
0000
0000
,
0000
0000
0000
0000
0000
1000
0000
0001
,
0000
0100
0000
0010
0001
1000
0000
0001
,
0000
0100
0000
0001
1000
0100
0000
0010
,
0000
0100
0000
0001
1000
0010
0000
0100
,
0000
0001
0000
1000
0010
0100
0001
0000
,
1000
0000
0001
0000
1000
0000
0001
0100
,
0010
0000
1000
0010
0100
0000
0001
0000
,
1000
0001
0100
0010
,
0000
1000
0001
0100
,
0001
0000
1000
0000
0010
0000
1000
0010
,
1000
0000
0100
0001
0100
0000
0001
0000
,
1000
0010
0100
1001
,
0000
0000
0000
0001
,
1000
0000
0000
0010
0100
0000
0001
0000
,
1000
0000
0000
0001
1000
0000
0010
0000
,
1000
0000
0001
0000
0100
0000
0010
0001
,
0010
0000
1000
0010
1000
0000
0001
0000
,
0100
0001
0000
1000
,
0001
0100
0000
0010
,
1000
0001
1000
0010
,
0100
0001
0000
1000
,
0001
0000
1000
0010
1000
0000
0001
0100
,
0010
0000
0001
1000
0010
0000
1000
0000
,
0001
0000
0100
0001
0100
0000
0010
1000
,
0010
1000
0000
0001
0100
0000
0010
0000
,
1000
0001
0000
0100
,
0001
1000
0000
1000
,
0001
0000
0100
0000
0010
0000
0000
1000
,
0001
0000
0100
0010
0000
1000
0202
0000
,
0000
0000
0000
0000
0000
0303
0000
1000
,
0000
1000
0000
0001
0000
0000
0000
0010
,
0000
0100
0000
0010
0000
0000
0000
0001
,
0000
1000
0000
0001
0000
0000
0000
1000
,
0000
0010
0000
0100
0000
0001
0000
1000
,
0000
0001
0000
0100
0000
0010
0000
0001
,
0000
1000
0000
0001
1000
0010
0100
0000
,
0001
0000
1000
0001
0100
0000
0010
1000
,
0202
0000
0303
1000
,
0001
1000
0000
0001
,
1000
0010
0000
0100
,
0001
1000
0000
1000
,
0001
0000
0010
0000
0100
0001
1000
0000
,
0010
1000
0000
0001
,
0100
0010
0000
1000
,
0001
0100
0000
0010
,
1000
0000
0001
0100
0001
0000
1000
0000
,
0010
0000
1000
0010
1000
0000
0001
0000
,
0100
0000
0010
0100
0001
0000
1000
0000
,
0001
1000
0000
0001
,
0010
1000
0000
0100
,
1000
0001
0000
0100
,
0001
0000
1000
0000
0000
0000
1000
0001
,
0100
0000
0010
1000
0010
0000
0100
0000
,
0001
2002
3003
1000
,
0001
0100
0010
1000
,
0001
0010
0000
1000
,
0001
0100
0000
0010
,
1000
0000
0001
0100
0001
0000
1000
0000
,
0010
1000
0000
0001
,
0100
1000
0000
1000
,
0001
0010
0000
0100
,
0001
1000
0000
0001
,
0001
1000
0010
0100
,
0001
0000
1000
0000
0001
0000
0100
0001
,
0100
0000
1000
0010
1000
0000
0001
0000
,
0100
0010
0000
1000
,
0001
0000
0100
0000
0010
0000
1000
0001
,
1000
0000
0010
0100
0010
0000
0001
0000
,
1000
0000
0010
0100
0001
0000
0000
1000
,
0001
0000
1000
0000
0010
0100
2002
0000
,
0000
0000
0000
0000
,
0000
0000
0000
0000
,
0000
0000
0000
0000
,
0000
0000
0000
0000
,
3003
0000
0000
0000
;

//--------------- dance-single - XLev450X-DSP ----------------
#NOTES:
     dance-single:
     XLev450X:
     Medium:
     10:
     0,0,0,0,0:
0000
0000
0000
0000
,
0000
0000
0000
0000
,
0000
0000
0000
0000
,
0000
0000
0000
0000
,
0000
0000
0000
0000
0000
1000
0000
0001
,
0000
0100
0000
0010
1000
0001
0000
0100
,
0000
0010
0000
1000
0001
0100
0000
0010
,
0000
1000
0000
0001
0100
0010
0000
1000
,
0000
0001
0000
0000
1000
0000
0001
0100
,
0010
0000
0001
0010
0001
0000
1000
0010
,
0100
0000
1000
0001
0100
0000
0010
0001
,
1000
0000
0010
0100
0001
0000
1000
0010
,
1000
0000
0001
0100
0010
0000
0001
0000
,
1000
0000
0010
0100
0001
0000
1000
0000
,
0010
0000
1000
0000
0100
0000
0001
1000
,
0010
0100
0001
1000
0010
0100
0001
1000
,
0010
0000
2200
0000
3300
0000
0000
0001
1000
0000
0100
0000
0001
0000
0000
0000
,
1000
0000
0001
0010
0001
0000
1000
0000
,
0010
0000
1000
0000
0001
0000
0100
0001
,
0100
0000
1000
0010
1000
0000
0010
0100
,
0010
0000
0010
0001
0010
0000
1000
0000
,
0001
0100
0010
1000
,
0001
0000
0100
0000
0010
0000
0001
1000
,
0001
0000
0100
0010
1000
0000
0100
0001
,
0100
0000
0010
1000
0010
0000
0101
0000
,
1010
0110
1001
0101
,
1010
0000
0110
0000
1001
0000
0001
1000
,
0010
0000
0001
1000
0010
0000
0100
0001
,
1000
0000
0010
0100
0001
0000
0101
0000
,
0101
0101
1010
1010
,
0110
0000
1001
0000
0110
0000
0001
1000
,
0010
0100
0001
1000
0010
0100
0000
0001
,
0000
1000
0000
0000
0010
0000
0100
0000
0000
1000
0001
0000
2000
0000
0000
0000
,
0000
0000
0000
0000
3000
0000
0100
0001
,
1000
0000
0010
0100
0000
0001
0000
1000
,
0001
0100
0000
1000
0010
0100
0001
0000
,
1000
0010
0000
0001
1000
0010
0000
0100
,
0001
0000
0000
1000
0010
0100
0000
0001
,
1000
0000
0010
0100
0001
1000
0000
0010
,
0001
1000
0001
0100
0001
1000
0010
0000
,
0100
0001
1000
0000
0010
0100
0001
0100
,
0002
0000
0000
0000
0000
0000
0003
1000
,
0001
0000
0100
0010
0000
1000
0000
0001
,
0100
0010
0000
0001
1000
0010
0100
0000
,
0001
1000
0000
0010
0100
0001
0000
1000
,
0010
0100
0000
0001
1000
0010
0000
1000
,
0001
0000
0100
0010
1000
0001
0000
1000
,
0001
0100
0000
0010
0001
1000
0000
0010
,
0100
0000
0001
1000
0000
0010
0000
0100
,
0001
1000
0000
0010
0100
0001
0000
1000
,
0001
0000
0010
0000
1000
0001
0100
0000
,
1000
0000
0010
0001
1000
0010
0100
0000
,
0001
0000
1000
0010
1000
0000
0100
0000
,
1000
0000
0010
0001
0010
0000
1000
0010
,
0100
0000
0001
1000
0010
0000
0100
0000
,
0001
0000
1000
0000
0010
0000
1000
0010
,
1000
0000
0100
0001
0100
0000
0010
0000
,
1000
0000
2002
0000
0000
3003
0001
0000
,
1000
0000
0001
0100
0010
1000
0001
0000
,
0010
0000
1000
0010
1000
0000
0100
0000
,
0001
0000
0010
0100
0001
1000
0010
0000
,
0100
0000
0001
0000
1000
0000
0001
0100
,
0010
0000
1000
0001
0100
0000
0010
0000
,
1000
0000
0001
0000
0100
0000
0010
1000
,
0001
0010
1000
0001
,
0100
0000
0010
1000
0001
0000
0001
0000
,
0001
0000
1000
0010
0100
0000
1000
0000
,
0001
0000
1000
0000
0001
0000
0100
0010
,
1000
0000
0001
0000
0010
0000
0100
0001
,
1000
0000
0010
0000
0100
0000
0001
1000
,
0010
0000
1000
0010
1000
0000
0100
0001
,
0100
0000
0010
0000
1000
0000
0001
0100
,
0010
0000
0000
0000
1000
0000
0001
0000
0100
0000
0010
0000
0000
1000
0000
0000
,
0010
0000
1000
0000
0000
0100
0001
0000
0100
0010
0000
0100
2002
0000
0000
0000
,
0000
0000
0000
0000
,
0000
0000
0000
0000
,
0000
0000
0000
0000
,
0000
0000
0000
0000
,
3003
0000
0000
0000
;

//--------------- dance-single - XLev450X-ESP ----------------
#NOTES:
     dance-single:
     XLev450X:
     Hard:
     15:
     0,0,0,0,0:
0000
0000
0000
0000
,
0000
0000
0000
0000
,
0000
0000
0000
0000
,
0000
0000
0000
0000
,
0000
0000
0000
0000
0000
0001
0000
1000
,
0000
0000
0010
0000
0000
0000
0100
0001
0000
0000
1000
0000
0000
0000
0010
0000
,
0000
0000
0100
0000
0000
0000
1000
0010
0000
0000
0001
0000
0000
0000
1000
0000
,
0000
0000
0010
0000
0000
0000
0100
0001
0000
0000
1000
0000
0000
0000
0010
0000
,
0000
0000
0100
0000
0000
0000
0001
0000
1000
0010
0100
0000
0001
0000
1000
0000
,
0010
0000
0100
0000
0000
0010
0001
0000
1000
0000
0010
0000
0100
0000
0001
0000
,
1000
0000
0010
0000
0000
0001
0100
0000
1000
0000
0001
0000
0100
0000
0010
0000
,
1000
0000
0001
0000
0000
0100
0001
0000
1000
0000
0010
0000
0100
0000
0001
0000
,
1000
0000
0100
0000
0000
0010
0100
0000
0001
0000
1000
0000
0010
0000
0100
0000
,
0001
0000
1000
0000
0000
0001
0100
0000
1000
0000
0010
0000
0100
0000
1000
0000
,
0001
0000
0100
0000
0000
0010
1000
0000
0001
0000
0100
0000
0010
0100
0001
0100
,
0010
1000
0010
1000
0100
0010
0100
1000
0001
1000
0100
0010
0100
1000
0001
1000
,
0100
1000
0001
0000
0000
0000
1000
0000
0001
0100
0010
0000
1000
0001
0100
0000
,
0001
1000
0010
0000
0001
0010
0100
0000
1000
0001
0100
0000
0010
0001
1000
0000
,
0001
0100
0001
0000
1000
0001
0100
0000
0001
0100
0010
0000
0001
1000
0100
0000
,
0001
0100
0010
0000
0010
0100
1000
0000
0001
1000
0010
0000
0001
0100
1000
0000
,
0001
1000
0100
0000
0010
0100
0001
0000
1000
0001
0010
0000
0100
0010
0100
0000
,
0001
0100
0010
0000
1000
0010
0001
0000
1000
0010
1000
0000
0010
0100
0010
0000
,
0001
0100
0001
0000
1000
0001
0100
0000
0001
0100
0010
0000
0001
1000
0001
0000
,
1000
0100
1000
0000
0010
0001
0010
0000
0001
1000
0100
0000
0001
0010
0100
0000
,
0001
1000
0100
0000
0010
0100
0001
0000
1000
0001
0010
0000
0001
0000
0000
0000
,
1000
0000
0010
0000
0100
0000
0001
1000
,
0001
0000
0100
0010
1000
0001
0100
0010
,
1000
0000
0001
0000
0100
0000
0001
1000
,
0010
0000
0000
0000
0100
0000
0001
0000
0010
0000
0000
0100
0010
0000
1000
0000
,
0001
0000
0000
0000
0100
0000
0010
0000
0001
0000
0000
0100
1000
0000
0001
0000
,
0100
0000
0010
0000
1000
0000
0001
0000
0100
0000
0000
0100
0010
0000
1000
0000
,
0010
0000
1000
0000
0001
0000
0010
0000
0001
0000
0010
0000
0100
1000
0001
0010
,
0100
1000
0100
0010
0100
0010
0001
0100
0001
1000
0001
1000
0220
0000
0000
0000
,
0000
0000
0000
0000
0000
0330
0000
0001
,
1000
0000
0010
0100
0000
0001
0000
1000
,
0010
0100
0000
0001
1000
0010
0100
0000
,
0001
0010
0000
1000
0001
0100
0000
0010
,
1000
0000
0000
0001
1000
0010
0000
0100
,
0001
0000
1000
0010
0000
0100
0000
0001
,
1000
0010
0000
0100
0001
1000
0010
0000
,
0100
0001
0000
1000
0000
0010
0000
0100
,
1000
0010
0100
1000
0001
1000
0100
1000
0010
0100
0001
0010
0100
0010
0100
1000
0010
0100
0001
0000
0000
0010
0000
0000
,
1000
0000
0010
0100
0000
0001
0000
1000
,
0010
0100
0000
0001
1000
0010
0100
0000
,
0001
1000
0000
0010
0100
0001
0000
1000
,
0001
0000
0100
0000
0000
0000
1000
0000
0001
0010
1000
0001
0100
0000
0001
0000
,
1000
0000
0010
0100
0001
1000
0000
0001
,
0010
0100
0000
0010
1000
0001
0000
0100
,
0010
0000
1000
0001
0000
0100
0000
0010
,
1000
0001
0000
0100
0010
1000
0001
0010
,
1000
0000
0010
0100
0000
0001
0000
1000
,
0010
0100
0000
0001
1000
0010
0100
0000
,
0001
1000
0000
0010
0100
0001
0000
1000
,
0001
0000
0100
0000
0000
0000
1000
0000
0001
0010
1000
0001
0100
0000
0001
0000
,
1000
0000
0010
0100
0001
1000
0000
0001
,
0010
0000
0100
0000
0000
0000
0010
0000
1000
0000
0001
0000
0010
1000
0001
0100
,
0001
0100
0010
0100
0001
1000
0001
1000
0001
0010
0100
1000
0010
0000
0010
0100
,
0000
1000
0001
0000
0100
0000
0001
0000
0010
0000
1000
0000
0010
0000
0000
0000
,
1000
0000
0001
0010
1000
0000
0100
0000
0001
0000
1000
0000
0010
0000
0100
0000
,
0001
0000
1000
0000
0010
0000
0100
0001
0100
0000
0010
1000
0100
0000
0001
0000
,
0100
0001
0100
0000
0010
0000
1000
0000
0001
0000
0100
0000
0010
0100
0010
0000
,
1000
0000
0100
0000
0001
0000
0100
0001
0100
0000
1000
0000
0010
0000
1000
0000
,
0001
0000
0100
0000
1000
0000
0010
0000
0100
0000
0001
0000
0000
0000
1000
0010
,
0000
1000
0100
0000
0001
0000
0100
0000
0001
1000
0100
0000
0010
0000
0100
0001
,
0100
0000
1000
0010
1000
0000
0001
0000
0100
0000
0010
0000
0100
0000
1000
0000
,
0001
0000
0000
0000
0100
0000
0001
1000
0010
1000
0010
0100
0001
0000
1001
0000
,
1001
0000
1001
1001
1001
1001
0000
1001
,
1001
1001
0000
1001
1001
1001
1001
0000
,
1001
1001
0000
1001
1001
1001
0000
1001
,
1001
1001
0000
1001
1001
1001
0000
1001
,
1001
0000
1001
1001
1001
1001
0000
1001
,
1001
1001
0000
1001
1001
1001
0001
1000
,
0010
0000
1000
0000
0100
0000
0001
0000
1000
0001
0010
1000
0001
0000
0010
0100
,
0000
1000
0001
0000
0000
0100
0001
0000
0010
0100
0000
0100
2002
0000
0000
0000
,
0000
0000
0000
0000
,
0000
0000
0000
0000
,
0000
0000
0000
0000
,
0000
0000
0000
0000
,
3003
0000
0000
0000
;
