#TITLE:White Lovers (RGR-Special);
#ARTIST:新谷さなえ;
#ARTISTTRANSLIT:Sana Shintani;
#GENRE:WINTER POP;
#MUSIC:White Lovers (RGR-Special).ogg;
#BANNER:White Lovers (RGR-Special).png;
#BACKGROUND:White Lovers (RGR-Special)-bg.png;
#CDTITLE:./CDTITLES/POP'N MUSIC.PNG;
#OFFSET:0.000;
#SAMPLESTART:66.567;
#SAMPLELENGTH:15;
#SELECTABLE:YES;
#BPMS:0.000=125.302;
#DISPLAYBPM:125;

//--------------- dance-single - XLev450X ----------------
#NOTES:
     dance-single:
     XLev450X:
     Challenge:
     14:
     0,0,0,0,0:
0000
0000
0000
0000
,
0000
0000
0000
0000
,
0000
0000
0000
0000
,
2002
0000
0000
0000
0000
0000
0000
3003
,
0010
0000
0000
0000
1000
0000
0000
0000
0001
0000
0000
1000
0001
0000
0100
0000
,
1000
0000
0001
0010
1000
0000
0010
1000
0100
0000
0001
0000
0010
0000
0001
0000
,
1000
0000
0000
0100
0010
0000
0100
0000
0001
0000
0000
0010
0000
0000
1000
0000
,
0200
0000
0000
0000
0000
0000
0300
0000
0000
0010
0000
0000
2000
0000
0000
0000
0000
0000
3000
0000
0010
1000
0100
0000
,
0010
1000
0100
0010
0001
0010
1000
0100
0010
0001
0100
0010
0001
1000
0010
1000
0100
0001
1000
0000
0100
0001
0010
0000
,
0001
0010
0100
0002
0000
0003
1000
0010
,
0001
1000
0010
0100
0001
0000
2000
0000
0000
3000
0010
0001
0100
0000
0010
0000
,
0001
1000
0010
0100
0001
1000
0100
0000
0001
0000
0010
0000
0001
0000
1000
0000
,
0010
0000
0100
0000
0001
0010
1000
0000
,
0001
1000
0010
0001
1000
0000
0020
0000
0000
0030
0000
0000
0001
0000
1000
0000
,
0010
1000
0100
0010
0001
0000
2000
0000
0000
0000
3000
0000
0001
0000
1000
0000
,
0010
0000
0100
0001
1000
0000
0010
0000
,
2002
0000
0000
0000
0000
0000
0000
0000
0000
0000
3003
0000
0220
0000
0000
0330
,
0001
0000
1000
0010
0100
0000
0001
0000
,
1000
0000
0010
0000
0100
0000
0001
0000
0000
0000
0010
1000
0001
0000
0100
0000
,
1000
0000
0100
1000
0001
0100
0010
1000
,
0001
0000
0100
0000
0010
0001
0010
0000
,
1000
0010
0100
1000
0000
0010
0100
0001
,
0010
0000
0000
0000
1000
0000
0000
0000
0001
0000
0100
1000
0010
0000
0000
0000
,
1000
0001
0100
0010
1000
0001
0100
0010
,
1000
0000
0000
0000
0001
1000
0000
0010
0000
0100
0000
1000
0010
0001
0100
0000
,
1000
0001
0100
0010
1000
0001
0100
0010
,
0001
0010
1000
0001
0100
0010
1000
0001
,
0100
0010
1000
0001
0100
0000
0010
1000
,
0001
0100
0010
1000
0001
0100
0010
0000
,
0001
0010
0001
1000
0010
0100
1000
0001
,
0100
0010
1000
0001
0100
0010
1000
0001
,
0100
0000
0010
0000
1000
0001
0010
0100
,
1000
0001
0010
0100
0001
1000
0010
0100
,
0001
0000
0000
0100
0000
0000
0010
0000
0100
0000
0000
0000
0001
0000
0000
0000
,
1000
0000
0100
1000
0001
0000
0010
1000
0100
0001
0000
0100
0010
1000
0001
0010
,
1000
0000
0010
0000
0100
0000
0001
0000
1000
0010
0100
0000
0001
0000
1000
0000
,
0010
0000
0000
1000
0000
0000
0010
0000
0000
0001
1000
0000
0100
0000
0010
0000
,
2000
0000
0000
0000
3000
0000
0001
0100
0020
0000
0000
0000
0030
0000
1000
0100
,
0001
0000
0000
0000
0100
0000
0000
0000
0010
0000
0000
1000
0000
0000
0001
0000
,
0010
1000
0001
0000
1000
0000
0010
0000
1000
0000
0001
0000
0100
0000
0000
0000
,
0010
0000
0001
0000
1000
0000
0000
0000
0010
0000
0000
0100
0000
0000
1000
0000
,
0010
0000
0100
1000
0001
0000
0010
0000
,
0100
0000
1000
0000
0010
0000
0001
0000
1000
0000
0100
0000
0001
0000
1000
0000
0010
0000
0001
0000
0100
0000
0001
0000
1000
0000
0000
0000
0000
0000
0001
0000
0000
0000
0000
0000
0010
0000
0000
0001
0000
0000
1000
0000
0000
0000
0000
0000
,
0001
0000
1000
0000
0010
0000
0001
0000
0100
0001
1000
0000
0001
0000
1000
0000
,
0010
0000
0000
0100
0000
0000
0001
0000
0000
1000
0001
0000
1000
0000
0010
0000
,
0200
0000
0000
0000
0300
0000
0001
0010
2000
0000
0000
0000
3000
0000
1000
0001
,
0010
0000
0001
0000
1000
0001
0100
0010
,
1000
0100
0001
1000
0020
0000
0030
0000
0100
0000
0001
0000
1000
0000
0000
0000
,
0010
0000
0100
0000
0001
0000
1000
0000
0010
0000
0000
0100
0000
0000
0010
0000
,
0001
0000
1000
0010
0100
0000
0001
0000
,
1000
0000
0000
0000
0010
0000
0100
0000
1000
0001
0010
1000
0100
0001
1000
0010
,
0202
0000
0303
2020
0000
0000
0000
0000
,
0000
0000
0000
0000
,
0000
3030
0000
0000
;
