#TITLE:Wet Dollars;
#ARTIST:Tazer;
#MUSIC:Wet Dollars.ogg;
#BANNER:Wet Dollars.png;
#BACKGROUND:Wet Dollars-bg.png;
#SAMPLESTART:1.095;
#SAMPLELENGTH:15;
#SELECTABLE:YES;
#OFFSET:-0.127;
#BPMS:0.000=124;

//--------------- dance-single - XLev450X -お金--bSP ----------------
#NOTES:
     dance-single:
     XLev450X -お金-:
     Beginner:
     3:
     0,0,0,0,0:
0000
0000
0000
0000
,
0000
0000
0000
0000
,
0000
0000
0000
0000
,
0000
0000
0000
0000
,
0000
0000
0000
0000
,
0000
0000
0000
0000
,
0000
0000
0000
0000
,
0000
0000
0000
0000
,
0000
0000
1000
0000
,
0001
0000
0100
0000
,
0010
0000
1000
0000
,
0010
0000
0100
0000
,
0000
0000
0001
0000
,
1000
0000
0010
0000
,
0100
0000
1001
0000
,
0000
0000
0000
0000
,
0000
0000
0010
0010
,
0010
0000
0001
0100
,
0001
0000
1000
0010
,
1000
0000
0100
0010
,
0100
0000
0001
1000
,
0100
0000
0010
0100
,
0001
0000
1000
0001
,
0100
0000
0010
0100
,
0001
0000
1000
1000
,
0010
0000
0100
0100
,
0001
0000
0010
0100
,
0001
0000
1000
0001
,
0100
0000
0010
0000
,
1000
0001
0100
0000
,
0010
1000
0001
0000
,
0100
0010
0100
0000
,
0000
0000
0001
1000
,
0001
0000
0010
0000
,
1000
0000
0100
0001
,
0100
0000
0010
0000
,
0001
0000
1000
0010
,
1000
0000
0100
0000
,
0010
0000
0100
0001
,
1000
0000
0010
0000
,
0100
0000
0001
0000
,
0000
1000
0100
0000
,
0000
0001
0010
0000
,
0000
0100
0010
0000
,
0000
0001
1000
0000
,
0100
0010
0001
0000
,
1000
0010
0100
0000
,
0001
0100
0010
0000
,
0000
0000
1000
0000
,
0001
0000
0100
0001
,
0100
0000
1000
0000
,
0010
0000
0100
0001
,
1000
0000
0010
0000
,
0100
0000
0001
0100
,
0010
0000
1000
0000
,
0001
0000
0100
0010
,
1000
0000
0101
0000
,
0000
0000
1010
0000
,
0000
0000
0110
0000
,
0000
0000
1001
0000
,
0000
0000
0001
0001
,
0001
0000
1000
1000
,
1000
0000
0010
0100
,
0010
0000
1001
0000
;

//--------------- dance-single - XLev450X -お金--BSP ----------------
#NOTES:
     dance-single:
     XLev450X -お金-:
     Easy:
     7:
     0,0,0,0,0:
0000
0000
0000
0000
,
0000
0000
0000
0000
,
0000
0000
0000
0000
,
0000
0000
0000
0000
,
0000
0000
0010
1000
,
0001
0000
0100
0000
0010
1000
0001
0000
,
0100
0010
0001
1000
,
1000
0001
0100
0010
,
1000
0001
0100
0000
0010
1000
0010
0000
,
0000
0000
1001
0000
1000
0010
0100
0000
,
0000
0000
0101
0000
1000
0010
0100
0000
,
0000
0000
1010
0000
0010
0100
0010
0000
,
0000
0000
0110
0000
0001
0010
0001
0000
,
1000
0010
1000
0000
0010
0000
0100
0000
,
0010
0100
0010
0000
2002
0000
0000
0000
,
0000
3003
0220
0000
,
0000
0000
0000
0330
1000
0000
0001
0000
,
0100
0010
0001
0000
1000
0000
0010
0000
,
0100
0001
1000
0000
0010
0000
1000
0000
,
0001
0100
0010
0000
1000
0000
0010
0100
,
0001
1000
0010
0000
0001
0000
1000
0000
,
0010
0000
0100
0001
,
1000
0000
0010
0100
,
0001
1000
0010
0000
0100
0000
0001
0000
,
1000
0001
0100
0000
0010
0000
0001
0000
,
0010
0001
0010
0000
1000
0010
1000
0000
,
0010
0100
0010
0000
0001
0000
0000
0000
,
1000
0000
0010
0000
0100
0000
0001
1000
,
0010
0100
0010
0000
0001
0000
0000
0000
,
1000
0000
0001
0000
0100
0010
1000
0000
,
0001
0100
0001
0100
,
0001
0100
0010
0000
2002
0000
0000
0000
,
0000
0000
0000
3003
1000
0000
0001
0000
,
0010
0001
1000
0000
0010
0000
0100
0000
,
1000
0001
0100
0000
0010
0000
1000
0000
,
0010
0100
0010
1000
0001
0000
0010
0000
,
0010
1000
0001
0100
,
0001
1000
0010
0000
0010
0000
1000
0000
,
0001
0100
0010
0000
0001
0000
0100
0000
,
0001
0000
1000
0000
0010
1000
0001
0000
,
0100
0010
1000
1000
,
0001
0100
0000
0010
,
0000
0100
0010
0100
,
0001
1000
0010
0000
0000
0000
0100
0000
,
0000
0001
0100
0010
,
1000
0010
0100
0000
0000
0000
0001
0000
,
0000
1000
0010
0100
,
0001
0100
0010
0000
1000
0000
0001
0000
,
0100
0000
0001
1000
,
0010
0000
0100
0001
,
1000
0010
0100
0001
,
0010
0000
0100
0001
,
1000
0010
0100
0000
0001
0000
1000
0000
,
0010
0000
1000
0001
,
0100
0001
1000
0000
0010
0000
0100
0000
,
1000
0000
0010
0100
,
0001
0100
0010
0000
2000
0000
0000
0000
,
0000
0000
3020
0000
,
0000
0000
0230
0000
,
0000
0000
0302
0000
,
0000
0000
1003
0001
,
0100
0010
1000
0000
0001
0000
0100
0000
,
0010
0001
0010
0000
1000
0000
0010
0000
,
0100
0010
2002
0000
,
3003
0000
0000
0000
;

//--------------- dance-single - XLev450X -お金--DSP ----------------
#NOTES:
     dance-single:
     XLev450X -お金-:
     Medium:
     10:
     0,0,0,0,0:
0000
0000
0000
0000
,
0000
0000
0000
0000
,
0000
0000
0000
0000
,
0000
0000
0000
0000
,
0000
0000
0000
0000
1000
0001
0100
0000
,
0010
0001
0010
0000
1000
0010
1000
0000
,
0001
0100
0010
0000
1000
0001
0100
0000
,
0001
1000
0010
0000
1000
0001
0100
0000
,
0010
1000
0010
0000
0001
0000
1000
0000
,
0010
0100
0001
0000
1000
0000
0001
0000
,
0100
0010
1000
0000
0010
0000
0001
0000
,
1000
0010
0100
0000
1000
0000
0001
0000
,
0100
0010
1000
0000
0010
0100
0001
0000
,
1000
0010
0100
0000
0001
1000
0010
0000
,
0100
0001
0100
0000
0101
0000
1010
0000
,
0010
0100
0001
0000
1000
0000
0010
0000
,
0200
0000
0000
0300
0001
0000
1000
0000
,
0001
0100
0010
0000
0001
0000
1000
0000
,
0010
0100
1000
0010
0100
0000
0001
0000
,
1000
0000
0001
0100
0010
0000
0001
0000
,
1000
0001
0100
0010
,
0010
0001
1000
0010
0100
0000
0001
0000
,
1000
0001
0100
0000
0010
0000
1000
0000
,
1000
0001
0100
0010
1000
0000
0001
0000
,
0010
0100
0001
0000
1000
0000
0010
0000
,
0100
0001
1000
0000
0010
0000
0100
0000
,
0001
1000
0010
0000
0100
0000
0001
0000
,
1000
0010
0100
0000
0001
0000
0001
0000
,
1000
0010
0100
0000
1000
0000
0010
0000
,
0100
0001
1000
0000
0010
0000
0100
0000
,
0001
1000
0010
0100
,
0001
1000
0010
0100
0010
0000
1001
0000
,
0000
0000
0001
1000
,
0010
0100
1000
0000
0010
0000
0100
0000
,
0001
1000
0010
0000
0100
0000
1000
0000
,
0001
0100
0010
0000
1000
0000
0010
0000
,
0100
0001
0100
0000
1000
0000
0001
0000
,
0100
0010
1000
0000
0010
0000
1000
0000
,
0001
0100
0010
0000
1000
0000
0010
0000
,
0010
0001
0010
0000
1000
0000
0010
0000
,
0100
1000
0100
0000
0010
0000
0100
0000
,
0001
0000
1000
0000
0001
0100
0001
0000
,
1000
0010
1000
0000
0010
0000
0100
0000
,
0001
0000
1000
0000
0010
0001
0010
0000
,
1000
0010
0100
0000
1000
0000
0001
0000
,
0100
0000
0010
0000
0010
0001
1000
0000
,
0010
0100
0010
0000
1000
0000
0001
0000
,
0100
0010
1000
0000
0001
0000
0100
0000
,
0010
0000
0000
0000
1000
0000
0000
0000
0001
0000
0000
1000
0000
0000
0010
0000
,
0000
0100
0000
0000
0001
0000
1000
0000
0010
0000
0000
0100
0000
0000
0001
0000
,
0000
1000
0000
0000
0010
0000
0100
0000
1000
0000
0000
0010
0000
0000
0100
0000
,
0000
0001
0000
0000
1000
0000
0010
0000
0100
0000
0000
1000
0000
0000
0010
0000
,
0000
0100
0000
0000
0001
0000
1000
0000
0010
0000
0000
1000
0000
0000
0001
0000
,
0000
0100
0000
0000
0010
0000
1000
0000
0001
0000
0000
0100
0000
0000
0010
0000
,
0000
1000
0000
0000
0001
0000
0100
0000
0010
0000
0000
1000
0000
0000
0001
0000
,
0000
1000
0000
0000
0010
0000
0100
0000
0001
0000
0000
0100
0000
0000
0010
0000
,
0000
1000
0000
0000
0001
0000
0100
0000
0010
0000
0000
0010
0000
0000
0010
0000
,
0000
0010
0000
0000
0000
0000
1000
0000
0010
0000
0000
0010
0000
0000
0010
0000
,
0000
0010
0000
0000
0000
0000
0001
0000
0010
0000
0000
0010
0000
0000
0010
0000
,
0000
0010
0000
0000
0000
0000
1000
0000
0010
0000
0000
0010
0000
0000
0010
0000
,
0000
0010
0000
0000
0000
0000
1000
0000
0100
0000
0000
0100
0000
0000
0100
0000
,
0000
0100
0000
0000
0000
0000
0001
0000
0100
0000
0000
0100
0000
0000
0100
0000
,
0000
0100
0000
0000
0000
0000
1000
0000
0100
0000
0000
0100
0000
0000
0100
0000
,
0000
0100
0000
0000
0000
0000
0010
0000
2002
0000
0000
0000
0000
0000
0000
0000
,
3003
0000
0000
0000
;

//--------------- dance-single - XLev450X -お金--ESP ----------------
#NOTES:
     dance-single:
     XLev450X -お金-:
     Hard:
     14:
     0,0,0,0,0:
0000
0000
0000
0000
,
0000
0000
0000
0000
,
0000
0000
0000
0000
,
0000
0000
0000
0000
,
0000
0000
0000
0000
0000
0000
0000
0000
1000
0000
0000
0001
0000
0000
0100
0000
,
0000
0010
0000
0000
1000
0000
0000
0010
0001
0000
0000
1000
0000
0000
0010
0000
,
0000
0100
0000
0000
0001
0000
0100
0000
1000
0000
0000
0010
0000
0000
0100
0000
,
0000
0001
0000
0000
1000
0000
0000
0010
0100
0000
0000
0001
0000
0000
1000
0000
,
0000
0010
0000
0000
0100
0000
0000
0000
0001
0000
0000
1000
0000
0000
0010
0000
,
0000
0100
0000
0000
1000
0000
0000
0001
0100
0000
0000
0010
0000
0000
1000
0000
,
0000
0100
0000
0000
0001
0000
1000
0000
0010
0000
0000
0100
0000
0000
0001
0000
,
0000
1000
0000
0000
0010
0000
0000
1000
0001
0000
0000
0100
0000
0000
0010
0000
,
0000
1000
0000
0000
0001
0000
0000
0000
0010
0000
0000
0100
0000
0000
0001
0000
,
0000
1000
0000
0000
0010
0000
0000
0100
0001
0000
0000
1000
0000
0000
0010
0000
,
0000
0100
0000
0000
1000
0000
0000
0000
0010
0000
0000
0100
0000
0000
0001
1000
,
0001
0100
0010
1000
0001
0100
0000
0000
0001
0000
0000
1000
0000
0000
0001
0100
,
0010
1000
0010
0100
0001
1000
0000
0000
0010
0000
0000
1000
0000
0000
0001
0000
,
0000
0010
0000
0000
1000
0000
0000
0000
0001
1000
0000
0100
0000
0000
0100
0000
,
0000
0001
0000
0000
1001
0000
0000
0000
1000
0000
0000
0001
0000
0000
0100
0000
,
0000
1000
0000
0000
0100
0000
0000
0000
1000
0010
0000
0001
0000
0000
0100
0000
,
0000
0010
0000
0000
1000
0000
0000
0000
0001
0000
0000
0100
0000
0000
0010
0000
,
0000
1000
0000
0000
0100
0000
0000
0000
0001
0100
0000
0010
0000
0000
1000
0000
,
0000
0001
0000
0000
0100
0000
0000
0000
0010
0000
0000
1000
0000
0000
0001
0000
,
0000
0100
0000
0000
0010
0000
0000
0000
1000
0001
0000
0100
0000
0000
0010
0000
,
0000
1000
0000
0000
0001
0000
0000
0000
0100
0000
0001
0000
0010
0000
0000
0000
,
1000
0010
0100
1000
0001
0100
0010
0000
,
0010
0001
0010
0000
1000
0000
0000
0000
0010
0000
0100
0000
0001
0000
0000
0000
,
1000
0000
0010
0100
0010
0000
1000
0000
0010
0100
0010
0000
0001
1000
0001
0000
,
0100
0010
1000
0001
1000
0100
0010
0000
,
0001
0000
1000
0000
0010
0000
0100
0000
0001
0100
0001
0000
1000
0000
0010
0100
,
0010
0000
0100
0000
0001
0000
0000
0000
1000
0000
0000
0001
0000
0000
0010
0100
,
0010
0100
0010
1000
0001
1000
0100
1000
0001
0100
0001
1000
0010
2000
0000
0000
,
0000
3000
0010
0000
1000
0001
0100
0000
,
0010
0000
1000
0000
0010
0000
0001
0100
0001
0000
0010
0000
1000
0001
0000
0000
,
0010
0000
1000
0000
0100
0010
0000
0001
0010
0000
1000
0000
0010
0000
0000
0000
,
0100
0000
0010
0000
1000
0000
0001
0100
0001
0000
1000
0000
0010
0001
0000
0000
,
1000
0100
0001
0000
1000
0010
0100
0001
,
1000
0010
1000
0010
0100
0000
1000
0000
0001
0000
1000
0000
0010
0000
0001
0000
,
0100
0000
0001
0100
0000
0100
0001
0000
1000
0000
0010
0000
0100
0000
0000
0000
,
1000
0000
0100
0000
0001
1000
0010
1001
0100
0000
0010
0000
1000
0000
0001
0000
,
0010
0100
0000
0000
1000
0000
0000
0000
0010
0100
0000
0001
0000
0000
1000
0000
,
0000
0010
0000
0000
0100
0000
0000
0000
0010
0001
0000
1000
0000
0000
0010
0000
,
0000
0100
0000
0000
1000
0000
0000
0000
0010
0000
0000
1000
0000
0000
0010
0000
,
0000
1000
0000
0000
0010
0000
0000
0000
0100
0001
0000
1000
0000
0000
0010
0000
,
0000
0100
0000
0000
1000
0000
0000
0000
0010
0000
0000
0100
0000
0000
1000
0000
,
0001
0000
0100
0000
1000
0000
0000
0000
0001
0000
0000
0100
0000
0000
0010
0000
,
0001
0010
0001
0000
1000
0000
0000
0000
0010
0000
0100
0000
0001
0000
1000
0000
,
0010
0000
0100
0000
0001
0000
1000
0100
0001
0010
0000
0000
1010
0000
0000
0000
,
0110
0000
0000
0000
1001
0000
0000
0000
0001
0000
0000
1000
0000
0000
0010
0000
,
0000
0100
0000
0000
0001
1000
0001
1000
0010
0000
0000
1000
0000
0000
0010
0000
,
0000
0100
0000
0000
1000
0000
0010
0001
0010
0000
0000
1000
0000
0000
0001
0000
,
0000
0100
0000
0000
0010
0000
1000
0010
1000
0000
0000
0100
0000
0000
0001
0000
,
0000
0100
0000
0000
0010
0000
1000
0001
0100
0000
0000
0010
0000
0000
1000
0000
,
0000
0001
0000
0000
0100
0000
0001
1000
0010
0000
0000
0100
0000
0000
0001
0000
,
0000
1000
0000
0000
0010
0000
0001
1000
0001
0000
0000
0010
0000
0000
0100
0000
,
0000
1000
0000
0000
0001
0000
0100
0001
0100
0000
0000
1000
0000
0000
0010
0000
,
0100
0000
0001
0000
0100
0000
1010
0000
0101
0000
0000
0101
0000
0000
0101
0000
,
0000
0202
0000
0303
0000
0000
0110
0000
1001
0000
0000
1001
0000
0000
1001
0000
,
0000
2002
0000
3003
0000
0000
0011
0000
0110
0000
0000
0110
0000
0000
0110
0000
,
0000
0220
0000
0330
0000
0000
1010
0000
1001
0000
0000
1001
0000
0000
1001
0000
,
0000
2002
0000
3003
0000
0000
1000
0000
0001
0000
0000
0100
0000
0000
0010
0000
,
1000
0000
0001
0000
0100
0000
0010
0000
1000
0001
0100
0000
0010
0000
1000
0000
,
0001
0100
0010
0000
1000
0001
0100
0000
0010
0100
0010
0100
0010
1000
0100
0010
,
0001
1000
0010
1000
0100
1000
0100
0010
2002
0000
0000
0000
0000
0000
0000
0000
,
3003
0000
0000
0000
;
