#TITLE:We Are All The Dreamer;
#ARTIST:Hommarju ft. かぼけゃ;
#ARTISTTRANSLIT:Hommarju ft. kabotya;
#MUSIC:We Are All The Dreamer.ogg;
#BANNER:We Are All The Dreamer.png;
#BACKGROUND:We Are All The Dreamer-bg.png;
#CDTITLE:./CDTitles/SDVX EXCEED GEAR.png;
#SAMPLESTART:69.734;
#SAMPLELENGTH:15;
#OFFSET:-0.004;
#BPMS:0=148;
#BGSTAGE:16;

//--------------- dance-single - XLev450X-bSP ----------------
#NOTES:
     dance-single:
     XLev450X:
     Beginner:
     3:
     0,0,0,0,0:
0000
0000
0000
0000
,
0000
0000
0000
0000
,
0000
0000
0000
0000
,
0000
0000
0000
0000
,
0000
0000
0000
0000
,
0001
1000
0001
0000
,
0100
1000
0100
0000
,
0010
0001
0010
0100
,
2002
0000
0000
3003
,
0120
0000
0000
0030
,
0001
0001
0001
0010
,
0100
1000
1000
1000
,
0010
0100
0001
0010
,
0100
1000
0010
0000
,
1000
0001
0100
1000
,
0001
0010
0100
0000
,
0110
0000
0000
0000
,
2002
0000
0000
3003
,
0010
0010
0010
0000
,
1000
1000
1000
0000
,
0001
0000
0001
1000
,
0001
0000
1000
0100
,
1000
0000
0010
0001
,
0010
0000
0100
1000
,
2002
0000
0000
0000
,
0000
0000
0000
3003
,
0010
1000
0001
0000
,
1000
0100
1000
0000
,
0010
0001
1000
0001
,
0100
1000
0010
0000
,
1000
0100
1000
0000
,
0010
0100
0010
0000
,
0001
0010
0001
0010
,
1001
0000
0000
0000
,
1000
0000
1000
0000
,
1000
0000
0000
0000
,
0001
0000
0001
0000
,
0001
0000
0000
0000
,
0010
0100
0010
0000
,
1000
0010
1000
0000
,
0010
0001
0010
0000
,
1000
0100
1000
0000
,
1002
0000
0000
0003
,
0001
0001
0001
1000
,
1000
1000
0010
0010
,
0100
0001
1000
0010
,
2002
0000
3003
0000
,
1000
1000
0010
0100
,
1000
0001
0100
0010
,
0001
1000
0010
0100
,
1002
0000
0000
0003
,
0001
0001
1000
1000
,
0010
0100
0010
0000
,
1000
0001
0100
0010
,
2001
0000
0000
3000
,
1000
0000
0001
0000
,
0100
0010
1000
0000
,
0010
0001
0010
0000
,
2010
0000
0000
3000
,
1000
1000
0001
0001
,
0100
0000
0010
0000
,
1000
0001
0010
0000
,
0220
0000
0000
0330
,
1000
0001
1000
0000
,
1000
0010
1000
0000
,
0100
0001
0010
0000
,
2200
0000
0000
3300
,
1001
0000
0000
0000
,
0110
0000
0000
0000
;

//--------------- dance-single - XLev450X-BSP ----------------
#NOTES:
     dance-single:
     XLev450X:
     Easy:
     7:
     0,0,0,0,0:
0000
0000
0000
0000
,
0000
0000
0000
0000
,
0000
0000
0000
0000
,
0000
0000
0000
0000
,
0000
0000
0000
0000
,
0001
0000
1000
0010
,
1000
0000
0100
0001
,
1000
0000
0010
0000
0001
0010
0100
0000
,
2002
0000
0000
3003
,
0120
0100
0100
0130
,
0001
1000
0010
0100
,
1000
0000
0100
0000
0001
0010
0001
0000
,
1000
0100
0010
1000
,
0010
0100
1010
0000
,
1000
0001
0100
1000
,
0001
0010
0001
0000
1000
0100
1000
0000
,
2002
0000
0000
0000
0000
3003
0000
0000
0220
0000
0000
0000
0000
0330
0000
0000
,
2002
0000
0000
3003
,
0012
0000
0000
0003
,
0001
0000
0000
1000
0000
0001
0000
0000
,
0110
0220
0000
0000
0000
0000
0330
0000
,
0001
1000
0001
0000
,
1000
0000
0000
0100
0000
0000
0001
0000
,
1000
0000
0000
0010
0000
0000
0100
0000
,
0001
0000
0000
1000
0000
0001
0000
0100
,
2000
0000
0000
3100
0000
0000
0000
0000
,
0001
1000
0010
1000
,
0001
0100
0010
0000
,
1000
0100
1000
0001
,
0010
0001
0010
0000
1000
0100
1000
0000
,
0010
0100
1000
0000
,
0001
0100
0010
0000
,
1000
0000
0001
0000
0010
0100
0010
0000
,
2002
0000
0000
3003
,
0001
0010
1000
0010
,
1000
0000
0001
0000
0100
0010
1000
0000
,
0001
1000
0001
0001
,
0100
1000
0001
0000
0010
0001
0010
0000
,
1000
0100
0001
0001
,
0010
1000
0100
0100
,
0010
0001
0001
1000
,
0100
0010
0001
0000
0100
0001
1000
0100
,
2001
0001
0001
3010
,
0001
1000
0010
1000
,
0001
0100
0010
0001
,
1000
0001
0100
0010
,
0001
0010
0001
0000
1000
0100
1000
0000
,
0010
0100
0001
0010
,
1000
0010
0100
0000
,
0001
1000
0001
0100
,
0020
0000
0100
0130
,
0001
0001
0001
1000
,
0010
1000
0010
0100
,
0010
0001
1000
0010
,
0202
0000
0000
0303
,
2000
0000
0000
3000
0001
0000
0010
0000
,
0200
0000
0000
0300
1000
0000
0001
0000
,
0200
0000
0000
0300
0010
0000
1000
0000
,
1002
0000
0000
0003
,
0001
0001
1000
0010
,
1000
0010
1000
0000
0001
0100
0001
0000
,
1000
0000
0001
0000
0100
0010
0100
0000
,
2002
0000
0000
3003
,
1000
1000
0001
0001
,
1000
0010
1000
0000
0100
0001
0100
0000
,
1000
0000
0001
0000
1000
0001
1000
0000
,
0220
0000
0000
0330
,
0022
0000
0000
0000
0033
0000
0000
0000
0000
0000
2002
0000
0000
3003
0000
0000
,
2000
0000
0000
3000
0002
0000
0000
0003
0200
0000
0000
0300
2002
0000
0000
0000
,
0000
0000
0000
0000
,
3003
0000
0000
0000
;

//--------------- dance-single - XLev450X-DSP ----------------
#NOTES:
     dance-single:
     XLev450X:
     Medium:
     11:
     0,0,0,0,0:
0000
0000
0000
0000
,
0000
0000
0000
0000
,
0000
0000
0000
0000
,
0000
0000
0000
0000
,
0000
0000
0000
0000
,
0000
0000
0000
0000
,
0000
0000
0000
0000
,
0000
0000
0000
0000
,
0000
0000
0000
0000
,
0011
1100
0110
1001
,
0001
0000
1000
0000
0010
1000
0010
0000
,
0100
0000
0001
1000
0000
0001
0010
0000
,
1000
0100
1000
0001
,
0100
1000
0000
0000
0010
0000
0100
0000
,
0001
0010
0001
0000
1000
0100
1000
0000
,
0010
0000
0100
0000
1000
0001
0010
0000
,
1000
0000
0000
0001
0000
0100
0000
0000
0010
0000
0000
1000
0000
0001
0000
0000
,
1010
0000
0000
0101
0000
0000
2002
0000
0000
0000
0000
0000
0000
0000
3003
0000
,
1001
1001
0000
0000
0000
0000
0000
0000
,
0010
0000
0000
1000
0000
0000
0001
0000
0000
0100
0000
0000
0000
0000
0000
0000
,
0110
0110
0000
0000
0000
0000
0000
0000
,
0001
0000
0000
1000
0000
0000
0010
0000
0000
0001
0000
0000
0000
0000
0000
0000
,
1000
0000
0000
0001
0000
0000
0100
0000
0000
1000
0000
0000
0001
0000
1000
0000
,
0010
0000
0000
0100
0000
0000
1000
0000
0000
0001
0000
0000
0010
0000
1000
0000
,
0101
0000
0000
1010
0000
0110
0000
0000
,
2002
0000
0000
0000
3003
0000
0220
0000
0000
0000
0000
0000
0000
0000
0000
0330
,
0001
0000
1000
0000
0010
1000
0010
0000
,
0100
0000
1000
0000
0001
0010
0001
0000
,
1000
0100
0001
0000
1000
0010
1000
0001
,
0100
0000
0010
0000
1000
0010
1000
0000
,
0101
0000
1010
0000
0010
1000
0000
0000
,
0001
0000
0001
0000
1000
0001
1000
0000
,
0100
1000
0001
0100
0010
1000
0001
0000
,
0020
0000
0000
0130
,
1000
0001
1000
0001
,
1000
0000
0010
0000
1000
0010
1000
0001
,
0010
1000
0001
0100
,
1000
0001
1000
0010
0000
1000
0001
0000
,
0001
0000
0000
1000
0000
0000
0010
0000
0100
0000
0000
0001
0000
0000
1000
0000
,
0001
0000
0000
0100
0000
0000
0010
0000
1000
0000
0000
0001
0000
0000
0010
0000
,
0001
0000
1000
0010
1000
0000
0010
0000
,
0100
0001
1000
0010
0100
0001
0010
0001
,
1000
0001
0001
0010
,
0001
0000
1000
0000
0010
1000
0010
0000
,
0100
0000
1000
0000
0001
0010
0100
1000
,
0001
0000
0010
0100
0000
1000
0010
0100
,
0001
0000
0000
1000
0000
0000
0010
0000
0000
0100
0000
0000
0001
0000
0000
0000
,
1000
0000
0010
0001
0010
0000
1000
0100
,
1000
0000
0010
0000
0100
0000
0001
1000
,
0001
0000
0100
0000
0010
1000
0001
0010
,
1000
0000
0000
0001
0000
0000
0100
0000
0000
0010
0000
0000
1000
0000
0001
0000
,
0010
0000
1000
0000
0010
1000
0010
0000
,
0100
1000
0100
0000
0001
0000
0010
0000
,
0100
0001
1000
0000
0010
0000
1000
0000
,
0001
0000
0000
0100
0000
0000
0010
0000
0000
1000
0000
0000
0001
0000
1000
0000
,
0001
1000
0010
0100
,
0001
0000
0000
0010
0000
0000
0100
0000
1000
0000
0000
0000
0100
0000
0010
0000
,
0001
0000
1000
0001
0000
1000
0000
0100
,
0012
0000
0000
0013
,
0001
0000
1000
0000
0010
1000
0001
0100
,
0010
0000
0000
1000
0000
0001
0001
0000
,
1000
0000
0010
0000
0100
1000
0010
0000
,
0100
0000
0000
1000
0000
0000
0001
0000
0000
0000
0010
0000
0020
0000
0000
0030
,
1000
0000
0100
0000
1000
0001
0010
1000
,
0002
0100
0003
0100
0000
0010
1000
0000
,
0001
0010
0001
0000
1000
0100
1000
0000
,
0010
0000
0100
0001
0000
1000
0010
0000
,
0100
0000
0000
1000
0000
0000
0100
0000
0010
0000
0000
0100
0000
0000
1000
0000
,
0022
0033
2200
3300
0220
0330
2002
0000
,
0000
0000
0000
0000
,
3003
0000
0000
0000
;

//--------------- dance-single - XLev450X-ESP ----------------
#NOTES:
     dance-single:
     XLev450X:
     Hard:
     15:
     0,0,0,0,0:
0000
0000
0000
0000
,
0000
0000
0000
0000
,
0000
0000
0000
0000
,
0000
0000
0000
0000
,
0000
0000
0000
0000
,
0001
0000
0000
1000
0000
0000
0010
0000
0100
0000
0000
0001
0000
0000
0010
0000
,
0001
0000
0000
1000
0000
0000
0010
0000
1000
0000
0000
0010
0000
0000
0100
0000
,
0001
0010
0100
1000
0100
0010
0001
0010
0100
1000
0100
0010
0001
0010
0100
1000
,
0001
0000
0000
1000
0000
0000
0001
0000
0000
0100
0000
0000
1000
0000
0100
0000
,
0011
1100
0110
1001
,
0001
1000
0010
0001
1000
0010
0001
1000
,
0002
0000
1000
0000
1003
0000
0100
0000
0010
0000
0010
0100
1000
0001
0100
1000
,
0010
0001
0010
0100
1000
0010
1000
0001
,
0100
0000
0000
0000
0010
0000
1000
0000
0100
0000
0001
1000
0100
0010
0001
1000
,
0010
0001
1000
0010
0100
0001
1000
0010
,
1000
0000
0001
0000
0010
0000
0100
0000
1000
0000
0001
0010
1000
0100
0001
1000
,
0100
0001
0000
1000
0000
0100
0000
0000
0001
0010
0000
0100
0000
1000
0000
0000
,
1001
0000
0000
0110
0000
0000
2002
0000
0000
0000
0000
0000
3003
0000
0000
0000
,
0100
1000
0100
0000
0001
1000
0000
0100
,
0010
0000
0000
0001
0000
0000
1000
0000
0000
0010
0000
0000
0000
0000
0000
0000
,
0011
0000
0011
0000
1000
0000
0001
0000
0100
0000
0010
0000
1000
0000
0001
0100
,
1000
0000
0000
1100
0000
0000
1100
0000
0000
0000
0010
0000
1000
0000
0001
0000
,
0100
0000
0000
1000
0000
0000
0010
0000
0000
0100
0000
0000
0001
0000
1000
0000
,
0011
0000
0000
0011
0000
0000
0011
0000
0000
0000
0010
0000
0001
0000
1000
0000
,
0020
0000
0000
0030
0000
0000
0022
0033
0000
0000
2200
3300
0000
0000
0100
0000
,
0210
0000
0000
0000
0000
0000
0310
0000
0001
0010
0100
1000
0100
0010
0001
0010
,
0100
0000
0011
0000
1000
0010
1000
0000
,
0100
1000
0001
0100
0000
0010
1000
0000
,
0001
1000
0000
0010
0000
0100
0001
0000
,
1000
0000
0100
0000
0000
0000
1000
0000
0000
0000
0010
0001
0010
0000
1000
0000
,
0010
1000
0001
0100
0000
1000
0010
1000
,
0001
0000
0100
1000
0000
0001
0010
0000
,
0100
1000
0001
0100
0010
1000
0001
0010
,
0001
0010
0001
0000
1000
0100
1000
0000
0000
0000
0010
0000
0001
0000
2000
0000
,
0000
3000
0000
1000
0000
0001
1000
0020
,
0000
0000
0000
0030
1000
0010
0100
0002
,
0000
0000
0000
0003
1000
0000
0000
0000
0001
1000
0100
0000
0010
0000
2000
0000
,
0000
0000
3000
0000
0001
0010
0100
0010
,
1000
0000
0000
0001
0000
0000
0100
0000
0010
0000
0000
1000
0000
0000
0001
0000
,
0100
0000
0000
0010
0000
0000
0001
0000
1000
0000
0000
0010
0000
0000
1000
0000
,
0001
0000
0000
1000
0000
0000
0100
0000
0010
0000
0000
0001
0000
0000
1000
0000
,
0100
0010
0100
0010
0100
1000
0010
0100
0010
0100
0001
0010
0001
0010
0100
1000
,
0002
1000
0100
0013
,
1000
0000
0001
0010
0001
0000
1000
0010
1000
0000
0010
0100
0010
0000
1000
0000
,
0100
0000
0001
0000
0100
0000
0000
0000
0010
0000
0000
0100
1000
0000
0001
0000
,
0010
0000
0100
0000
0001
0000
0010
0000
0100
0000
1000
0001
1000
0000
0100
0000
,
0101
0000
0000
1010
0000
0000
0110
0000
0000
0011
0000
0000
1100
0000
0011
0000
,
1000
0000
0010
0001
0010
0000
1000
0010
1000
0000
0010
0100
0010
0000
1000
0100
,
1000
0100
0001
0000
0010
0001
0010
0000
,
1000
0000
0010
1000
0010
0000
0100
0000
0001
0000
0010
0001
0010
0000
1000
0000
,
0101
0000
0000
1010
0000
0000
0110
0000
0000
1010
0000
0000
0001
0000
0010
0000
,
1000
0000
0010
1000
0010
0000
1000
0001
1000
0000
0001
1000
0001
0000
0010
0100
,
0010
1000
0001
0000
0010
1000
0010
0001
,
0010
0000
0001
0000
1000
0000
0001
0000
0001
0000
0010
0100
1000
0000
0001
0000
,
0101
0000
0000
1010
0000
0000
0110
0000
0000
1001
0000
0000
1001
0000
1001
0000
,
0002
0000
1000
1003
0200
0000
0310
0100
,
0010
0000
0000
0001
0000
0000
1000
0000
0001
0000
0000
0000
0010
0000
1000
0100
,
0010
0000
0100
0001
0000
1010
0000
0001
,
0100
0010
0001
0100
0001
0100
0010
0100
0010
1000
0010
0100
0001
1000
0100
0010
,
0001
1000
0010
0001
1000
0010
0001
1000
,
0002
0000
1000
0000
1003
0000
0100
0000
0001
0000
0010
0100
1000
0100
0010
0001
,
0010
0000
0001
0000
0010
0000
0100
0000
1000
0000
0001
0100
1000
0000
0001
0000
,
0100
0000
0000
0010
0000
0000
1000
0000
0000
0001
0000
0000
0201
0000
0300
0000
,
1000
0001
0100
1000
0001
0100
1000
0001
,
2000
0000
0001
0000
3001
0000
0010
0000
1000
0000
0100
0010
0001
0010
0100
1000
,
0100
0000
1000
0000
0100
0000
0010
0000
0001
0000
0100
0010
0001
0000
1000
0000
,
0010
0000
0000
0100
0000
0000
0001
0000
0000
1000
0100
0001
0010
0000
1000
0000
,
0100
0000
0000
0001
0000
0000
0010
0000
0100
0000
0100
1000
0200
0000
0310
0000
,
0022
0033
2200
3300
0220
0330
2002
0000
,
0000
0000
0000
0000
,
3003
0000
0000
0000
;
