#TITLE:Waverer (Slide Mix) (RGR-Special);
#SUBTITLE:;
#ARTIST:AKIRA YAMAOKA;
#TITLETRANSLIT:;
#SUBTITLETRANSLIT:;
#ARTISTTRANSLIT:;
#GENRE:;
#CREDIT:;
#MUSIC:Waverer (Slide Mix) (RGR-Special).ogg;
#BANNER:Waverer (Slide Mix) (RGR-Special).png;
#BACKGROUND:Waverer (Slide Mix) (RGR-Special)-bg.png;
#CDTITLE:;
#SAMPLESTART:67.120;
#SAMPLELENGTH:15.000;
#SELECTABLE:YES;
#OFFSET:0.000;
#BPMS:0.000=160.011;
#STOPS:;
#BGSTAGE:14;
#DISPLAYBPM:160;
#BGCHANGES:;
#FGCHANGES:;

//--------------- dance-single - XLev450X----------------
#NOTES:
     dance-single:
     XLev450X:
     Challenge:
     15:
     0,0,0,0,0:
0000
0000
0000
0000
,
0000
0000
0000
0000
,
0000
0000
0000
0000
,
0000
0000
0000
0000
,
0000
0000
0000
0000
,
0010
0000
1000
0000
0100
0000
1000
0000
0001
1000
0001
0100
1000
0001
0010
1000
,
0100
0000
0010
0000
0100
0000
1000
0000
0001
0000
0010
0100
0000
0000
0000
0000
,
0010
0000
1000
0000
0001
0000
0100
0000
0010
1000
0001
0100
0001
1000
0001
0010
,
0100
0000
1000
0000
0001
0000
0100
0000
0010
0000
0000
0010
0000
0000
0010
0000
,
0001
0000
0010
0000
0100
0000
1000
0000
0010
0100
0001
1000
0010
1000
0001
0100
,
0010
0000
1000
0000
0010
0000
0100
0000
0001
0000
0100
1000
0000
0010
0001
0000
,
1000
0010
0000
0000
0001
0100
0000
0000
,
1000
0100
0000
0000
0001
0100
0010
0100
,
0001
0010
0100
1000
0010
0100
0010
1000
,
0010
0000
0100
0000
0001
0000
0100
0000
0010
0000
1000
0100
0010
0000
0100
0000
,
0001
0010
0100
1000
0010
1000
0010
1000
,
0100
0000
0010
0000
0100
0000
1000
0000
0001
0000
0000
0010
0000
0000
0010
0000
,
0100
1000
0010
0100
0001
1000
0010
1000
,
0100
0000
0010
0000
0100
0000
0010
0000
0001
0000
1000
0100
0000
0000
0010
0000
,
0001
1000
0100
0010
0001
1000
0100
0010
,
0001
1000
0100
0010
0001
0010
0100
0000
,
0001
0000
0100
0000
0010
0000
0100
0000
0001
0000
0000
0010
0000
0000
0010
0000
,
0001
0000
1000
0000
0100
0000
1000
0000
0100
0000
0010
0100
0000
0000
1000
0000
,
0010
1000
0001
0100
0010
1000
0010
0100
,
0001
0010
0100
0010
0001
1000
0001
1000
,
0001
0100
0010
0100
0001
1000
0100
0010
,
0001
0010
0100
1000
0100
1000
0010
0100
,
0001
1000
0000
0000
0001
0010
0000
0000
,
1000
0100
0000
0000
0010
0100
0001
1000
,
0101
0000
0000
0000
1000
0000
0010
0000
0000
0000
0100
0000
0000
0010
0000
0000
,
0110
0000
0000
0000
0010
0000
1000
0000
0000
0000
0001
0000
0000
1000
0000
0000
,
0101
0000
0000
0000
0010
0000
0001
0000
0000
0000
0100
0000
0000
1000
0000
0000
,
0110
0000
0000
0000
0001
0000
1000
0000
0000
0000
0010
0000
0000
0100
0000
0000
,
1010
0000
0000
0000
1000
0000
0001
0000
0000
0000
0010
0000
0000
0100
0000
0000
,
0101
0000
0000
0000
1000
0000
0001
0000
0000
0000
0100
0000
0000
0010
0000
0000
,
1001
0000
0000
0000
0010
0000
0001
0000
0000
0000
0100
0000
0000
1000
0000
0000
,
0110
0000
0000
0000
0001
0000
0010
0000
0000
0000
0100
0000
0000
0010
0000
0000
,
1000
0010
0001
0010
0100
1000
0001
1000
,
0010
1000
0100
0010
0001
0100
0010
0000
,
0001
0100
0010
0100
0001
0010
0100
0010
,
0001
1000
0001
1000
0100
0010
0001
0000
,
0100
1000
0001
0100
0001
0100
0010
0100
,
0001
0010
0001
0100
0010
1000
0001
0000
,
0001
0000
0000
0000
1000
0000
0100
0000
0000
0000
0010
0000
0000
0100
0000
0000
,
0001
0000
0000
0000
0100
0000
0001
0000
0000
0000
1000
0000
0000
0001
0000
0000
,
0010
0000
0100
0000
0010
0000
0100
0000
0001
0000
0000
0010
0000
0000
0010
0000
,
0100
0000
0010
0000
0001
0000
1000
0000
0100
0000
0010
0100
0000
0000
1000
0000
,
0010
0100
0001
0100
0010
0100
0010
1000
,
0001
0000
0010
0000
0001
0000
1000
0000
0010
0000
0000
0010
0000
0000
1000
0000
,
0001
0010
0001
0100
0010
1000
0010
0100
,
0001
0100
0001
1000
0001
0010
0100
1000
,
0001
0100
0000
0000
0100
1000
0000
0000
,
0010
0100
0000
0000
0100
0010
0001
1000
,
0001
1000
0100
0010
0100
0010
0100
1000
,
0010
0000
0100
0000
0010
0000
1000
0000
0001
0000
0010
0100
0000
0000
1000
0000
,
0100
0010
0001
0100
0010
1000
0010
1000
,
0001
0000
0010
0000
0100
0000
0000
0100
0001
0000
0010
0000
0001
0000
1000
0000
,
0100
1000
0010
0100
0001
1000
0010
0100
,
0010
1000
0010
0100
0001
0010
0100
1000
,
0001
0010
0000
0000
0001
1000
0000
0000
,
0001
1000
0000
0000
0001
1000
0100
0010
,
0001
0000
0000
0000
1000
0000
0001
0000
0000
0000
0100
0000
0000
0010
0000
0000
,
0100
0000
0000
0000
0001
0000
0100
0000
0000
0000
1000
0000
0000
0010
0000
0000
,
0100
0010
0001
1000
0100
0010
0001
1000
0100
0010
0001
1000
0100
0010
0001
0010
,
0100
0000
0000
0000
;
