#TITLE:Watch Out Pt.2;
#SUBTITLE:;
#ARTIST:DJ Mass MAD Izm* VS. DJ Yoshitaka;
#TITLETRANSLIT:;
#SUBTITLETRANSLIT:;
#ARTISTTRANSLIT:;
#GENRE:TECH-BREAKBEATS;
#CREDIT:;
#MUSIC:Watch Out Pt.2.ogg;
#BANNER:Watch Out Pt.2.png;
#BACKGROUND:Watch Out Pt.2-bg.png;
#CDTITLE:./CDTITLES/BEATMANIA IIDX.PNG;
#SAMPLESTART:8.108;
#SAMPLELENGTH:15.000;
#SELECTABLE:YES;
#OFFSET:0.000;
#BPMS:0.000=148.000;
#STOPS:;
#BGSTAGE:22;
#BGCHANGES:0.000=Watch Out Pt.2.avi=1.000=0=0=0=StretchNoLoop====,
99999.000=-nosongbg-=1.000=0=0=0=StretchNoLoop====
;
#FGCHANGES:;

//--------------- dance-single - XLev450X-bSP ----------------
#NOTES:
     dance-single:
     XLev450X:
     Beginner:
     8:
     0,0,0,0,0:
0000
0000
0000
0000
,
0000
0000
0000
0000
,
0000
0000
0000
0000
,
0000
0000
0000
0000
,
0001
0000
1000
0000
0010
0100
0001
0000
,
1000
0000
0010
0000
0100
0001
1000
0000
,
0010
0000
0100
0000
1000
0001
0100
0010
,
1000
0000
0001
0000
0010
0100
0001
0000
,
1000
0010
0100
0001
,
1000
0010
0100
0000
0001
0100
0010
0000
,
1000
0000
0010
0000
0100
0001
1000
0010
,
0100
0001
1000
0010
,
0100
0001
1000
0010
0100
0001
1000
0010
,
0100
0000
0001
0000
1000
0010
0100
0000
,
0001
0000
1000
0000
0010
0100
0001
1000
,
0010
0000
0100
0000
0001
1000
0010
0000
,
0100
1000
0001
0100
0010
0000
1000
0000
,
0001
0000
0010
0000
0100
0001
1000
0000
,
0010
0000
0100
0000
0001
0100
0010
0000
,
0001
0000
1000
0000
0001
0100
0010
0000
,
1000
0001
0100
0010
1000
0001
0100
0000
,
0001
1000
0010
0100
,
0001
1000
0010
0100
,
0001
1000
0010
1000
,
0001
0100
0010
1000
,
0001
0100
0010
1000
,
0001
0100
0010
1000
,
0001
0100
0010
1000
0001
0100
0010
1000
,
2002
0000
0000
3003
,
0001
1000
0010
0000
0100
0001
1000
0000
,
0001
0100
0010
1000
0000
0001
0010
0000
,
0100
0001
1000
0010
,
0100
0001
1000
0000
0010
0100
1000
0001
,
0100
0010
1000
0001
,
0010
0100
0001
0000
1000
0001
0100
0000
,
0010
1000
0001
0010
,
0100
0000
0001
0000
1000
0010
0100
0000
,
0001
1000
0010
0100
0001
0000
1000
0000
,
0010
0100
0001
1000
0010
0100
0001
0000
,
0001
1000
0010
0100
,
0001
1000
0010
0000
0100
0001
1000
0000
,
0001
0100
0010
0001
,
0010
0100
1000
0001
0010
0100
0001
0000
,
1000
0010
0100
0001
,
1000
0001
0100
0010
1000
0001
0100
0000
,
0001
1000
0010
0100
0001
1000
0010
0100
,
2002
0000
0000
3003
,
0001
0000
1000
0000
0001
0100
0010
0001
,
1000
0000
0001
0000
0010
0100
0001
0000
,
1000
0000
0010
0000
0100
0001
0010
0000
,
2002
3003
0010
0100
,
0001
0000
1000
0000
0010
0100
0001
0000
,
1000
0010
0100
0001
1000
0001
0100
0000
,
0001
1000
0001
0100
,
0010
1000
0001
0000
0100
0000
0010
0000
,
0001
0100
0010
0000
1000
0001
0010
0000
,
0100
1000
0001
0000
0010
0100
0001
0000
,
1000
0001
0010
0100
,
0001
1000
0010
0000
0100
0001
1000
0000
,
0010
0100
0001
1000
,
0010
0100
0001
1000
0010
0100
0001
0010
,
1000
0001
0010
0100
1000
0001
0010
0100
,
0001
1000
0010
0000
0100
0001
0010
0000
,
1000
0000
0001
0000
0010
0100
0001
1000
,
0000
0010
0100
0001
1000
0010
0100
0001
,
1000
0010
0100
0000
0001
0000
1000
0010
,
0001
0000
1000
0000
0010
0100
0002
0000
,
0003
0000
0000
0000
;

//--------------- dance-single - XLev450X-BSP ----------------
#NOTES:
     dance-single:
     XLev450X:
     Easy:
     11:
     0,0,0,0,0:
0000
0000
0000
0000
,
0000
0000
0000
0000
,
0000
0000
0000
0000
,
0000
0000
0000
0000
,
0001
1000
0010
0100
0001
1000
0010
0000
,
0100
0000
0001
0000
1000
0010
0100
0000
,
0001
0000
0000
0100
0000
0000
0001
0000
0010
0000
1000
0000
0100
0000
0000
0000
,
0001
0000
1000
0000
0001
0100
0010
0000
,
1000
0000
0000
0001
0000
0000
0100
0000
0010
0000
1000
0000
0001
0000
0100
0000
,
0010
0000
1000
0000
0001
0100
0010
0000
,
0001
0000
0000
1000
0000
0000
0001
0000
0100
0000
0010
0000
0100
0000
1000
0000
,
0001
0000
0100
0000
0001
1000
0010
0000
,
0001
0000
0000
1000
0000
0000
0010
0000
0100
0000
0001
0000
1000
0000
0010
0000
,
0100
0000
0000
0000
0001
0000
0000
0000
0100
0000
0001
0000
1000
0000
0000
0001
,
0000
0000
0000
0100
0000
0001
0000
0000
1000
0000
0010
0000
0100
0000
0000
0000
,
0001
0000
1000
0000
0010
0100
0001
0000
,
1000
0000
0000
0001
0000
0000
0100
0000
0010
0000
1000
0000
0001
0000
0000
0000
,
0100
0000
0001
0000
1000
0010
0100
0000
,
0001
0000
0000
1000
0000
0000
0010
0000
0100
0000
0001
1000
0000
0000
0000
0000
,
0001
0000
0010
0100
0001
1000
0010
0000
,
0100
0000
0000
0001
0000
0000
1000
0000
0010
0000
0100
0000
0001
0000
0000
0000
,
1000
0000
0000
0001
0000
0000
0100
0000
0010
0000
0000
1000
0000
0000
0001
0000
,
0100
0000
0000
0010
0000
0000
1000
0000
0001
0000
0000
0100
0000
0000
0010
0000
,
1000
0000
0000
0001
0000
0000
0100
0000
0010
0000
0000
1000
0000
0000
0001
0000
,
0100
0000
0000
0010
0000
0000
1000
0000
0001
0000
0000
0100
0000
0000
0010
0000
,
1000
0000
0000
0001
0000
0000
0100
0000
0010
0000
0000
1000
0000
0000
0001
0000
,
0100
0000
0000
0010
0000
0000
1000
0000
0001
0000
0000
0100
0000
0000
0010
0000
,
0001
1000
0010
0100
0001
1000
0010
0100
,
2002
0000
0000
0000
0000
0000
0000
3003
,
0001
1000
0010
0100
0001
1000
0010
0000
,
0100
0001
1000
0010
0000
0100
1000
0000
,
0001
0000
0100
0000
0001
1000
0010
0100
,
0001
1000
0010
0000
0100
1000
0001
0000
,
0100
0000
0010
0000
0001
0010
0100
0000
,
0001
1000
0010
0100
0000
0001
1000
0000
,
0100
1000
0001
0000
0100
0010
1000
0000
,
0001
0100
0010
1000
0001
0100
0010
0000
,
1000
0001
0010
0000
0100
1000
0010
0000
,
0001
0100
0001
1000
0010
0100
0001
0000
,
0001
0000
1000
0000
0001
0100
0010
0000
,
1000
0000
0001
0000
0010
0100
0001
0000
,
1000
0000
0001
0000
0100
0001
1000
0000
,
0010
0000
0100
0000
0001
1000
0010
0000
,
0100
0001
1000
0010
,
0100
0001
1000
0000
0010
0100
1000
0000
,
0001
0100
0010
1000
0001
0100
0010
1000
,
0202
0000
0000
0303
,
0001
0000
1000
0000
0010
0100
0001
1000
,
0001
1000
0000
0010
0000
0100
0000
0001
0000
0000
1000
0000
0001
0000
0000
0000
,
0001
1000
0010
0100
0001
1000
0010
0100
,
0010
1000
0000
0001
0010
0000
0100
0000
0000
0010
0000
0000
,
0001
1000
0010
0000
0100
1000
0001
0010
,
0100
0001
0000
0100
0000
1000
0000
0010
0000
0000
0100
0000
0010
0000
0000
0000
,
0001
1000
0010
0000
0100
1000
0001
0000
,
0100
0000
0010
0000
1000
0001
0100
0010
,
1000
0000
0001
0000
0010
0001
0010
0000
,
0100
1000
0100
0000
0010
0100
0001
0000
,
1000
0001
0100
0000
0010
1000
0001
0000
,
0010
0100
0001
1000
0010
0100
0001
0000
,
0010
0000
1000
0000
0001
0100
0010
0000
,
1000
0001
0100
0010
1000
0001
0100
0000
,
0010
1000
0001
0100
0010
1000
0001
0100
,
2002
0000
0000
3003
,
0001
1000
0010
0000
0100
0001
1000
0010
,
0100
0001
1000
0000
0001
0100
0010
1000
,
0001
0100
0010
1000
0001
0100
0010
1000
,
0001
1000
0010
0100
0001
1000
0020
0000
,
0030
0000
0000
0000
;

//--------------- dance-single - XLev450X-DSP ----------------
#NOTES:
     dance-single:
     XLev450X:
     Medium:
     14:
     0,0,0,0,0:
0000
0000
0000
0000
,
0000
0000
0000
0000
,
0000
0000
0000
0000
,
0000
0000
0000
0000
,
0001
1000
0010
0100
0001
1000
0020
0030
,
0100
0000
0001
0000
1000
0010
0100
0000
,
0001
0100
1000
0001
0100
0010
1000
0001
,
0100
0001
1000
0010
,
0100
0001
1000
0100
0001
1000
0010
0000
,
1000
0000
0001
0000
0010
0100
0001
0000
,
1000
0010
0100
1000
0001
0100
0010
1000
,
0001
0000
0100
0000
0001
1000
0010
0000
,
0100
0000
0001
0000
1000
0010
0100
0010
,
0001
0010
0100
1000
,
0001
0000
0000
1000
0000
0000
0010
0000
0100
0001
1000
0000
0100
0000
0000
0000
,
0001
0000
0100
0000
0010
0001
1000
0000
,
0010
0000
0000
0100
0000
0000
0001
0000
1000
0000
0010
0000
0100
0000
0000
0000
,
0001
0000
1000
0000
0010
0100
0001
0000
,
1000
0000
0000
0001
0000
0000
0100
0000
0010
0000
1000
0000
0001
0000
0000
0000
,
0100
0000
0010
0000
0001
1000
0010
0000
,
0100
0000
0000
0001
0000
0000
1000
0000
0010
0000
0100
0000
0001
0000
0000
0000
,
1000
0000
0000
0010
0000
0000
0100
0000
0001
0000
0000
0100
0000
0000
0001
0000
,
0010
0000
0000
1000
0000
0000
0001
0000
0100
0000
0000
0010
0000
0000
1000
0000
,
0001
0000
0000
0100
0000
0000
0010
0000
1000
0000
0000
0001
0000
0000
0100
0000
,
0010
0000
0000
1000
0000
0000
0001
0000
0010
0000
0000
0100
0000
0000
0001
0000
,
1000
0000
0000
0001
0000
0000
0100
0000
0010
0000
0000
1000
0000
0000
0001
0000
,
0100
0000
0000
0010
0000
0000
1000
0000
0001
0000
0000
0100
0000
0000
0010
0000
,
1000
0001
0100
0010
1000
0001
0100
0001
,
0010
1000
0010
0000
0100
0001
0100
0000
0010
0100
0010
0000
1000
0001
0100
0010
,
0001
1000
0010
0000
0100
0001
1000
0000
,
0001
0100
0010
1000
0000
0001
0010
0000
,
0001
0000
0000
1000
0000
0000
0010
0000
0100
0000
0001
0000
1000
0000
0010
0000
,
0100
0000
0000
0001
0000
0000
1000
0000
0010
0000
0001
1000
0010
0000
0000
0000
,
0010
0000
0000
0001
0000
0000
0010
0000
1000
0000
0010
0000
0100
0000
0001
0000
,
1000
0000
0000
0010
0000
0000
0100
0000
0001
0000
0000
1000
0000
0000
0010
0000
,
0100
0000
0001
1000
0010
0000
0100
0001
1000
0000
0010
0000
0100
0000
0000
0000
,
0001
0000
0100
0001
0010
0000
1000
0010
1000
0000
0001
0000
0100
0000
0000
0000
,
0010
0000
0100
0001
0100
0000
1000
0010
0100
0000
0010
0001
0100
0000
1000
0000
,
0001
0000
0010
0100
0001
0000
1000
0010
0100
0000
0001
0000
1000
0000
0010
0000
,
0100
0001
1000
0010
0000
0100
0001
1000
,
0001
0000
0100
0001
1000
0010
0100
0000
,
1000
0001
0100
0000
1000
0010
0100
0000
,
0001
0010
0100
0001
1000
0010
0100
0000
,
0001
1000
0010
0100
0001
1000
0001
0000
,
0010
0100
0001
1000
0010
0100
0001
0000
,
1000
0001
0100
0010
1000
0001
0100
0010
,
2002
0000
0000
3003
,
0001
1000
0010
0100
0001
1000
0001
0000
,
0100
0000
0001
0000
1000
0001
0100
0000
,
0010
1000
0001
0100
0010
1000
0001
0100
,
0001
0000
1000
0000
0010
0000
0100
0000
0001
0000
1000
0000
0001
0000
0000
0010
0000
0000
1000
0000
0000
0000
0000
0000
,
0001
0100
0010
0100
0001
1000
0010
0000
,
0100
1000
0100
0000
0010
0001
0010
0000
,
0010
0100
0001
1000
0010
0100
0010
0000
,
0001
1000
0010
0100
0001
1000
0010
0000
,
0100
0000
0001
0000
1000
0010
0100
0000
,
0001
1000
0010
0100
0001
1000
0010
0000
,
0100
0001
1000
0010
0100
0001
1000
0000
,
0001
0010
0100
0000
1000
0000
0010
0000
1000
0000
0010
0000
1000
0000
0000
0000
,
0001
0000
0100
0010
0100
0000
1000
0001
1000
0000
0100
0010
0100
0000
1000
0001
,
1000
0000
0100
0010
0100
0000
1000
0001
1000
0000
0100
0000
0010
0000
0001
0000
,
1000
0010
1000
0000
0100
0001
0100
0000
0010
1000
0010
0000
0100
0001
0100
0000
,
0010
1000
0001
0000
0100
0000
0010
0000
1000
0001
0100
0010
0200
0000
0300
0000
,
0001
1000
0010
0100
0001
1000
0010
0100
,
0001
0000
1000
0010
0001
0000
1000
0010
,
0100
0001
1000
0010
0100
0001
1000
0010
,
0001
1000
0010
0100
0001
1000
0020
0000
,
0030
0000
0000
0000
;

//--------------- dance-single - XLev450X-ESP ----------------
#NOTES:
     dance-single:
     XLev450X:
     Hard:
     17:
     0,0,0,0,0:
0000
0000
0000
0000
,
0000
0000
0000
0000
,
0000
0000
0000
0000
,
0000
0000
0000
0000
,
0001
0000
1000
0000
0010
0000
0100
0000
0001
0000
0010
0000
2000
0000
0000
3000
,
0001
0000
0100
0010
1000
0000
0001
1000
0010
0000
1000
0000
0100
0000
0010
1000
,
0001
0100
0010
1000
0001
0010
0100
1000
0100
0001
0010
0000
1000
0001
0100
0000
,
0001
0000
1000
0001
0100
0000
0001
1000
0010
0000
0100
0000
1000
0000
0010
0000
,
0100
0001
1000
0010
1000
0100
0001
0000
1000
0010
0100
0000
0001
1000
0010
0000
,
0100
0000
0010
1000
0001
0000
1000
0001
0100
0000
0001
0000
0010
0100
1000
0010
,
0001
0100
0010
1000
0001
0100
1000
0010
1000
0001
0100
0010
1000
0001
0100
0000
,
0010
0000
0001
1000
0100
0000
1000
0001
0010
0000
0100
0000
1000
0100
0001
0000
,
0100
1000
0100
0010
0001
0010
0001
0010
0100
1000
0100
0010
0100
0001
1000
0000
,
0001
0000
1000
0100
0010
0000
0100
0010
0001
0000
1000
0001
0010
0000
0100
0000
,
0001
0000
0000
1000
0000
0000
0100
0001
1000
0100
0010
0000
0100
0000
0000
0000
,
0001
0000
1000
0001
0010
0000
0100
1000
0001
0000
1000
0100
0010
0000
0001
0100
,
0010
1000
0001
0010
0100
0010
0100
0010
0001
1000
0010
0000
0100
0000
0000
0000
,
0010
0000
0001
0010
1000
0000
0001
1000
0100
0000
0010
0001
1000
0000
0100
0000
,
0010
0100
0001
0010
0001
0010
0100
0010
0100
1000
0100
0000
0010
0000
0000
0000
,
0001
0000
1000
0100
0010
0000
0100
0010
0001
0000
0100
0000
0010
0100
0001
0010
,
0001
0100
0010
0100
0010
1000
0010
0100
0001
1000
0001
0100
0010
0000
0100
0000
,
0001
0000
1000
0010
0001
0000
0100
0001
1000
0000
1000
0010
0001
0000
0100
0001
,
1000
0000
1000
0010
0001
0000
0100
0010
0100
0000
1000
0001
0010
0000
0100
0001
,
1000
0000
1000
0010
0100
0000
0100
0001
0010
0000
0010
0100
1000
0000
0100
0001
,
1000
0000
0001
0010
0100
0000
0100
0001
1000
0000
0010
0100
0001
0000
0001
1000
,
0010
0000
1000
0100
0001
0000
0001
1000
0010
0000
1000
0100
0010
0000
0010
0001
,
1000
0000
0001
0010
0100
0000
0010
0001
1000
0000
1000
0010
0100
0000
0010
0001
,
1000
0010
0100
0001
1000
0010
0100
0001
,
0010
0100
0001
1000
0100
1000
0100
1000
0010
0100
0001
0010
0001
1000
0001
0010
,
0001
0000
0010
0001
1000
0000
0000
0100
0010
0000
0100
0000
0001
0000
0000
0000
,
0001
0000
0100
0000
0010
0000
1000
0000
0000
0100
0001
0000
0100
0000
0010
0000
,
0001
0000
0000
0100
1000
0000
0100
0000
0010
0000
0100
0000
0001
0010
0000
0000
,
1000
0000
0000
0010
0001
0000
0010
0000
0100
0000
1000
0000
0001
1000
0010
0000
,
0100
0000
0000
0100
0001
0000
1000
0000
0010
0000
0100
0000
1000
0100
0001
0000
,
0010
0000
0100
0010
0001
0000
0010
0000
1000
0000
0010
0000
0100
0000
0000
0001
,
1000
0000
0001
0010
0100
0000
0000
1000
0010
0000
0001
0000
1000
0000
0000
0000
,
0001
0000
0100
1000
0010
0000
0000
0001
0100
0000
1000
0000
0010
0000
0100
0000
,
0001
0000
0010
0001
1000
0000
0000
0010
0001
0000
0000
0010
0100
0000
0000
1000
,
0010
0000
0000
0001
0000
0000
0010
1000
0100
0010
0001
1000
0010
0000
0000
0100
0000
0000
0001
0000
0000
0000
0000
0000
,
1000
0100
0010
0000
0001
0000
0100
0000
0000
0010
0000
0000
0001
1000
0100
0000
,
0001
1000
0010
0100
0001
0010
0100
0001
0010
0000
1000
0000
0001
0000
0000
0000
,
0001
0010
1000
0000
0010
0000
0100
0000
0000
0010
0000
0000
0001
1000
0010
0000
,
0100
0000
0000
0000
1000
0100
0010
0100
0001
1000
0010
0000
0100
0000
1000
0000
,
0001
1000
0010
0000
0100
0000
1000
0000
0010
1000
0100
0000
0001
0000
1000
0000
,
0010
1000
0100
0000
0001
0000
1000
0000
0010
1000
0100
0000
0001
0000
1000
0000
,
0010
1000
0001
0100
0010
0100
0010
0100
0001
1000
0100
0010
0100
1000
0100
0010
,
0002
0000
0000
0000
0000
0003
0100
0000
,
0001
0000
1000
0000
0010
0001
0000
0000
0100
0000
1000
0000
0001
1000
0001
0000
,
0100
0010
0000
1000
0000
0100
0000
1000
0000
0000
0100
0000
0001
0000
0000
0000
,
0010
0000
1000
0100
0010
0001
0100
0010
0001
0100
1000
0000
0010
0000
0100
0010
,
0001
0000
1000
0000
0100
0000
0010
0000
0001
0000
1000
0000
0020
0000
0000
0030
0000
0000
0001
0000
0000
0000
0000
0000
,
0010
0000
1000
0100
0001
0000
0010
1000
0100
0000
0010
0100
0001
0000
1000
0000
,
0010
0100
0000
0010
0000
1000
0000
0100
0000
0000
0001
0000
1000
0000
0000
0000
,
0010
0000
0100
0010
0001
0100
1000
0100
0010
0001
0100
1000
0001
0000
0010
0000
,
0001
0100
0010
1000
0010
0100
0001
0010
0001
1000
0010
0100
0001
1000
0001
1000
,
0010
0000
0100
0001
1000
0010
0000
0100
0001
0000
0010
1000
0100
0010
0000
0000
,
0001
0010
1000
0000
0010
0000
0100
0000
1000
0010
0001
0000
0010
0001
0000
0000
,
0100
0001
1000
0000
0001
0100
0000
0000
0010
1000
0100
0000
0001
0000
1000
0001
,
0010
0000
0100
0000
0001
0100
1000
0000
0010
0000
0100
1000
0001
0000
0010
0000
,
1000
0000
0010
0001
0100
0000
0001
0100
1000
0000
0010
1000
0100
0000
0001
0010
,
1000
0000
0100
1000
0010
0000
0001
0010
0100
0000
0001
0010
1000
0000
0100
0001
,
0010
0100
0001
1000
0010
0100
0001
1000
,
0010
0100
0001
1000
0010
1000
0010
1000
0001
0100
0010
1000
0020
0000
0030
0000
,
0001
1000
0000
0010
0000
0100
0000
0001
0000
1000
0010
0000
0100
0001
0010
1000
,
0010
0000
0100
0001
0010
1000
0100
0000
0010
0000
0001
0000
1000
0010
0001
0100
,
0010
0000
0001
0000
1000
0000
0010
0000
0100
0001
0010
1000
0001
0000
0010
0000
,
0001
1000
0010
0100
0001
0010
2000
0000
,
3000
0000
0000
0000
;
