#TITLE:Wasn't Enough;
#SUBTITLE:;
#ARTIST:Tom Orlando;
#TITLETRANSLIT:;
#SUBTITLETRANSLIT:;
#ARTISTTRANSLIT:;
#GENRE:;
#CREDIT:;
#MUSIC:Wasn't Enough.ogg;
#BANNER:Wasn't Enough.png;
#BACKGROUND:Wasn't Enough-bg.png;
#CDTITLE:;
#SAMPLESTART:81.205;
#SAMPLELENGTH:15.000;
#SELECTABLE:YES;
#OFFSET:-0.078;
#BPMS:0.000=142.000;
#STOPS:;
#BGSTAGE:3;
#BGCHANGES:;
#FGCHANGES:;

//--------------- dance-single - XLev450X-bSP ----------------
#NOTES:
     dance-single:
     XLev450X:
     Beginner:
     1:
     0,0,0,0,0:
0000
0000
0000
0000
,
0000
0000
0000
0000
,
0000
0000
0000
0000
,
0000
0000
0000
0000
,
0000
0000
0000
0000
,
0000
0000
0000
0000
,
0000
0000
0000
0000
,
0000
0000
0000
0000
,
0000
0000
0000
0000
,
0000
0000
0000
0000
,
0000
0000
0000
0000
,
0000
0000
0000
0000
,
0000
0000
0000
0000
,
0000
0000
0000
0000
,
0000
0000
0000
0000
,
0000
0000
0000
0000
,
0001
0000
0000
0000
,
0000
0000
0000
0000
,
1000
0000
0000
0000
,
0000
0000
0000
0000
,
0010
0000
0000
0000
,
0000
0000
0000
0000
,
0100
0000
0000
0000
,
0000
0000
0000
0000
,
0001
0000
0001
0000
,
0001
0000
0000
0000
,
1000
0000
1000
0000
,
1000
0000
0000
0000
,
0010
0000
0010
0000
,
0010
0000
0000
0000
,
0100
0000
0100
0000
,
0100
0000
0000
0000
,
0001
0000
0000
0000
,
1000
0000
0000
0000
,
0010
0000
0100
0000
,
0010
0000
0000
0000
,
0001
0000
0000
0000
,
0100
0000
0000
0000
,
0010
0000
1000
0000
,
0010
0000
0000
0000
,
0100
0000
0000
0000
,
0001
0000
0000
0000
,
1000
0000
0000
0000
,
0010
0000
0000
0000
,
0001
0000
1000
0000
,
0010
0000
0000
0000
,
1001
0000
0000
0000
,
0000
0000
0000
0000
,
0010
0000
1000
0000
,
0001
0000
0000
0000
,
0100
0000
0010
0000
,
1000
0000
0000
0000
,
0100
0000
0001
0000
,
0100
0000
0000
0000
,
0010
0000
1000
0000
,
0010
0000
0000
0000
,
0001
0000
1000
0000
,
0001
0000
0000
0000
,
0010
0000
0000
0000
,
0100
0000
0000
0000
,
1000
0000
0010
0000
,
0001
0000
0100
0000
,
1000
0000
0001
0000
,
0100
0000
0010
0000
,
0101
0000
0000
0000
;

//--------------- dance-single - XLev450X-BSP ----------------
#NOTES:
     dance-single:
     XLev450X:
     Easy:
     3:
     0,0,0,0,0:
0000
0000
0000
0000
,
0000
0000
0000
0000
,
0000
0000
0000
0000
,
0000
0000
0000
0000
,
0000
0000
0000
0000
,
0000
0000
0000
0000
,
0000
0000
0000
0000
,
0000
0000
0000
0000
,
0000
0000
0000
0000
,
0000
0000
0000
0000
,
0000
0000
0000
0000
,
0000
0000
0000
0000
,
0000
0000
0000
0000
,
0000
0000
0000
0000
,
0000
0000
0000
0000
,
0000
0000
0000
0000
,
0001
0000
0001
0000
,
0001
0000
0000
0000
,
1000
0000
1000
0000
,
1000
0000
0000
0000
,
0010
0000
0010
0000
,
0010
0000
0000
0000
,
0100
0000
0100
0000
,
0100
0000
0000
0000
,
1000
0000
0001
0000
,
1000
0000
0000
0000
,
0010
0000
0100
0000
,
0001
0000
0000
0000
,
1000
0000
0010
0000
,
0100
0000
0000
0000
,
0001
0000
1000
0000
,
0010
0000
0000
0000
,
0100
0100
0100
0000
,
0001
0000
1000
0000
,
0010
0010
0010
0000
,
0100
0000
0001
0000
,
1000
1000
1000
0000
,
0001
0000
0100
0000
,
0010
0001
1000
0000
,
0010
0000
0100
0000
,
0001
0000
1000
0000
,
0001
0000
0100
0000
,
0010
0000
1000
0000
,
0001
0000
0100
0000
,
0002
0000
0003
0000
,
2000
0000
3000
0000
,
2002
0000
0000
0000
,
0000
0000
0000
0000
0000
0000
0000
3003
,
0010
1000
0001
0000
,
0200
0300
0002
0003
,
1000
0010
0100
0001
,
2000
0000
0000
3000
0020
0000
0000
0030
,
0002
0003
2000
3000
0002
0003
0000
0000
,
0200
0300
0002
0003
0200
0000
0300
0000
,
0020
0030
2000
3000
,
0002
0003
0200
0300
0020
0000
0030
0000
,
2000
3000
0002
0003
,
0200
0300
0020
0030
,
0200
0300
0002
0003
,
2000
3000
0020
0030
,
0200
0300
0002
0003
2000
3000
0000
0000
,
0020
0030
0200
0300
0002
0003
2000
3000
,
0020
0030
0200
0300
,
0002
0003
2000
3000
0020
0030
0200
0300
,
1001
0000
0000
0000
;

//--------------- dance-single - XLev450X-DSP ----------------
#NOTES:
     dance-single:
     XLev450X:
     Medium:
     7:
     0,0,0,0,0:
0000
0000
0000
0000
,
0000
0000
0000
0000
,
0000
0000
0000
0000
,
0000
0000
0000
0000
,
0000
0000
0000
0000
,
0000
0000
0000
0000
,
0000
0000
0000
0000
,
0000
0000
0000
0000
,
0000
0000
0000
0000
,
0000
0000
0000
0000
,
0000
0000
0000
0000
,
0000
0000
0000
0000
,
0000
0000
0000
0000
,
0000
0000
0000
0000
,
0000
0000
0000
0000
,
0000
0000
0000
0000
,
0001
1000
0010
0000
,
1000
0000
0001
0000
0010
0100
0001
0000
,
1000
0010
1000
0000
,
0100
0000
0001
0000
0010
1000
0010
0000
,
0100
0000
0001
0000
,
1000
0000
0010
0000
0100
0001
1000
0010
,
0000
0100
0001
1000
,
0010
0001
0010
0000
0100
0000
1000
0000
,
0001
0100
0010
1000
,
0001
0100
0010
1000
,
0001
0000
0010
0000
,
1000
0010
1000
0000
0001
0000
0100
0000
,
0000
0010
1000
0001
,
0100
0000
0001
0000
,
1000
0000
0010
0000
0001
1000
0100
0000
,
0001
1000
0010
0100
0001
1000
0010
0100
,
1001
0000
0010
0100
,
1000
0000
0001
0100
,
0010
0000
1000
0001
,
0100
0010
0001
0000
1000
0000
0010
0000
,
0100
0000
1000
0001
,
0010
1000
0010
0000
0100
0000
0001
0000
,
0010
0100
0001
0000
,
1000
0010
0100
0000
,
0001
0000
0100
0000
,
0010
1000
0000
0000
0010
0000
0000
0000
,
0100
0001
1000
0000
,
0010
0100
0000
0000
0001
0000
1000
0000
,
0010
0100
0001
0000
1000
0000
0010
0000
,
0100
0001
1000
0000
0010
0000
0100
0000
,
1001
0000
0000
0000
,
0110
0000
0000
0000
,
0001
0000
1000
0000
0010
0100
0001
0000
,
1000
0010
0100
1000
,
0010
1000
0010
0000
0100
0001
0100
0000
,
0010
0000
0100
0001
,
1000
0010
1000
0000
0100
0000
0010
0000
,
0001
1000
0000
0000
0001
0000
0100
0000
,
0001
1000
0100
0000
0001
0000
0000
0000
,
0010
0000
0100
0000
0001
1000
0010
0100
,
0001
0000
1000
0010
,
0100
0000
0001
1000
,
0010
1000
0010
0000
0100
0001
0100
0000
,
0010
0100
0001
0000
,
1000
0010
0100
0000
,
0001
0000
1000
0000
0010
0100
0001
1000
,
0010
0100
0001
0000
,
1000
0000
0010
0000
0100
0001
1000
0010
,
0101
0000
0000
0000
;

//--------------- dance-single - XLev450X-ESP ----------------
#NOTES:
     dance-single:
     XLev450X:
     Hard:
     11:
     0,0,0,0,0:
0000
0000
0000
0000
,
0000
0000
0000
0000
,
0000
0000
0000
0000
,
0000
0000
0000
0000
,
0000
0000
0000
0000
,
0000
0000
0000
0000
,
0000
0000
0000
0000
,
0000
0000
0000
0000
,
0000
0000
0000
0000
,
0000
0000
0000
0000
,
0000
0000
0000
0000
,
0000
0000
0000
0000
,
0000
0000
0000
0000
,
0000
0000
0000
0000
,
0000
0000
0000
0000
,
0000
0000
0000
0000
,
0000
0000
0000
0100
0010
0000
0100
0000
0001
0000
0010
0000
0001
0010
0100
0000
,
0000
0000
0000
1000
0100
0000
0010
0000
0001
0000
0100
0000
0001
0000
0000
0000
,
0000
0100
0010
0001
1000
0001
1000
0100
,
0010
0001
1000
0010
1000
0010
0100
0000
,
0000
0000
0000
0100
0010
0001
1000
0010
,
0100
0000
0001
0000
1000
0000
0100
0000
0010
0000
0001
0000
1000
0010
1000
0000
,
0000
0010
0100
0001
0100
0010
1000
0100
,
0010
1000
0001
0000
0010
0000
0001
0000
0100
0000
0001
0000
0100
0000
0010
0000
,
0100
0010
1000
0001
0010
0100
0010
0100
,
1000
0000
1000
0100
0010
0001
1000
0010
,
0000
0000
0000
0010
1000
0001
0010
0000
,
1000
0001
0100
0000
0010
0000
0001
0000
1000
0000
0010
0000
1000
0000
0000
0000
,
0000
0000
0010
0001
0100
0010
1000
0001
,
0010
0000
0000
0001
0000
1000
0010
0000
0100
0000
0010
0001
1000
0000
0001
0000
,
0100
0000
0000
0001
0000
0000
0100
0000
1000
0000
0100
0001
0000
0000
0100
0000
,
1000
0000
0000
0010
0000
0000
0001
0000
1000
0000
0000
0001
0000
0000
0010
0000
,
0000
0000
0000
0000
0000
0000
0010
0000
1000
0000
0100
0001
0010
0000
0100
0000
,
0000
0000
0000
0000
0000
0000
0010
0000
1000
0100
0010
0000
0100
0000
0001
0000
,
0010
0000
0000
0000
0000
0000
0000
0000
1000
0000
0000
0100
0000
0000
0010
0000
,
0100
0010
1000
0100
1000
0001
0010
0001
,
0000
0000
0000
0010
1000
0100
1000
0010
,
0000
0000
0010
1000
0100
0000
0001
0000
0010
0000
0100
0000
1000
0000
0001
0000
,
0000
0000
0010
0000
1000
0000
0010
0000
0100
0000
0001
0010
1000
0000
0010
0000
,
0000
0000
0100
0000
0010
0000
0100
0000
1000
0000
0000
0010
0000
0000
0001
0000
,
0000
0000
0100
0010
1000
0000
0001
0100
,
0010
0100
0000
0000
1000
0010
0100
0000
0010
0000
0100
0000
1000
0000
0010
0000
,
0100
0010
0000
0100
1000
0010
0100
0001
,
0100
0000
0000
0001
0000
0000
0000
0000
0000
0000
0001
0000
1000
0000
0000
0000
,
0000
0000
0000
0000
0010
0001
0010
0100
,
1000
0010
0000
0000
0000
0000
0100
0010
,
1000
0000
0000
0010
0000
0000
0001
0000
0000
0000
0000
0000
1000
0000
0100
0000
,
0010
0001
0000
0000
0000
0010
0100
0000
,
0000
0000
0000
0001
1000
0010
0100
0001
,
0000
0000
0010
0100
1000
0010
0100
0001
,
0000
0001
1000
0010
0000
0010
0100
0001
,
0000
0010
1000
0100
1000
0010
0100
0010
,
0000
0000
1000
0001
0000
0000
0000
0001
,
0010
0001
1000
0001
0100
0010
1000
0001
,
0000
0000
0010
0100
1000
0010
0100
0000
,
0000
0001
1000
0001
0010
0100
0010
0001
,
0000
0000
0100
0010
1000
0010
0100
0001
,
0000
0000
1000
0100
0010
0001
1000
0000
,
0010
0100
1000
0000
0010
0001
1000
0000
,
0100
0010
0100
0001
0010
0100
1000
0001
,
1000
0100
1000
0001
0010
0000
0000
0010
,
1000
0100
0010
0100
0000
0000
0000
0001
,
0010
0001
0010
0000
1000
0100
0010
0000
,
0100
1000
0100
0010
0001
0010
0100
1000
0100
0010
0001
1000
0010
0100
0010
0100
,
0010
0000
0000
0000
;
