#TITLE:Wash Him Off (louie wolf's Trap Mix);
#ARTIST:Marydancin Produced by louie wolf;
#GENRE:TRAP;
#MUSIC:Wash Him Off (louie wolf's Trap Mix).ogg;
#BANNER:Wash Him Off (louie wolf's Trap Mix).png;
#BACKGROUND:Wash Him Off (louie wolf's Trap Mix)-bg.png;
#SAMPLESTART:24.82;
#SAMPLELENGTH:15;
#OFFSET:-0.104;
#BPMS:0=126.234;
#DISPLAYBPM:126;
#BGSTAGE:4;

//--------------- dance-single - XLev450X-bSP ----------------
#NOTES:
     dance-single:
     XLev450X:
     Beginner:
     3:
     0,0,0,0,0:
0000
0000
0000
0000
,
0000
0000
0000
0000
,
0000
0000
0000
0000
,
0000
0000
0000
0000
,
0000
0000
0000
0000
,
0001
0000
1000
0000
,
0010
0000
0000
0000
,
0100
0000
0001
0000
,
1000
0000
0000
0000
,
0010
0000
0100
0000
,
0001
0000
0000
0000
,
1000
0000
0010
0000
,
0100
0000
0000
0000
,
0001
1000
0001
0000
,
0010
0000
0100
0000
,
0001
1000
0010
0000
,
0100
0000
0001
0000
,
0001
0001
1000
0000
,
1000
1000
0001
0000
,
0010
0010
0100
0000
,
0100
0100
0010
0000
,
0001
0000
1000
0000
,
0001
0000
0000
0000
,
0001
0000
0010
0000
,
0100
0000
0000
0000
,
1000
0000
0010
0000
,
0100
0000
0000
0000
,
0001
0000
1000
0000
,
0010
0000
0000
0000
,
0100
0000
0001
0000
,
1000
0000
0000
0000
,
0010
0000
0100
0000
,
0001
0000
0000
0000
,
1000
1000
1000
0000
,
0001
0001
0001
0000
,
0010
0100
0010
0000
,
0100
0010
0100
0000
,
0001
1000
0010
0000
,
0100
0001
0100
0000
,
0010
0000
1000
0000
,
0001
1000
0001
0000
,
0001
0001
0001
0000
,
1000
1000
1000
0000
,
0100
0010
0100
0000
,
0010
0100
0010
0000
,
0100
0000
0010
0000
,
1000
0001
0010
0000
,
0100
0000
0001
0000
,
1000
0001
1000
0000
;

//--------------- dance-single - XLev450X-BSP ----------------
#NOTES:
     dance-single:
     XLev450X:
     Easy:
     6:
     0,0,0,0,0:
0000
0000
0000
0000
,
0000
0000
0000
0000
,
0000
0000
0000
0000
,
0000
0000
0000
0000
,
0000
0000
0000
0000
,
0001
1000
0010
0100
,
0001
0100
1000
0000
,
0010
0100
0001
1000
,
0010
0000
1000
0000
0001
0100
0001
0000
,
1000
0100
0001
0000
0100
0001
0100
0000
,
0200
0001
0301
0000
,
1000
0010
0100
0001
,
0010
0000
0100
0000
2002
0000
0000
3003
,
0010
0100
0001
0010
,
1000
0100
0001
0000
,
0010
0100
0010
0000
,
2000
0000
3020
0000
0032
0000
2000
3003
,
0010
1000
0001
0100
,
0010
0001
1000
0000
,
0010
0100
0001
1000
,
1001
0101
0011
0101
,
1000
0010
0100
0001
,
1000
0100
0001
0000
,
0010
0100
0001
0010
,
0100
0000
0001
0000
0001
0100
1000
0000
,
0001
1000
0010
0100
,
0001
0010
1000
0001
,
0010
1000
0010
0100
,
0001
1000
0100
0000
1000
0001
0100
0000
,
0001
0100
0010
0001
,
1000
0100
0010
0001
,
0100
0001
1000
0010
,
0002
0000
1000
0000
1000
0000
2000
3003
,
0100
0001
0010
1000
,
0001
1000
0100
0000
,
0010
0000
1000
0001
0010
0000
0100
0000
,
0001
0100
1000
0001
0020
0000
0200
0330
,
0001
0100
0001
1000
,
0010
1000
0100
0000
,
1000
0010
0001
1000
,
1100
1010
1001
1010
,
1000
0100
0010
0100
,
0001
0010
1000
1000
,
0010
0000
0001
0100
1000
0000
1001
0000
,
0110
0101
1010
1001
,
0010
1000
0001
0100
,
0010
0001
1000
0000
,
0010
0100
0001
1000
,
1001
0101
0022
0000
,
0033
0000
0000
0000
;

//--------------- dance-single - XLev450X-DSP ----------------
#NOTES:
     dance-single:
     XLev450X:
     Medium:
     10:
     0,0,0,0,0:
0000
0000
0000
0000
,
0000
0000
0000
0000
,
0000
0000
0000
0000
,
0000
0000
0000
0000
,
0000
0000
0000
0000
,
0001
1000
0001
0000
0010
1000
0010
0000
,
0001
0000
0100
0000
1000
0001
1000
0000
,
0010
0100
0010
0001
0010
0100
1000
0000
,
0001
1000
0010
1000
0100
0010
0001
0000
,
0001
0000
1000
0000
0010
1000
0100
0000
,
0001
0100
0010
1000
0001
0000
1000
0001
,
0010
0100
0001
0010
,
1000
0000
0010
0000
0200
0000
0000
0300
,
0001
1000
0001
0000
0010
1000
0010
0000
,
0001
0000
0100
0000
1000
0001
1000
0000
,
0010
0000
1000
0000
0100
0001
0010
0000
,
0101
1010
1001
0001
,
1000
0001
1000
0100
0010
0001
0100
0000
,
0001
1000
0010
0100
0000
0001
1000
0000
,
0010
0100
0001
1000
0010
0000
0100
0000
,
0001
0100
1000
0000
0010
0100
0010
0000
,
0010
1000
0100
0001
0010
0100
1000
0000
,
0010
1000
0010
0100
0000
0001
1000
0000
,
0001
0000
1000
0000
0010
1000
0010
0000
,
0001
0000
1000
0000
0100
0001
0100
0000
,
0001
0000
1000
0000
0001
1000
0010
0100
,
0000
0001
0010
0100
0000
0010
1000
0010
,
0001
0000
1000
0000
0100
0001
0100
0000
,
0001
1000
0010
0100
0010
0001
1000
0001
,
1000
0000
0010
0000
1000
0100
0010
0000
,
0001
0100
0010
1000
0001
0000
1000
0100
,
0001
1000
0010
0100
,
0001
1000
0002
0000
0103
1000
0200
0000
,
0310
1000
0100
0010
0001
0010
0100
1000
,
0001
0100
0010
1000
0001
0010
0100
0000
,
0001
0010
0100
1000
0001
1000
0001
0000
,
0010
1000
0100
0010
0001
0010
0100
0000
,
0010
0010
0100
0000
0001
0001
1000
0000
,
0100
0000
0001
0000
1000
0010
1000
0000
,
0010
0100
0001
0100
1000
0001
1000
0000
,
0010
1000
0010
0000
0010
0100
0010
0000
,
0001
0010
0001
1000
0100
0001
1000
0000
,
0010
0000
1000
0000
0001
0100
0010
0000
,
1000
1000
0100
0010
0001
0010
0100
0000
,
0001
1000
0001
1000
0010
0000
1001
0000
,
0010
1000
0001
1001
,
0100
0000
0010
0000
1000
0001
0100
0000
,
0010
0000
1000
0000
0001
0100
0010
0000
,
1000
0000
0001
0000
0100
0020
0000
0000
,
0030
0000
0000
0000
;

//--------------- dance-single - XLev450X-ESP ----------------
#NOTES:
     dance-single:
     XLev450X:
     Hard:
     14:
     0,0,0,0,0:
0000
0000
0000
0000
,
0000
0000
0000
0000
,
0000
0000
0000
0000
,
0000
0000
0000
0000
,
0000
0000
0000
0000
,
0001
1000
0001
0000
0010
0000
1000
0000
0100
0000
0010
0000
0001
0000
0000
0000
,
0001
0100
0001
0000
0010
0000
1000
0000
0010
1000
0010
0000
0100
0000
0010
0000
,
0001
0010
0001
0000
0100
0000
1000
0000
0001
0000
1000
0000
0001
0000
1000
0000
,
0000
0000
0010
1000
0010
0000
0100
0000
0001
0010
0001
0000
0100
0000
1000
0000
,
0001
1000
0001
0000
0010
0000
1000
0000
0100
0000
0010
0000
0001
0000
0010
0000
,
0100
0010
0100
0000
1000
0000
0001
0000
0010
0000
1000
0000
0001
0000
0000
1000
,
0000
0000
0000
0000
0001
0000
0000
0100
0000
0000
0000
0000
0001
0000
1000
0000
,
0020
0030
0200
0300
2002
0000
0000
3003
,
0001
1000
0001
0000
0010
0000
0000
1000
0000
0000
0010
0000
0100
0000
0001
0000
,
0010
0001
0010
0000
0100
0000
1000
0000
0001
0000
1000
0000
0010
0100
1000
0001
,
0100
0000
0010
0000
0001
0010
1000
0100
0010
0000
1000
0000
0001
0000
1000
0001
,
0000
1000
0010
0000
0100
0000
0010
0000
0001
1000
0001
0000
1000
0000
0010
0000
,
1000
0000
0001
0000
0010
0000
0001
0010
1000
0001
1000
0000
0100
0000
0001
0000
,
1000
0001
1000
0000
0010
0000
1000
0000
0010
1000
0010
0000
0100
0000
1000
0000
,
0001
0000
0100
0000
0010
0001
1000
0001
0100
0000
0010
0000
1000
0000
0100
0001
,
0000
1000
0010
0000
0100
0000
0001
0000
1000
0010
0100
0001
1000
0010
0100
0001
,
0010
1000
0010
1000
0000
0100
0010
0001
,
0100
0001
0100
0000
0001
0000
1000
0000
0001
0000
1000
0001
1000
0000
0001
0000
,
1000
0000
0010
0000
0100
0000
0010
0000
0000
0000
0001
0000
0000
1000
0000
0000
,
0001
0000
0100
0000
0010
0000
1000
0000
0010
1000
0010
0000
0100
0000
0000
0000
,
0001
0000
1000
0010
0000
0100
0010
0000
0000
0000
0001
0000
0010
0000
0100
0000
,
0001
0000
0000
1000
0000
0000
0010
0000
0000
0100
0000
0000
0001
0000
1000
0000
,
0001
1000
0001
0000
1000
0000
0100
0000
0000
0000
0010
0000
0001
0000
0010
0000
,
0001
0000
0100
0001
0100
0000
0001
0000
1000
0010
1000
0000
0010
0000
0100
0000
,
0001
0000
0000
0000
0001
1000
0000
0100
0000
0000
0001
0000
0010
0000
1000
0000
,
0010
0000
1000
0010
1000
0000
0010
0000
0001
0000
0010
0000
1000
0100
0001
0010
,
0100
0000
0001
0000
0100
0001
1000
0010
0001
0000
1000
0000
0100
0000
0001
0000
,
2000
3100
0020
0031
0200
0310
0002
1003
,
0010
1000
0010
0000
0001
0000
0010
0000
0100
0000
1000
0000
0001
0000
1000
0000
,
0001
1000
0001
0000
0010
0000
1000
0000
0100
0000
0010
0000
0101
0000
0000
0000
,
0001
1000
0001
0000
1000
0000
0010
0000
0100
0000
0002
0000
0103
0000
1000
0001
,
0000
1000
0001
0000
1000
0000
0001
0000
1000
0000
0010
0000
0100
0000
0000
0000
,
0001
1000
0001
1000
0000
0010
1000
0100
,
0010
0100
0010
0000
0001
0000
0010
0000
0100
0000
1000
0000
0001
0000
0000
0000
,
0001
0000
1000
0000
0001
1000
0001
1000
0010
0000
0100
0000
0010
0000
0001
0010
,
0000
0100
1000
0100
0001
0000
1000
0000
0010
1000
0010
0000
0001
0000
0010
0000
,
0001
1000
0001
0000
0010
0000
0100
0000
1000
0000
0001
0000
0100
0000
0000
0000
,
0001
0100
0001
0000
1000
0000
0010
0000
0100
0000
0010
0000
0001
0000
0000
0000
,
0010
0000
1000
0000
0010
1000
0010
0001
0100
0000
0001
0000
1000
0000
0001
1000
,
0001
1000
0001
0100
1000
0000
0100
0000
0001
0000
1000
0001
1000
0000
0001
0000
,
0001
0000
0000
1000
0000
0000
0010
0000
0100
0000
0001
0000
1000
0000
0000
0000
,
0001
0000
0000
0100
0000
0000
1000
0000
0000
0000
0010
0000
0100
0000
0001
0000
,
1000
0000
0000
0010
0000
0000
0100
0000
1000
0000
0010
0000
0100
0000
0001
0010
,
0000
1000
0100
0000
0010
0000
1000
0000
0001
0000
0100
0020
0000
0000
0000
0000
,
0030
0000
0000
0000
;
