#TITLE:Wake Up, Get Up, Get Out There;
#ARTIST:Lyn;
#GENRE:PHANTOM PHUNK;
#MUSIC:Wake Up Get Up Get Out There.ogg;
#BANNER:Wake Up Get Up Get Out There.png;
#BACKGROUND:Wake Up Get Up Get Out There-bg.png;
#SAMPLESTART:59.201;
#SAMPLELENGTH:15;
#OFFSET:1.508;
#BPMS:0=127;
#BGSTAGE:29;
#BGCHANGES:2.000=Wake Up Get Up Get Out There.mp4=1.000=1=0=1===CrossFade==,
197.500=Wake Up Get Up Get Out There-bg.png=1.000=1=0=1===CrossFade==,
99999.000=-nosongbg-=1.000=0=0=0=StretchNoLoop====;

//--------------- dance-single - XLev450X-bSP ----------------
#NOTES:
     dance-single:
     XLev450X:
     Beginner:
     2:
     0,0,0,0,0:
0000
0000
0000
0000
,
0000
0000
0000
0000
,
0000
0000
0000
0000
,
0000
0000
0000
0000
,
0000
0000
0000
0000
,
0000
0000
0000
0000
,
0000
0000
0000
0000
,
0000
0000
0000
0000
,
0000
0000
0000
0000
,
0010
0000
0000
0000
,
0010
0000
0000
0000
,
0010
0000
0000
0000
,
0000
0000
0000
0000
,
0100
0000
0000
0000
,
0100
0000
0000
0000
,
0100
0000
0000
0000
,
0000
0000
0000
0000
,
0001
0000
0000
0000
,
0001
0000
0000
0000
,
0001
0000
0000
0000
,
0000
0000
0000
0000
,
1000
0000
0000
0000
,
1000
0000
0000
0000
,
1000
0000
0000
0000
,
0000
0000
0000
0000
,
0010
0000
0100
0000
,
0010
0000
0000
0000
,
0001
0000
0010
0000
,
0001
0000
0000
0000
,
1000
0000
0100
0000
,
1000
0000
0000
0000
,
0100
0000
0010
0000
,
0200
0000
0000
0300
,
0001
0000
1000
0000
,
0001
0000
0000
0000
,
0010
0000
0100
0000
,
0010
0000
0000
0000
,
1000
0000
0010
0000
,
1000
0000
0000
0000
,
0001
0000
0100
0000
,
0001
0000
0000
0000
,
0001
0000
1000
0000
,
0001
0000
0000
0000
,
0100
0000
0010
0000
,
0100
0000
0000
0000
,
1000
0000
0010
0000
,
1000
0000
0000
0000
,
0001
0000
1000
0000
,
0001
0000
0000
0000
,
2002
0000
0000
0000
0000
0000
0000
0000
0000
0000
0000
0000
0000
3003
0000
0000
0000
0000
0000
0000
0000
0000
0000
0000
0000
0000
0000
0000
0000
0000
0000
0000
;

//--------------- dance-single - XLev450X-BSP ----------------
#NOTES:
     dance-single:
     XLev450X:
     Easy:
     5:
     0,0,0,0,0:
0000
0000
0000
0000
,
0000
0000
0000
0000
,
0000
0000
0000
0000
,
0000
0000
0000
0000
,
0000
0000
0000
0000
,
0000
0000
0000
0000
,
0000
0000
0000
0000
,
0000
0000
0000
0000
,
0000
0000
0000
0000
,
0001
1000
0000
0000
,
0010
1000
0000
0000
,
0010
0100
0000
0000
,
0001
0010
0001
0000
,
0001
1000
0000
0000
,
1000
0100
0000
0000
,
0010
0100
0001
0100
,
0000
0000
0000
0000
,
0001
1000
0010
0000
,
1000
0100
0001
0000
,
0001
1000
0010
0100
,
1000
0000
0001
0000
,
1000
0100
0000
0001
,
0000
0010
1000
0000
,
0010
0100
0000
0001
,
0000
1000
0000
0000
,
0001
1000
0000
0010
,
1000
0100
0000
0001
,
0010
0100
0000
1000
,
0001
1000
0000
0000
,
0001
0100
0000
1000
,
0010
0100
0000
0001
,
1000
0001
0000
0000
,
0000
0000
2000
3000
0000
0200
0300
0000
0020
0030
0000
0002
0003
0000
0000
0000
,
0002
0003
0000
0200
0300
0000
2000
3000
0000
0000
0002
0003
0000
0000
0000
0000
,
1000
0001
1000
0000
,
0010
1000
0010
0000
,
0001
0100
1000
0000
,
0010
0000
1000
0001
0000
1000
0000
0000
,
0010
0100
0010
0000
,
0001
1000
0001
1000
,
0000
0000
0000
0000
0002
0000
0003
0000
0000
0000
0020
0000
0030
0000
0000
0000
0200
0000
0300
0000
0000
0000
2000
0000
3000
0000
0000
0000
0002
0003
0000
0000
,
0020
0030
0000
0200
0300
0000
2000
3000
0000
0000
2000
3000
0000
0000
0000
0000
,
0001
0010
1000
0000
,
1000
0100
0001
0000
,
0010
0100
1000
0001
,
0010
1000
0000
0001
,
1000
0001
0000
0100
,
1000
0001
1000
0000
,
0010
1000
0010
0000
,
2002
0000
0000
0000
0000
0000
0000
0000
3003
0000
0000
0000
2002
3003
0000
0000
0000
0000
0000
0000
0000
0000
0000
0000
0000
0000
0000
0000
0000
0000
0000
0000
;

//--------------- dance-single - XLev450X-DSP ----------------
#NOTES:
     dance-single:
     XLev450X:
     Medium:
     8:
     0,0,0,0,0:
0000
0000
0000
0000
,
0000
0000
0000
0000
,
0000
0000
0000
0000
,
0000
0000
0000
0000
,
0000
0000
0000
0000
,
0001
0000
0000
0010
0000
0000
0100
0000
0000
0000
0000
0000
1000
0000
0000
0000
,
0001
0000
1000
0000
0100
0010
0100
0000
,
1000
0000
0000
0100
0000
0000
0001
0000
0000
0000
0010
0000
0100
0000
0010
0000
,
0000
0100
0100
1001
,
0001
0000
0000
1000
0000
0000
0001
0000
0010
0000
1000
0000
0010
0000
0000
0000
,
0001
0000
1000
0000
0100
0001
0100
0000
,
0001
0000
0000
1000
0000
0000
0100
0000
0001
0000
0000
0000
0100
0000
0000
0000
,
1000
0000
0010
0000
1000
0001
0100
1000
,
0001
0000
0000
0010
0000
0000
1000
0000
0001
0000
0010
0000
0001
0000
0000
0000
,
1000
0000
0100
0000
1000
0010
1000
0000
,
0001
0000
0000
1000
0000
0000
0001
0000
0000
0000
1000
0000
0001
0000
2002
0000
,
0000
0000
0000
3003
,
1000
0100
0001
0000
,
0010
1000
0100
1000
,
0001
0100
0010
0000
,
0001
0000
0010
0000
1000
0001
1000
0000
,
0001
1000
0010
0000
,
1000
0100
0001
1000
,
0100
1000
0001
0010
,
1000
0000
0100
0000
0010
0100
0010
0000
,
0001
0000
0000
1000
0000
0000
0000
0000
0001
0000
0100
0000
0001
0000
0000
0000
,
1000
0010
1000
0100
,
0001
0100
0001
0000
0010
1000
0010
0000
,
0010
0100
1000
0000
,
0010
0000
0000
1000
0000
0000
0000
0000
0100
0000
1000
0000
0100
0000
0000
0000
,
0001
1000
0001
0100
,
0001
0010
0001
0000
1000
0010
1000
2002
,
3003
0000
0000
0000
0002
0000
0003
0000
0000
0000
2000
0000
3000
0000
0000
0000
0002
0000
0000
0003
0000
0000
2000
0000
0000
3000
0000
0000
0001
0000
0000
0000
,
1000
0000
0000
0001
0000
0000
2002
0000
3003
0000
2002
0000
3003
0000
0000
0000
,
1000
0000
0001
0000
1000
0000
0010
1000
,
0010
0001
1000
0100
,
0001
0100
0001
0000
0010
0100
0010
0000
,
1000
0000
0000
0100
0000
0000
0001
0000
0000
0000
1000
0000
0001
0000
0000
0000
,
0100
0000
1000
0000
0010
1000
0010
0000
,
0001
0000
0100
1000
0000
0001
0010
1000
,
0000
0000
0010
0000
0000
0100
0000
0000
0010
0000
0000
0100
0000
0000
0010
0000
,
0100
0000
0000
0010
0000
0000
0220
0000
0330
0000
0220
0000
0330
0000
0000
0000
,
1000
0000
0001
0000
0010
1000
0010
0000
,
0100
0000
1000
0000
0001
1000
0100
0000
,
0001
0000
1000
0000
0010
0000
1000
0010
,
1000
0000
0000
0001
0000
0000
0100
0000
0000
0000
0100
0000
1000
0000
0000
0000
,
0001
0000
0100
0000
1000
0001
0010
0000
,
1000
0000
0100
0001
0000
0000
0010
0000
,
1000
0000
0010
0100
0000
0000
0010
0000
,
2002
0000
3003
0000
0000
0000
0220
0000
0330
0000
0000
0000
2002
3003
0000
0000
0000
0000
0000
0000
0000
0000
0000
0000
0000
0000
0000
0000
0000
0000
0000
0000
;

//--------------- dance-single - XLev450X-ESP ----------------
#NOTES:
     dance-single:
     XLev450X:
     Hard:
     12:
     0,0,0,0,0:
0000
0000
0000
0000
,
0000
0000
0000
0000
,
0000
0000
0000
0000
,
0000
0000
0000
0000
,
0000
0000
0000
0000
,
1000
0000
0000
0001
0000
0000
1000
0000
0000
0000
0010
0000
1000
0000
0010
0000
,
0100
0000
1000
0000
0001
0000
0010
0000
1000
0000
0001
1000
0100
0000
0001
0000
,
1000
0000
0000
0001
0000
0000
0100
0000
0000
0000
1000
0000
0010
0000
2000
0000
,
0000
0001
3001
0000
0200
1000
1000
1300
,
0010
0000
0000
1000
0000
0000
0001
0000
0000
0000
0010
0001
0000
0000
1000
0010
,
0000
0000
0100
0000
1000
0000
0001
0000
1000
0001
0000
0100
0000
1000
0000
0000
,
0001
0010
1000
0100
0000
0001
0010
1000
,
0000
0000
0001
0000
0010
0000
0001
0000
1000
0000
0001
0000
0010
0001
0010
0000
,
1000
0000
0000
0001
0000
0000
0100
0000
0000
0000
1000
0010
0000
0000
0100
0010
,
0000
0000
0001
0000
1000
0000
0001
0000
1000
0001
0000
0100
0000
1000
0000
0000
,
0001
0010
1000
0001
0000
0100
0010
2001
,
0000
0000
0000
0000
0001
0001
3001
0000
,
1000
0000
0000
0001
0000
0000
0000
0000
1000
0000
0001
0000
0100
0000
0010
0000
,
0000
0000
1000
0000
0000
0001
0000
0000
0100
0000
0000
0000
1000
0000
0010
0000
,
0100
0000
0000
0001
0000
0000
0100
0000
0000
0000
1000
0000
0000
0001
0000
0000
,
0100
0000
0010
0000
1000
0010
1000
0100
,
0001
0000
0000
1000
0000
0000
0000
0000
0001
0000
0100
0000
0010
0000
1000
0000
,
0000
0000
0001
0000
0000
0100
0000
0000
0010
0000
0000
0000
1000
0000
0010
0000
,
1000
0000
0000
0001
0000
0000
0100
0000
0000
0000
1000
0000
0001
0000
0010
0000
,
1000
0000
0001
0000
0100
1000
0001
0010
,
1000
0000
0000
0001
0000
0000
0100
0000
0000
0000
1000
0000
0001
0000
0100
0000
,
1000
0000
0000
0001
0000
0000
0100
0000
0000
0000
0010
0000
1000
0010
0000
1000
,
0000
0001
0100
0000
1000
0000
0000
0000
0001
0000
1000
0000
0001
0000
0100
0001
,
1000
0000
0001
0000
0000
0000
0010
0000
1000
0000
0000
0001
0000
0000
0100
0000
,
1000
0000
0000
0100
0000
0000
0000
0000
0001
0000
1000
0000
0010
0000
0100
0000
,
1000
0100
0000
0001
0000
0100
0000
1000
0000
0000
0001
0000
1000
0010
0000
0100
,
0000
1000
0001
0000
0010
0000
0000
0000
1000
0000
0001
0000
0010
0000
1000
0000
,
0000
0000
0002
0000
0003
0200
0000
0300
2000
0000
3000
0020
0000
0030
2000
0000
,
3200
0000
0300
0002
0003
0000
1000
0100
0010
0001
0010
0100
1000
0000
0000
0000
,
0001
0000
1000
0000
0010
0000
0100
0000
1000
0000
0001
0000
1000
0100
1000
0100
,
1000
0001
1000
0001
0100
1000
0001
0000
,
0010
0000
1000
0000
0000
0100
0000
0000
0001
0000
0000
0100
0000
0000
1000
0000
,
0001
0000
0000
1000
0000
0000
0001
0100
1000
0000
0001
1000
0010
0000
0001
0000
,
1000
0000
0000
0100
0000
0000
1000
0000
0100
0000
0001
0000
0010
0000
1000
0000
,
0001
0000
0001
0010
0000
1000
0010
0100
,
1000
0000
0002
0000
0003
0200
0000
0300
2000
0000
3000
0020
0000
0030
0200
0000
,
2300
0000
3000
0002
0003
0000
0001
0010
0100
1000
0100
0010
0001
0000
0000
0000
,
1000
0000
0100
0000
1000
0000
0001
0000
0010
0000
0001
0000
0010
0001
0010
0001
,
0010
1000
0001
1000
0010
0100
1000
0000
,
0010
1000
0000
0100
0000
0001
0000
1000
0000
0100
0000
0001
0000
0100
1000
0000
,
0010
0000
0000
1000
0000
0000
0100
0010
0100
0000
1000
0001
0010
0000
1000
0000
,
0100
0000
0000
1000
0000
0000
0001
0000
1000
0000
0010
0000
1000
0000
0010
0000
,
1000
0000
0001
0000
0010
0000
1000
0010
0100
0000
1000
0000
0001
0000
0100
0000
,
1000
0000
0000
0000
0010
0000
0000
0000
1000
0000
0000
0000
0010
0000
1000
0000
0010
0000
0000
0000
1000
0000
0000
0000
0001
0000
0000
0000
0010
0000
1000
0001
,
2000
0000
0000
3000
0000
0000
0220
0000
0330
0000
0000
0000
2002
3003
0000
0000
0000
0000
0000
0000
0000
0000
0000
0000
0000
0000
0000
0000
0000
0000
0000
0000
;
