#TITLE:WHISPER;
#ARTIST:THE BOYZ;
#GENRE:K-POP;
#MUSIC:WHISPER.ogg;
#BANNER:WHISPER.png;
#BACKGROUND:WHISPER-bg.png;
#SAMPLESTART:67.57;
#SAMPLELENGTH:15;
#OFFSET:-0.07;
#BPMS:0=96;
#STOPS:80=1.25;
#BGSTAGE:5;

//--------------- dance-single - XLev450X-bSP ----------------
#NOTES:
     dance-single:
     XLev450X:
     Beginner:
     3:
     0,0,0,0,0:
0000
0000
0000
0000
,
0000
0000
0000
0000
,
0000
0000
0000
0000
,
0000
0000
0000
0000
,
0000
0000
0000
0000
,
0001
0001
0001
0000
,
0010
0100
0010
0000
,
1000
1000
1000
0000
,
1000
0001
1000
0000
,
0001
1000
0010
0000
,
0100
1000
0100
0000
,
0010
0001
0100
0000
,
1000
0010
0100
0000
,
0001
0000
0000
0000
,
1000
0000
0000
0000
,
0010
0000
0010
0000
,
0100
0000
0100
0000
,
0001
0001
1000
0000
,
0010
0100
0010
0000
,
1001
0000
0000
0000
,
0000
0000
1000
0010
,
0100
0000
0001
0010
,
0001
0000
0010
1000
,
0010
0000
0001
1000
,
0001
0000
0010
0010
,
0010
0000
1000
1000
,
1000
0000
0001
0001
,
0001
0000
0100
0100
,
0100
0000
0010
0000
,
1000
0000
0001
0000
,
0100
0000
0010
0010
,
0100
0000
1000
0001
,
1000
0000
0010
1000
,
0001
0100
0010
0000
,
1000
0000
0001
1000
,
0001
0000
1001
0000
,
0000
0000
0010
0010
,
0010
0000
0001
0001
,
0001
0000
1000
1000
,
1000
0000
0100
0100
,
0100
0000
0001
0100
,
0010
0000
1000
0100
,
1000
0000
0100
0001
,
0100
0000
1000
0001
,
1000
0000
0100
0100
,
0100
0000
0001
0001
,
0001
0000
1000
1000
,
1000
0000
0010
0010
,
0010
0000
0000
0000
;

//--------------- dance-single - XLev450X-BSP ----------------
#NOTES:
     dance-single:
     XLev450X:
     Easy:
     6:
     0,0,0,0,0:
0000
0000
0000
0000
,
0000
0000
0000
0000
,
0000
0000
0000
0000
,
0000
0000
0000
0000
,
0000
0000
0000
0000
,
0001
0000
1000
0000
0100
1000
0100
0000
,
0010
0000
0100
0000
0010
0010
1000
0000
,
0001
0000
1000
0000
0001
0001
0100
0000
,
0010
0000
0000
1000
0000
0000
2002
0000
0000
0000
3003
0000
,
1000
0001
1000
0100
,
1000
0000
0010
1000
0100
0000
0001
0000
,
0001
0001
1000
1000
0010
0010
0100
0100
,
1000
0000
0000
0100
0000
0000
0010
0000
0000
0001
0000
0000
0010
0000
0000
1000
0000
0000
2002
0000
0000
0000
3003
0000
,
1000
0100
0001
0010
,
0100
1000
0010
0000
,
1000
0001
1000
0100
,
1000
0010
0100
0000
,
0001
0000
1000
0000
0001
0001
0100
0000
,
1000
0000
0010
0000
1000
1000
0100
0000
,
0010
0000
0000
1000
0000
0000
0010
0000
0000
0000
0000
0000
0220
0000
0000
0000
0000
0000
0000
0000
0000
0000
0330
0000
,
0000
0000
0000
0000
0001
1000
0001
0000
,
0100
1000
0010
1000
0100
0000
0001
0000
,
1000
0100
0001
0000
0010
0010
1000
0000
,
0100
0100
0001
1000
0010
0000
1000
0000
,
0001
0010
0011
0000
1000
0001
1000
0000
,
1000
0100
0010
1000
0001
0010
1000
0000
,
0100
1000
1010
0000
1000
1000
0001
0000
,
0100
1000
0001
0000
0010
0000
1000
0000
,
0001
0000
0000
0100
0000
0000
0002
0000
0000
0000
0003
0000
1000
0000
0000
0000
0000
0000
1000
0000
0000
0000
0000
0000
,
0001
0010
1000
0001
,
0100
1000
0001
0000
0010
0000
1000
0000
,
0001
1000
0001
0000
0010
0000
0100
0000
,
0010
0100
0010
0000
1000
0000
0001
0000
,
1000
0010
0100
1000
,
0001
0010
0001
0000
1000
0000
0001
0000
,
2002
0000
0000
3003
0220
0000
0000
0000
,
0000
0330
0001
1000
,
0010
0001
0000
0100
0010
0000
1000
0000
,
0202
0000
0000
0303
1000
0000
0001
0000
,
0010
1000
0010
0000
0100
0010
0100
0000
,
2002
0000
0000
3003
1000
0001
1000
0000
,
0010
0001
0100
0001
0010
0000
1000
0000
,
0001
0010
1000
0000
0100
0100
0001
0000
,
0010
0010
1000
0001
0100
0000
0001
0000
,
1000
0100
1100
0000
0001
1000
0001
0000
,
0001
0010
0100
0001
1000
0100
0001
0000
,
0010
0001
0101
0000
0001
0001
1000
0000
,
0010
0001
1000
0000
0100
0000
0001
0000
,
1000
0000
0000
0010
0000
0000
2000
0000
0000
0000
3000
0000
0000
0000
0000
0000
0000
0000
0000
0000
0000
0000
0000
0000
;

//--------------- dance-single - XLev450X-DSP ----------------
#NOTES:
     dance-single:
     XLev450X:
     Medium:
     11:
     0,0,0,0,0:
0000
0000
0000
0000
,
0000
0000
0000
0000
,
0000
0000
0000
0000
,
0001
0000
0000
1000
0000
0000
0001
0000
0000
0000
0100
0000
0010
0000
1000
0000
,
0001
0000
0000
1000
0000
0000
0010
0000
0000
0000
0100
0000
0001
0000
0000
0000
,
0001
0000
1000
0000
0010
1000
0001
0010
,
1000
0000
0000
0000
0001
0000
0010
0000
0001
0010
0001
0000
1000
0000
0000
0000
,
0100
0000
1000
0010
0100
1000
0001
0010
,
0001
0000
1000
0010
1000
0000
0001
0000
0101
0000
0101
0000
0010
1000
0001
0000
,
0010
1000
0010
2000
3000
0100
0001
0010
,
0001
0000
1000
0000
0100
0000
0002
0000
0003
0000
0001
0000
0010
0000
0100
0001
,
1000
0010
1000
0000
0100
0000
1000
0000
0001
0010
0001
0000
0100
0000
1000
0000
,
0001
1000
0001
0000
0010
1000
0010
0000
0100
0010
0100
0000
0010
0001
0010
0000
,
0002
0003
1000
0001
0100
0000
1000
0010
,
2000
0000
0000
0000
3000
0000
0100
0000
0000
1000
0000
0000
0010
0000
0000
0000
0000
0000
0100
0000
0000
0001
0000
0000
,
1000
0010
1000
0100
1000
0001
0010
0000
,
0100
1000
0001
0010
0001
0100
1000
0000
,
0001
0000
1000
0000
0010
0000
1000
0000
0001
0010
0001
0000
1000
0000
0100
0000
,
1000
0100
1000
0000
0010
0000
0001
0000
1000
0001
1000
0000
0010
0000
0100
0000
,
0001
0000
0000
1000
0000
0000
0001
0000
0000
1000
0000
0000
0001
0000
0010
0000
0100
0000
1000
0000
0100
0000
0010
0000
,
0000
0000
0000
0000
0001
1000
0010
0000
,
1000
0100
0001
0100
1000
0000
0010
1000
,
0001
0000
0000
0000
0000
0000
0010
0000
0000
0000
0000
0000
0001
0000
0000
0000
0010
0000
0100
0000
0000
0010
0000
0000
1000
0000
0000
0000
0000
0000
0010
0000
0000
0000
0000
0000
1000
0000
0000
0000
0000
0000
0000
0000
0000
0000
0000
0000
,
0100
1000
0001
0100
1000
0000
0010
1000
,
0001
0000
0000
0100
0000
0000
1000
0000
0010
0000
0100
0000
0010
0000
0000
1000
0000
0000
0001
0000
0000
0010
0000
0000
,
0100
0010
0100
0000
1000
0000
0001
0000
1000
0010
1000
0000
0001
0000
0010
0000
,
0001
0000
0000
0010
0000
0000
0001
0000
0000
0000
0000
0000
0202
0000
0000
0000
0000
0000
0000
0000
0303
0000
0000
0000
1000
0000
0000
0000
0000
0000
0001
0000
0000
0000
0000
0000
1000
0000
0000
0000
0000
0000
0010
0000
0000
0000
0000
0000
,
1000
0010
1000
0000
0001
0000
0010
0000
1000
0000
0001
0100
0000
1000
0000
0010
,
0000
0000
0000
0000
0100
0000
1000
0000
0000
0001
0000
0000
0100
0000
0000
0000
0001
0000
0000
0000
0010
0000
0000
0000
1000
0000
0000
0000
0000
0000
0000
0000
0000
0000
0000
0000
0001
0000
0000
0000
0000
0000
0000
0000
0000
0000
0000
0000
,
1000
0010
0100
0000
1000
0000
0001
0000
,
0010
0001
0010
0000
1000
0010
1000
0001
,
0100
0000
1000
0000
0100
0000
0001
0000
0000
0000
0000
0000
1000
0000
0000
0010
0000
0000
1000
0000
0000
0001
0000
0000
,
0210
0000
0300
0001
2000
0000
3000
0000
0001
0000
0000
1000
0000
0000
0100
0000
,
0010
0000
0000
0001
0000
0000
1000
0000
0010
0000
0000
0100
0000
0000
0001
0000
,
1000
0000
0000
0010
0000
0000
1000
0000
0001
0000
0100
0000
1000
0000
0010
0000
,
0001
0010
0100
1000
0100
0010
2002
0000
0000
0000
0000
0000
,
0000
0000
0000
0000
3003
0000
0000
0000
0001
0000
0000
1000
0000
0000
0010
0000
,
0100
0000
1000
0001
0000
0100
0000
0000
1000
0000
0000
0010
0000
0000
1000
0000
,
0010
0000
0000
0000
0101
0000
0000
0000
1000
0000
0000
0010
0000
0000
0100
0000
,
1000
0000
0001
1000
0001
0000
0010
0100
0010
0000
0001
0000
1000
0000
0100
0000
,
2002
0000
0000
3003
1000
0001
0100
0000
,
0001
0010
1000
0010
0001
0000
0100
0001
,
1000
0000
0000
0000
0000
0000
0100
0000
0000
0000
0000
0000
1000
0000
0000
0000
0100
0000
0010
0000
0000
0100
0000
0000
0001
0000
0000
0000
0000
0000
0100
0000
0000
0000
0000
0000
0001
0000
0000
0000
0000
0000
0000
0000
0000
0000
0000
0000
,
0010
0001
1000
0010
0001
0000
0100
0001
,
1000
0000
0000
0010
0000
0000
0001
0000
0100
0000
0010
0000
0100
0000
0000
0001
0000
0000
1000
0000
0000
0100
0000
0000
,
0010
0100
0010
0000
0001
0000
1000
0000
0001
0100
0001
0000
1000
0000
0100
0000
,
1000
0000
0000
0100
0000
0000
1000
0000
0000
0000
0000
0000
2020
0000
0000
0000
0000
0000
0000
0000
3030
0000
0000
0000
0001
0000
0000
0000
0000
0000
1000
0000
0000
0000
0000
0000
0001
0000
0000
0000
0000
0000
0100
0000
0000
0000
0000
0000
,
0001
0100
0001
0000
1000
0000
0100
0000
0001
0000
1000
0010
0000
0001
0000
0100
,
0000
0000
0000
0000
0010
0000
0001
0000
0000
1000
0000
0000
0010
0000
0000
0000
1000
0000
0000
0000
0100
0000
0000
0000
0000
0000
0000
0000
0000
0000
0000
0000
0000
0000
0000
0000
0000
0000
0000
0000
0000
0000
0000
0000
0000
0000
0000
0000
;

//--------------- dance-single - XLev450X-ESP ----------------
#NOTES:
     dance-single:
     XLev450X:
     Hard:
     14:
     0,0,0,0,0:
0000
0000
0000
0000
,
0000
0000
0000
0000
,
0000
0000
0000
0000
,
0001
0000
0000
1000
0000
0000
0001
0000
0000
1000
0100
0000
0010
0000
0001
0000
,
1000
0000
0000
0000
0000
0000
0010
0000
0000
0000
0000
0000
0100
0000
0000
0000
0000
0000
0100
0000
0001
0000
0000
0000
2001
0000
0000
0000
0000
3000
0000
0000
,
0010
0001
1000
0010
1000
0100
0001
0010
0100
1000
0100
0000
0120
0000
0000
0030
,
0001
0000
0000
0000
2001
0000
0000
0000
0000
0000
3000
0000
0010
0000
0000
0000
1000
0000
0000
0000
0000
0000
0001
0000
0100
0000
0000
0000
0000
0000
0001
1000
,
0001
0010
1000
0010
1000
0001
0100
0010
0001
1000
0010
0000
0101
0000
0001
0000
,
0010
0000
1000
0010
1000
0001
0010
0001
0010
0000
1001
0000
0101
0000
0001
1000
,
0010
1000
0001
0100
0010
0000
2000
0000
3000
0000
0001
0010
0001
0000
1000
0010
,
1000
0001
1000
0100
0010
0000
0002
0000
0003
0000
0010
1000
0001
0000
0010
0001
,
0010
0000
1000
0010
0000
1000
0100
1000
0001
0000
0010
0001
1000
0010
1000
0001
,
0010
0000
1000
0001
1000
0001
1000
0010
0001
0000
0101
0000
0101
0000
0101
0000
,
1000
0000
0000
0001
0000
0000
0100
0000
0010
0000
1000
0000
0001
0000
0010
0000
,
1000
0000
0000
0100
0000
0000
0001
0000
0010
0000
1000
0000
0010
0000
1000
0000
,
0001
0000
0010
0001
0010
0000
1000
0000
0100
0000
1000
0010
1000
0000
0100
0000
,
0001
0000
0001
0010
0001
0000
1000
0100
1000
0000
0010
0100
0010
0000
0001
0000
,
1000
0000
0000
0010
0000
0000
0001
0000
0010
0000
0000
1000
0000
0000
0010
0000
,
1000
0000
0000
0001
0000
0000
0100
0000
1000
0000
0000
0001
0000
0000
0010
0000
,
0001
0000
0000
1001
0000
0000
1000
0000
0000
1001
0000
0000
0001
0000
1000
0000
0100
0000
0001
0000
1000
0000
0010
0000
,
0000
0000
0001
0000
1000
0010
0001
1000
0001
0000
1000
0010
1000
0000
0001
0010
,
0001
0000
0100
0001
1000
0000
0010
0000
1000
0000
0001
0010
0001
0000
1000
0000
,
0001
0000
0000
0000
0000
0000
0100
0000
0000
0001
0000
0000
1000
0000
0000
0000
0100
0000
0010
0000
0000
0100
0000
0000
0001
0000
0000
1000
0000
0000
0010
0000
0000
0000
0000
0000
0001
0000
0000
0010
0000
0000
0001
0000
0000
0000
0000
0000
,
1000
0100
1000
0000
0001
0010
0001
0000
1000
0000
0010
0100
0001
0000
1000
0000
,
0010
0000
0000
0000
0000
0000
0100
0000
0000
0001
0000
0000
1000
0000
0000
0000
0001
0000
0000
0000
1000
0000
0000
0000
0001
0000
0000
0010
0000
0000
0001
0000
0000
0000
0000
0000
1000
0000
0000
0000
0000
0000
0100
0000
0000
1000
0000
0000
,
0010
0000
0001
0000
0010
0000
1000
0000
0001
0100
0001
0000
1000
0000
0010
1000
,
0010
0000
0100
0000
1000
0000
0001
0000
0010
0001
0010
0000
0001
0000
1000
0010
,
1000
0000
0000
0000
0001
0000
0000
0000
0001
0000
0010
1000
0000
0000
0100
0000
0010
0000
0000
0000
1000
0000
0001
0000
0000
0000
0100
0000
0000
0000
1000
0000
,
0000
0000
0000
0001
0000
0000
0010
0000
0000
0001
0000
0000
1000
0000
0000
0000
0100
0000
0000
0000
0001
0000
0000
0000
1000
0000
0000
0000
0000
0000
0010
0000
0000
0001
0000
0000
0010
0000
0000
0100
0000
0000
1000
0000
0000
0100
0000
0000
,
0001
0000
0010
0000
1000
0000
0100
0000
0020
0000
0000
0000
0030
0000
0000
0000
0001
0000
0010
0000
1000
0000
0100
0010
0001
0000
0010
0000
0100
0000
1000
0000
,
0010
0000
0000
0000
0000
0000
0001
0000
0000
0000
0000
0000
0010
0000
0000
0000
0000
0000
0001
0000
0000
0000
0000
0000
2000
0000
0000
0000
0000
0000
0000
0000
0000
0000
0000
0000
3000
0000
0000
0000
0000
0000
0000
0000
0000
0000
0000
0000
1000
0000
0000
0000
0000
0000
0000
0000
0000
0100
0000
0000
0000
0000
0000
0000
0000
0000
0010
0000
0000
0000
0000
0000
0001
0000
0000
0000
0000
0000
0000
0000
0010
0000
0000
0000
0000
0000
0000
0000
0000
0000
1000
0000
0000
0001
0000
0000
,
1000
0000
0000
0000
0000
0000
0000
0000
0000
0010
0000
0000
0000
0000
0000
0000
0100
0000
0000
0000
0010
0000
0000
0000
0100
0000
0000
0000
0000
0000
0000
0000
0000
0001
0000
0000
0000
0000
0000
0000
0000
0000
1000
0000
0000
0000
0000
0000
0010
0000
0000
0000
0000
0000
0000
0000
0000
0000
0000
0000
1000
0000
0000
0000
0000
0000
0000
0000
0000
0000
0000
0000
0001
0000
0000
0000
0000
0000
0000
0000
0000
0000
0000
0000
1000
0000
0000
0000
0000
0000
0100
0000
0000
0000
0000
0000
,
0020
0000
0030
1000
0002
0000
0003
0100
1000
0001
0100
0010
2000
0000
3100
0001
,
0010
0001
0100
1000
0020
0000
0031
1000
0001
0010
0100
1000
0200
0000
1300
0001
,
1000
0010
0100
0001
0200
0000
0310
1000
0001
0000
1001
0000
0010
0000
0110
0000
,
1000
0000
0000
0000
0001
0000
0000
0000
0100
0000
0000
0000
0010
0000
0000
0000
1000
0000
0000
0000
0001
0000
0000
0000
0020
0000
0000
0000
0000
0000
0030
0000
0000
0200
0000
0000
0000
0000
0000
0300
0000
0000
2000
0000
0000
0000
0000
0000
,
3000
0000
0000
0010
0002
0000
0000
0000
0103
0000
0000
0000
0000
0000
0000
0000
0001
0000
0010
0000
0001
0000
0000
0000
1000
0000
0000
0000
0010
0000
1000
0000
,
0001
0000
0100
0010
0000
1000
0100
0000
0001
0010
0001
0000
1000
0000
0001
0100
,
0010
0000
0000
0000
0000
0000
0000
0000
0220
0000
0000
0000
0000
0330
0000
0000
0001
0000
0010
0000
1000
0000
0000
0000
1000
0000
0000
0000
0010
0000
0100
0000
,
0010
0000
1000
0100
0010
0001
1000
0000
0010
0100
0010
0000
1000
0000
0001
1000
,
0010
0000
1000
0000
0001
0100
1000
0001
1000
0000
0001
0100
0001
0000
1000
0100
,
1000
0000
0010
1000
0001
0000
0100
0000
0001
0000
1000
0100
1000
0000
0001
0000
,
1000
0000
0000
0000
0000
0000
0010
0000
0000
1000
0000
0000
0001
0000
0000
0000
0010
0000
0100
0000
0000
0010
0000
0000
1000
0000
0000
0001
0000
0000
0100
0000
0000
0000
0000
0000
1000
0000
0000
0100
0000
0000
1000
0000
0000
0000
0000
0000
,
0001
0010
0001
0000
1000
0100
1000
0000
0001
0000
0100
0010
1000
0000
0001
0000
,
0100
0000
0000
0000
0000
0000
0010
0000
0000
1000
0000
0000
0001
0000
0000
0000
1000
0000
0000
0000
0001
0000
0000
0000
1000
0000
0000
0100
0000
0000
1000
0000
0000
0000
0000
0000
0001
0000
0000
0000
0000
0000
0010
0000
0000
0001
0000
0000
,
0100
0000
1000
0000
0100
0000
0001
0000
1000
0010
1000
0000
0001
0000
0100
0001
,
0100
0000
0010
0000
0001
0000
1000
0000
0100
1000
0100
0000
1000
0000
0001
0100
,
0001
0000
0000
0000
1000
0000
0000
0000
1000
0000
0100
0001
0000
0000
0010
0000
0100
0000
0000
0000
0001
0000
1000
0000
0000
0000
0010
0000
0000
0000
0001
0000
,
0000
0000
0000
1000
0000
0000
0100
0000
0000
1000
0000
0000
0001
0000
0000
0000
0010
0000
0000
0000
1000
0000
0000
0000
0000
0000
0000
0000
0000
0000
0000
0000
0000
0000
0000
0000
0000
0000
0000
0000
0000
0000
0000
0000
0000
0000
0000
0000
;
