#TITLE:Voltage (feat. Hidemaru);
#ARTIST:TaQ;
#GENRE:BIG BEAT;
#MUSIC:Voltage (feat. Hidemaru).ogg;
#BANNER:Voltage (feat. Hidemaru).png;
#BACKGROUND:Voltage (feat. Hidemaru)-bg.png;
#CDTITLE:./CDTitles/bm IIDX 4th style.png;
#SAMPLESTART:7.954;
#SAMPLELENGTH:15;
#OFFSET:1.616;
#BPMS:0=125;
#BGSTAGE:27;

//--------------- dance-single - XLev450X-bSP ----------------
#NOTES:
     dance-single:
     XLev450X:
     Beginner:
     2:
     0,0,0,0,0:
0000
0000
0000
0000
,
0000
0000
0000
0000
,
0000
0000
0000
0000
,
0000
0000
0000
0000
,
0000
0000
0000
0000
,
0001
1000
0001
0000
,
0010
1000
0010
0000
,
0100
0010
0100
0000
,
0001
0010
0001
0000
,
0001
0001
0000
0000
,
1000
1000
0000
0000
,
0010
0010
0000
0000
,
0100
0100
0000
0000
,
1001
0000
0000
0000
,
0000
0000
0000
0000
,
1001
0000
0000
0000
,
0000
0000
0000
0000
,
0000
1000
0000
0001
,
0000
1000
0000
0010
,
0000
0100
0000
0001
,
0000
1000
0000
0000
,
0000
0010
0000
1000
,
0000
0001
0000
0100
,
0000
0001
0000
0010
,
0000
1000
0000
0001
,
0100
0000
0000
0000
,
0000
0000
0000
0000
,
0010
0000
0000
0000
,
0000
0000
0000
0000
,
1000
0000
0000
0000
,
0010
0000
0000
0000
,
0100
0000
0000
0000
,
0001
0000
0000
0000
,
0010
1000
0000
0000
,
0100
0001
0000
0000
,
0010
0100
0000
0000
,
1000
0100
0000
0000
,
0001
0001
0000
0000
,
1000
1000
0000
0000
,
0100
0100
0000
0000
,
0010
0010
0000
0000
,
0010
0100
0010
0000
,
1000
0100
1000
0000
,
0010
0001
0010
0000
,
1000
0001
1000
0000
,
0010
0000
1000
0000
,
0001
0000
0000
0000
,
0100
0000
0010
0000
,
0100
0000
0000
0000
;

//--------------- dance-single - XLev450X-BSP ----------------
#NOTES:
     dance-single:
     XLev450X:
     Easy:
     6:
     0,0,0,0,0:
0000
0000
0000
0000
,
0000
0000
0000
0000
,
0000
0000
0000
0000
,
0000
0000
0000
0000
,
0000
0000
0000
0000
,
0010
0000
1000
0000
0001
0010
0001
0000
,
1000
0100
0001
0000
,
1000
0000
0010
0000
0100
0010
0100
0000
,
1000
0010
0100
0000
,
0001
1000
0010
0100
,
0001
0010
0001
0000
1000
0000
0100
0000
,
0001
1000
0010
0100
,
1000
0010
1000
0000
0001
0000
1000
0000
,
0001
0100
0010
1000
,
0001
0000
1000
0000
0001
1000
0001
0000
,
1000
0000
0010
0000
0100
0010
0100
0000
,
0001
0000
1000
0000
2002
0000
0000
3003
,
0001
0000
1000
0000
0010
1000
0010
0000
,
0001
0100
0001
0000
,
0100
0000
1000
0000
0010
1000
0010
0000
,
0001
0100
1010
0000
,
0010
1000
0001
0100
,
0001
0010
0001
0000
0100
1000
0100
0000
,
0001
0000
1000
0000
0010
1000
0100
0010
,
0001
1000
0001
0100
,
0002
0003
2000
3000
,
0020
0030
0200
0300
,
0002
0003
0020
0030
0200
0300
2000
3000
,
0200
0300
0020
0030
0002
0000
1003
0000
,
2000
3000
0020
0030
0200
0300
0020
0030
,
0002
0003
2000
3000
0002
0003
0200
0300
,
0010
1000
0010
0000
0010
0001
0010
0000
,
0001
1000
2002
3003
,
0002
0003
2000
3000
0020
0030
2000
3000
,
0200
0300
0020
0030
0002
0000
1003
0000
,
0100
0000
1000
0000
0010
0100
0010
0000
,
0002
0003
2000
3000
0002
0000
0103
0000
,
1000
0000
0010
0000
0100
0010
0100
0000
,
0001
0010
0001
0000
1000
0100
1000
0000
,
0001
1000
0010
0000
,
0100
0010
0100
0000
,
0001
1000
0010
1000
,
0100
0001
0100
0000
1000
0010
1000
0000
,
0010
0100
0010
0000
,
0001
1000
0001
0000
,
0010
0000
1000
0000
0010
0100
0010
0000
,
0001
0010
0001
0000
1000
0100
1000
0000
,
0001
1000
0010
0100
,
0010
0000
0100
0000
0010
0000
0000
0000
2002
0000
0000
0000
0000
3003
0000
0000
;

//--------------- dance-single - XLev450X-DSP ----------------
#NOTES:
     dance-single:
     XLev450X:
     Medium:
     11:
     0,0,0,0,0:
0000
0000
0000
0000
,
0000
0000
0000
0000
,
0000
0000
0000
0000
,
0000
0000
0000
0000
,
0000
0000
0000
0000
,
0001
0000
0000
0000
1000
0000
0000
0010
0000
0000
0100
0000
0001
0000
0010
0000
,
0001
0000
1000
0000
0010
0000
0000
0100
0000
0000
0001
0000
1000
0000
0010
1000
,
0010
0000
0100
0000
0001
0000
0000
0100
0000
0000
1000
0000
0001
0000
0010
0000
,
1000
0000
0100
0000
0001
0000
0000
1000
0000
0000
0001
0000
0000
0000
0100
0000
,
1000
0000
0010
0000
0100
0000
0000
0001
0000
0000
0010
0000
1000
0000
0010
0001
,
0010
0000
1000
0000
0010
0000
0000
0100
0000
0000
1000
0000
0001
0000
1000
0001
,
1000
0000
0010
0000
0100
0000
0000
1000
0000
0000
0001
0000
0010
0000
0100
0000
,
1000
0000
0001
0000
0100
0000
0000
0010
0000
0000
1000
0000
0001
0000
1000
0000
,
0001
0000
0000
0000
1000
0000
0000
0001
0000
0000
0100
0000
0010
0000
0000
0000
,
1000
0000
0000
0000
0001
0000
0000
0100
0000
0000
0010
0000
1000
0000
0001
0000
,
0000
0000
0100
0000
1000
0000
0000
0001
0000
0000
0100
0000
0010
0000
0000
0000
,
1000
0000
0001
0000
0010
0000
0000
1000
0000
0000
0010
0000
0000
0000
1001
0000
,
0000
0000
1000
0000
0010
0000
0000
0101
0000
0000
1010
0000
0000
0000
1000
0000
,
0100
0000
0010
0000
0001
0000
0000
0011
0000
0000
1100
0000
0000
0000
1001
0000
,
0000
0000
1000
0000
0010
0000
0000
0011
0000
0000
1010
0000
0000
0000
0100
0000
,
0001
0000
1000
0000
0100
0000
0000
0110
0000
0000
1001
0000
0000
0000
0101
0000
,
0000
0000
1000
0000
0010
0000
0000
1010
0000
0000
1100
0000
0000
0000
0001
0000
,
0010
0000
0001
0000
0100
0000
0000
1001
0000
0000
0110
0000
0000
0000
0011
0000
,
0000
0000
1000
0000
0010
0000
0000
0011
0000
0000
1010
0000
0000
0000
0100
0000
,
0010
0000
0001
0000
1000
0000
0000
0101
0000
0000
1100
0000
0000
0000
0001
0000
,
1000
0001
0010
1000
,
0010
1000
0010
0000
0001
0010
0001
0000
,
0100
0000
1000
0000
0010
0100
0010
0000
,
0001
0010
0001
0000
1000
0100
1000
0000
,
0001
0000
1000
0000
0010
0100
0001
1000
,
0010
0000
0100
0000
1000
0010
1000
0001
,
0100
0000
0001
0000
1000
0010
0100
0001
,
1000
0010
0100
1000
0010
1000
0010
1000
,
0001
0000
0100
0000
1000
0001
0010
0000
,
1000
0000
0100
0000
0001
1000
0001
0010
,
1000
0000
0010
0000
0100
1000
0001
0000
,
0010
0000
1000
0000
0001
0010
1000
0000
,
0010
1000
0101
1010
,
0010
1000
0010
0000
0100
0010
0100
0000
,
0001
0010
1010
0101
,
0001
1000
0001
0000
0010
1000
0010
0000
,
0001
0000
0000
0000
1000
0000
0000
0001
0000
0000
0100
0000
0010
0000
0000
0000
,
1000
0000
0000
0000
0001
0000
0000
0100
0000
0000
1000
0000
0001
0000
0010
0000
,
1000
0000
0010
0000
0100
0000
0000
0001
0000
0000
1000
0000
0010
0000
0000
0000
,
0001
0000
0010
0000
1000
0000
0000
0001
0000
0000
0100
0000
0000
0000
1000
0000
,
0001
0000
0000
0000
1000
0000
0000
0010
0000
0000
1000
0000
0001
0000
0010
0000
,
1000
0000
0100
0000
1000
0000
0000
0001
0000
0000
0010
0000
1000
0000
0010
1000
,
0010
0000
0100
0000
0001
0000
0000
1000
0000
0000
0001
0000
0100
0000
0000
0000
,
1000
0000
0010
0000
1000
0000
0000
0001
0000
0000
1000
0000
0001
0100
0000
0000
;

//--------------- dance-single - XLev450X-ESP ----------------
#NOTES:
     dance-single:
     XLev450X:
     Hard:
     15:
     0,0,0,0,0:
0000
0000
0000
0000
,
0000
0000
0000
0000
,
0000
0000
0000
0000
,
0000
0000
0000
0000
,
0000
0000
0000
0000
,
1000
0001
0100
1000
0010
1000
0000
0010
0000
1000
0001
0000
1000
0000
0001
0000
,
0100
1000
0001
1000
0001
0010
0001
1000
0000
0001
0100
0000
1000
0100
0010
0000
,
0001
1000
0001
0010
0100
1000
0000
0001
0000
0010
1000
0000
0001
0000
1000
0000
,
0010
1000
0010
1000
0010
0000
0001
0100
0010
1000
0001
0000
0000
0000
1001
0000
,
0110
0000
0001
0010
0100
0000
1000
0010
0100
0000
0001
0010
1000
0010
0100
1000
,
0001
0000
0100
0010
1000
0000
0100
0010
0001
0000
0100
0001
1000
0010
0001
0010
,
0100
0000
0001
1000
0100
0000
1000
0001
0100
0000
0010
1000
0100
1000
0001
0100
,
0010
0000
1000
0001
0010
0000
0001
1000
0010
1000
0200
0000
0310
0000
1001
0000
,
0000
0000
0010
1000
0001
0000
0000
0010
0000
0000
1000
0000
0001
0000
0010
0000
,
1000
0000
0100
0010
0001
0000
0000
1000
0000
0000
0010
0000
1000
0100
0001
0000
,
0000
0000
0100
0000
1000
0000
0000
0001
0000
0000
0010
0000
0001
0000
0010
0001
,
0010
0000
1000
0000
0010
0000
0000
0100
0000
0000
1000
0000
0010
0000
1001
0000
,
0000
0000
0001
0000
0010
0001
0000
0101
0000
0000
1010
0000
1000
0000
0100
0000
,
1000
0000
0010
0000
0100
0001
0000
1010
0000
0000
0011
0000
0000
0000
1001
0000
,
0000
0000
0001
0000
0100
0010
0000
1100
0000
0000
0011
0000
1000
0000
0010
0000
,
0100
0000
0001
0000
1000
0100
0000
1010
0000
0000
0011
0000
0000
0000
1001
0000
,
0000
0000
0001
0000
0100
0010
0000
1010
0000
0000
0110
0000
0001
1000
0001
0000
,
0010
0000
0100
0000
0010
0001
0000
1001
0000
1000
0010
0000
0100
0001
1000
0000
,
0000
0000
0001
0000
0010
0100
0000
1010
0000
0000
1001
0000
0001
0100
0010
1000
,
0001
0000
0010
0001
1000
0100
1000
0001
0000
0001
0100
0010
1000
0001
0010
0100
,
1000
0000
0001
0000
1000
0010
0001
0000
,
1000
0000
0001
0100
1000
0001
0010
1000
0001
1000
0001
0100
0010
1000
0001
0010
,
1000
0000
0001
0000
1000
0010
0100
0000
,
0010
0000
1000
0010
1000
0001
0100
0010
0100
1000
0001
0100
0010
1000
0001
1000
,
0001
1000
0010
0000
0001
0100
1000
0001
,
0010
0000
1000
0000
0010
0000
0001
0000
0010
0001
0010
0000
0010
0100
0010
0000
,
1000
0001
1000
0010
0100
1000
0010
1000
,
0001
1000
0010
1000
0010
0100
0001
1000
0010
1000
0001
0100
0010
1000
0001
1000
,
0110
0000
1000
0010
0100
0000
0001
1000
0000
0000
0001
0010
0100
0000
0010
0001
,
0100
0000
0010
1000
0100
0000
1000
0001
0000
0000
0100
0010
1000
0000
0100
0010
,
0110
0000
0001
0100
0010
0000
1000
0001
0000
0000
0010
1000
0010
0000
0100
1000
,
0001
0000
0100
0010
0001
0000
0010
0100
0000
0000
0001
0010
1000
0010
0001
0010
,
0110
0000
1000
0001
0100
0000
0001
0010
0100
0000
0010
0001
1000
0000
0010
0100
,
0001
0000
1000
0100
0010
0000
0001
1000
0010
0100
0001
0000
1000
0000
0100
0010
,
0011
0000
1000
0001
0100
0000
0010
1000
0100
0000
0010
1000
0010
0100
0010
0001
,
1000
0000
0010
0100
0001
0000
0010
0100
1000
0000
0010
0100
0010
0100
0000
0000
,
0001
0000
1000
0000
0010
0000
0001
0010
0001
1000
0010
0100
0010
0000
1000
0000
,
0001
0000
1000
0000
0010
0000
0001
0010
0100
1000
0010
0001
1000
0000
0001
0000
,
1000
0000
0010
0000
0100
0000
0001
0010
0001
0010
1000
0001
0010
0100
0001
0100
,
1000
0000
0010
0000
0100
0000
1000
0001
1000
0010
1000
0020
0000
0000
0000
0030
,
0001
0010
0000
1000
0010
0000
0100
1000
0010
0100
0001
0000
1000
0010
0100
0010
,
1000
0001
0000
0100
0010
0000
0001
0010
0100
0010
1000
0000
0001
1000
0001
0010
,
0100
1000
0000
0001
0100
0000
0010
0001
0010
1000
0010
0000
0100
0001
1000
0100
,
0010
0001
0010
1000
0010
0001
0010
1000
0010
0100
1000
0001
0100
0010
0000
0000
;
