#TITLE:Viral Stance;
#ARTIST:StormTaker21;
#GENRE:HIP-HOP;
#MUSIC:Viral Stance.ogg;
#BANNER:Viral Stance.png;
#BACKGROUND:Viral Stance-bg.png;
#SAMPLESTART:5;
#SAMPLELENGTH:15;
#OFFSET:-0.312;
#BPMS:0=192;
#BGSTAGE:4;

//--------------- dance-single - XLev450X-bSP ----------------
#NOTES:
     dance-single:
     XLev450X:
     Beginner:
     3:
     0,0,0,0,0:
0000
0000
0000
0000
,
0000
0000
0000
0000
,
0000
0000
0000
0000
,
0000
0000
0000
0001
,
0000
0001
0000
1000
,
0000
0000
0000
1000
,
0000
0010
0000
0100
,
0000
1000
0000
0001
,
0000
0100
0000
0010
,
0000
0000
0000
1000
,
0000
0001
0000
0100
,
0000
0010
0000
1000
,
0000
1000
0000
0001
,
0000
0100
0000
0010
,
0000
0000
0000
0000
,
0000
0000
0000
0000
,
0000
0000
0000
0000
,
0000
0000
0000
0001
,
0000
1000
0000
0010
,
0000
0000
0000
1000
,
0000
0010
0000
0100
,
0000
0001
0000
1000
,
0000
0000
0010
0000
,
1000
0001
0000
0100
,
0000
1000
0000
0010
,
1000
0001
0000
1000
,
0000
0100
0000
0010
,
0000
0000
0000
1000
,
0000
0001
0000
0100
,
0001
1000
0000
0001
,
0000
0001
0000
1000
,
0000
1000
0000
0010
,
0100
0010
0000
1000
,
0010
1000
0000
0100
,
0001
0100
0000
0001
,
1000
0001
0000
1000
,
0000
0001
0000
0100
,
0001
1000
0000
0010
,
0000
1000
0000
0001
,
0000
1000
0000
0001
,
0000
0001
0000
0001
,
0000
1000
1000
1000
,
0000
0001
0001
0001
,
0000
0220
0330
0001
,
0000
1000
0000
0010
,
1000
0010
0000
0100
,
0000
1000
0000
0001
,
0000
0100
0000
0010
,
0000
1000
0000
0010
,
0100
0001
0000
1000
,
0000
0010
0000
1000
,
0001
0100
0010
1000
,
0000
0001
0000
1000
,
0000
0000
0000
0001
,
0000
0100
0000
1000
,
0000
0000
0000
0010
,
0000
1000
0000
0001
,
0000
0100
0000
0000
;

//--------------- dance-single - XLev450X-BSP ----------------
#NOTES:
     dance-single:
     XLev450X:
     Easy:
     7:
     0,0,0,0,0:
0000
0000
0000
0000
,
0000
0000
0000
0000
,
0000
0000
0000
0000
,
0000
0000
0000
0001
,
0000
1000
0000
0000
0010
0000
0000
0000
,
0100
1000
0001
0100
,
0010
0001
0010
0000
1000
0000
0010
0000
,
1000
0010
0000
1000
,
0001
0100
1000
0001
,
1000
0010
0000
1000
,
0000
0100
0000
0001
,
1000
0001
0000
1000
,
0010
0100
1000
0001
,
0100
0010
1000
1001
,
0000
0000
0000
0000
,
0000
0000
0000
0010
,
0000
0100
0000
1000
,
0000
0001
0000
1000
,
0001
0100
1000
0010
,
0001
0010
0001
0000
1000
0010
1000
0000
,
0100
1000
0001
0100
,
0010
1000
0000
2000
,
0001
3000
0001
1000
,
0010
1000
0010
0000
1000
0000
0001
0000
,
0100
1000
0000
0001
,
1000
0010
0000
1000
,
0100
0001
1000
0010
,
1000
0010
1000
0000
0100
0001
0100
0000
,
0001
1000
0000
0001
,
1000
0001
0000
1010
,
0000
0101
0000
1010
,
1010
0000
1010
0000
0001
0000
1000
0001
,
1000
0000
0010
1000
0010
0000
0100
0001
,
0100
1000
0001
1000
,
0000
0100
0000
0001
,
1000
0010
0000
1000
,
0000
0100
0000
0001
,
1000
0001
0000
1000
,
0000
0010
0000
1000
,
0001
0100
1000
0001
,
1000
0001
1000
0001
,
1000
0001
0001
0001
,
0001
0000
0001
1000
0001
0000
1000
0010
,
1000
0000
0220
0000
0000
0330
0001
0000
,
1000
0010
0000
1000
0010
0000
0000
0100
,
0001
1000
0001
1000
,
0010
1000
1000
0001
,
0100
0001
0000
1000
,
0010
1000
0100
0001
,
1000
0010
0000
1000
,
0100
0001
1000
0010
,
1000
0010
0000
1000
,
0010
0000
1000
0010
1000
0000
0001
0000
,
0100
0001
0000
0100
,
1000
0000
0001
0010
0001
0000
1000
0000
,
0001
0100
0000
1000
,
0001
0000
1000
0010
1000
0000
0001
0000
,
0100
0220
0000
0330
;

//--------------- dance-single - XLev450X-DSP ----------------
#NOTES:
     dance-single:
     XLev450X:
     Medium:
     9:
     0,0,0,0,0:
0000
0000
0000
0000
,
0000
0000
0000
0000
,
0000
0000
0000
0000
,
0000
0000
0000
0001
,
1000
0010
0000
0100
1000
0000
0000
0010
,
0001
0100
1000
0011
,
0000
1100
0000
0000
0110
0000
0000
0000
,
1000
0000
0001
0000
1000
0010
1000
0000
,
0010
0100
0000
0001
1000
0000
0000
0000
,
0001
1000
0010
1000
,
0000
0001
0000
0000
0100
0000
0010
0000
,
1000
0010
1000
0000
0010
0000
0100
0000
,
0000
0001
0000
0000
1000
0000
0000
0000
,
0010
0100
0010
1000
,
0001
0100
0000
0100
,
0000
0100
0000
1000
,
0000
0100
0000
1000
,
0000
0100
0000
0010
,
0100
0000
1000
0000
0001
1000
0000
0010
,
0000
1000
0000
0001
0000
0100
0010
0000
,
1000
0010
0000
0001
0010
0001
0000
1000
,
0100
1000
0000
0010
0000
1000
0001
0000
,
0100
0000
0001
1000
,
0010
1000
0010
0000
1000
0000
0010
0000
,
0000
1000
0000
0001
,
1000
0001
0000
0100
,
1000
0001
0000
0100
,
1000
0010
0000
1000
,
0001
1000
0010
1000
,
0100
0001
0000
0011
,
0000
1100
0000
0010
,
1000
0010
0000
1000
,
0001
0100
1000
0001
,
0100
0010
0000
1000
,
0010
1000
0000
0100
,
0000
1000
0000
0001
,
0010
0001
0000
1000
0010
0000
0000
1000
,
0100
0001
1000
0001
,
1000
0001
1000
0000
0010
0000
1000
0000
,
0010
1000
0010
0000
0100
0000
0001
0000
,
0001
1000
0010
1000
,
0001
0101
1010
0110
,
1001
0000
0000
0000
0001
0000
0001
1000
0001
0000
0001
1000
0001
0000
0001
1000
,
0001
0000
0001
1000
0002
0000
0000
0000
0000
0000
0003
0000
0010
0000
0000
0000
,
1000
0010
0000
0001
0010
0000
0000
1000
,
0001
0100
0010
0000
1000
0000
0010
0000
,
0100
0001
1000
0000
0010
0000
1000
0000
,
0010
1000
0010
0000
0100
0000
0001
0000
,
0100
0001
0100
0000
0010
0000
1000
0000
,
0010
0101
0000
1000
,
0010
1000
0010
0000
0100
0000
1000
0000
,
0001
1000
0001
0000
1000
0000
0010
0000
,
1000
0010
1000
0000
0100
0000
1000
0000
,
0001
0100
1000
0001
,
0100
0000
0010
1000
0010
0000
1000
0000
,
0001
0100
0000
1000
,
0001
0000
1000
0000
0010
0100
1000
0000
,
0001
0020
0200
0330
;

//--------------- dance-single - XLev450X-ESP ----------------
#NOTES:
     dance-single:
     XLev450X:
     Hard:
     13:
     0,0,0,0,0:
0000
0000
0000
0000
,
0000
0000
0000
0000
,
0000
0000
0000
0000
,
0000
0000
0000
0001
,
1000
0010
1000
0000
0010
0000
0000
0100
,
0001
0010
1000
0001
,
0000
0011
0000
0000
1000
0000
0001
0000
,
1000
0010
1000
0000
0100
0000
1000
0000
,
0000
0010
0000
0000
1000
0000
0000
0000
,
0001
0000
0100
0000
0001
1000
0001
0000
,
1000
0010
1000
0010
,
0100
0000
0001
0010
0100
0000
1000
0100
0001
0000
1000
0000
0010
0000
0000
0000
,
1000
0010
0000
0100
0001
0000
0000
0100
,
1000
0000
0001
0000
0010
0000
1000
0102
,
0000
1000
0000
0100
,
0000
1000
1000
1000
,
0000
1000
0000
0100
,
0000
1000
1000
0103
,
0001
0000
1000
0000
0010
0100
0000
1000
,
0000
0010
0001
0000
1000
0000
0010
0001
,
1000
0001
0000
0100
1000
0000
0010
0000
,
1000
0001
0100
0000
1000
0000
0010
0000
,
2000
0000
0000
0000
3000
0100
0000
0000
0001
0000
0000
0000
1000
0000
0000
0000
,
0010
1000
0010
0000
0010
0000
0001
0000
,
1000
0001
0000
0100
1000
0000
0000
0010
,
1000
0001
0100
1000
,
0010
0000
1000
0000
0001
0000
0100
0000
0010
0000
0000
0000
1000
0000
0100
0010
,
0001
0000
0010
0000
0001
0000
0010
0100
1000
0000
0001
0000
0010
0000
0000
0000
,
1000
0010
0000
0100
0001
0000
0000
1000
,
0001
0000
1000
0100
0010
0000
0001
0000
1000
0000
0000
0000
0010
0000
0000
0000
,
1000
0000
0000
0001
0100
0000
0000
0000
1000
0000
0000
0100
0001
0000
0000
0000
,
0001
0000
0000
0010
0100
0000
0000
0000
1000
0000
0000
0100
0010
0000
1000
0100
,
0001
0000
0100
0000
1000
0000
0000
0000
0010
0000
0000
0000
1000
0000
0010
0001
,
0100
0001
1000
0000
0010
0000
0010
0000
,
1000
0000
0001
0000
0000
0000
1000
0001
0010
0000
0000
0000
0100
0000
0000
0000
,
1000
0001
0010
0000
1000
0000
0001
0000
,
0100
1000
0001
0000
1000
0000
0010
0000
,
1000
0010
1000
0000
0010
0000
0100
0000
,
1000
0000
0010
0000
1000
0001
1000
0000
,
0010
0000
0000
0000
1000
0000
0000
0000
0010
0000
0001
0100
1000
0000
0000
0000
,
0010
0000
0100
0010
1000
0000
0000
0000
0010
0000
0100
0001
1000
0000
0000
0000
,
0010
0000
0100
0001
1000
0000
0000
0000
0001
0000
0000
0000
0100
0000
0000
0000
,
1000
0000
0000
0000
0001
0010
0100
1000
0100
0010
0001
0010
0100
1000
0100
0010
,
0001
0010
0100
1000
0200
0000
0000
0000
0300
0000
0000
0000
0001
0000
0000
0000
,
1000
0100
0000
0010
1000
0000
0000
0001
,
1000
0010
1000
0000
1000
0000
0010
0000
,
0100
0000
1000
0001
0100
0000
0001
0000
0010
0000
0000
0000
1000
0000
0000
0000
,
0001
0000
1000
0000
0010
1000
0010
0000
,
0100
1000
0001
0000
0010
0000
1000
0000
,
0001
1000
0001
0000
0100
0000
0010
0000
,
1000
0010
1000
0010
0100
0001
0010
0000
,
1000
0000
0000
0000
0001
0000
0000
0000
0100
0000
0000
0000
0001
0000
1000
0100
,
0010
1000
0000
0001
0010
0000
0000
1000
,
0010
0000
1000
0100
0010
0000
0001
0000
0100
0000
0001
0000
1000
0000
0000
0000
,
0010
1000
0000
0001
0010
0000
0100
0001
,
1000
0010
0001
1000
,
0001
0000
1000
0000
0010
1000
0010
0000
,
0100
0000
1000
0100
0002
0000
0010
0000
0020
0000
0000
0000
0033
0000
0000
0000
;
