#TITLE:Vermillion;
#ARTIST:Mystic Moon;
#GENRE:PSYCHE FUSION;
#MUSIC:Vermillion.ogg;
#BANNER:Vermillion.png;
#BACKGROUND:Vermillion-bg.png;
#CDTITLE:./CDTitles/bm IIDX 18 Resort Anthem.png;
#SAMPLESTART:16.153;
#SAMPLELENGTH:15;
#SELECTABLE:YES;
#OFFSET:-0.386;
#BPMS:0=152;
#BGSTAGE:27;
#BGCHANGES:-1.000=Vermillion.avi=1.000=0=0=0=StretchNoLoop====,
99999.000=-nosongbg-=1.000=0=0=0=StretchNoLoop====;

//--------------- dance-single - XLev450X-bSP ----------------
#NOTES:
     dance-single:
     XLev450X:
     Beginner:
     4:
     0,0,0,0,0:
0000
0000
0000
0000
,
0000
0000
0000
0000
,
0000
0000
0000
0000
,
0000
0000
0000
0000
,
0000
0000
0000
0000
,
0001
1000
0010
0000
,
0100
0001
1000
0000
,
0010
0001
0100
0000
,
1000
0001
0100
0010
,
2002
0000
0000
3003
,
0001
0001
0001
0000
,
1000
1000
1000
0000
,
0010
0100
0010
0000
,
0001
0010
1000
0000
,
0100
0001
1000
0000
,
0010
0100
0001
0000
,
1000
0010
0100
0000
,
0001
1000
0010
0000
,
1000
0000
0001
0000
,
0100
0000
0000
0000
,
0010
0000
1000
0000
,
0001
0000
0000
0000
,
0010
0000
0100
0000
,
0001
0000
0000
0000
,
1000
0000
0001
0000
,
0010
0000
0000
0000
,
0100
0000
1000
0001
,
0010
0000
0100
0001
,
1000
0000
0010
0100
,
1000
0000
0001
0010
,
0100
0000
0001
0010
,
1000
0000
0010
0100
,
0001
0000
0010
0100
,
0001
1000
0010
0100
,
0001
0000
1000
0000
,
0010
0000
0000
0000
,
0100
0000
0001
0000
,
1000
0000
0000
0000
,
0001
0000
1000
0000
,
0010
0000
0100
0000
,
0001
1000
0010
0100
,
0001
1000
0010
0100
,
1001
0000
0000
0000
,
0001
1000
0010
0000
,
0100
1000
0001
0000
,
0010
1000
0001
0000
,
0100
0001
1000
0000
,
0010
1000
0010
0000
,
0100
0001
0100
0000
,
0010
0100
0001
0000
,
1000
0010
0100
0000
,
0001
0000
1000
0000
,
0010
0000
0100
0000
,
0001
0000
0000
0000
1000
0000
0000
2002
,
0000
0000
0000
0000
,
0000
0000
0000
0000
,
3003
0000
0000
0000
;

//--------------- dance-single - XLev450X-BSP ----------------
#NOTES:
     dance-single:
     XLev450X:
     Easy:
     6:
     0,0,0,0,0:
0000
0000
0000
0000
,
0000
0000
0000
0000
,
0000
0000
0000
0000
,
0000
0000
0000
0000
,
0000
0000
0000
0000
,
0001
1000
0010
0100
,
0001
1000
0020
0030
,
0001
1000
0010
0100
,
0001
1000
0010
0100
,
2002
0000
0000
3003
,
0001
1000
0002
0003
,
0010
0100
0001
1000
,
0010
0100
2000
3000
,
0010
0100
0001
0010
,
1000
0001
0200
0300
,
0010
1000
0001
0100
,
0001
1000
0020
0030
,
0100
0001
1000
0010
,
2000
3000
0002
0003
,
0010
0100
0002
0003
,
2000
3000
0002
0003
,
0100
0010
1000
0001
,
0020
0030
0200
0300
,
0001
1000
0010
0100
,
0002
0003
2000
3000
,
0010
0100
0001
0010
,
0002
0003
2000
3000
,
0020
0030
0200
0300
,
0002
0003
2000
3000
,
0020
0030
0200
0300
,
0002
0003
2000
3000
,
0020
0030
0200
0300
,
0002
0003
2000
3000
,
0020
0030
0100
0001
,
2000
3000
0020
0030
,
0200
0300
0001
1000
,
0020
0030
0200
0300
,
0002
0003
0010
1000
,
0002
0003
0200
0300
,
0020
0030
1000
0001
,
0020
0030
0200
0300
,
0001
1000
0010
0100
,
2002
0000
0000
3003
,
0010
1000
0001
0010
,
0100
0001
2000
3000
,
0010
0100
0001
1000
,
0010
0100
0002
0003
,
1000
0001
0010
0100
,
1000
0010
0002
0003
,
0100
0001
1000
0010
,
0100
0001
1000
0010
,
0200
0300
0002
0003
,
2000
3000
0002
0003
,
0020
0000
0030
0000
0200
0000
0300
2002
,
0000
0000
0000
0000
,
0000
0000
0000
0000
,
3003
0000
0000
0000
;

//--------------- dance-single - XLev450X-DSP ----------------
#NOTES:
     dance-single:
     XLev450X:
     Medium:
     10:
     0,0,0,0,0:
0000
0000
0000
0000
,
0000
0000
0000
0000
,
0000
0000
0000
0000
,
0000
0000
0000
0000
,
0000
0000
0000
0000
,
0001
0000
1000
0000
0010
0100
0001
0000
,
1000
0000
0010
0000
0100
1000
0010
0000
,
0010
0001
1000
0010
,
0100
0001
1000
0010
0100
0001
0010
0100
,
2002
0000
0000
3003
,
0010
0000
0100
0000
0001
1000
0010
0000
,
0100
0000
1000
0000
0001
0100
0010
1000
,
0001
0000
0010
0000
0100
0001
0010
0000
,
0100
0000
1000
0000
0001
0100
0010
1000
,
0001
0100
0010
1000
,
0001
0000
0100
0000
0010
0000
1000
0001
,
0100
0010
0001
1000
,
0010
0100
0001
1000
0010
0000
0100
1000
,
0001
0000
0000
1000
0000
0000
0010
0000
0000
0000
0001
0000
1000
0000
0010
0000
,
0100
0000
0000
0001
0000
0000
0010
0000
0000
0000
1000
0000
0001
0000
0000
0000
,
0100
0000
0000
0010
0000
0000
1000
0000
0000
0000
0001
0000
0100
0000
0010
0000
,
1000
0000
0000
0001
0000
0000
0100
0000
0000
0000
0010
0000
0001
0000
1000
0000
,
0010
0000
0000
0100
0000
0000
0001
0000
0000
0000
1000
0000
0010
0000
0100
0000
,
0001
0000
0000
1000
0000
0000
0010
0000
0000
0000
0100
0000
0001
0000
1000
0000
,
0010
0000
0000
0100
0000
0000
0001
0000
0000
0000
0010
0000
1000
0000
0001
0000
,
0100
0000
0000
0010
0000
0000
1000
0000
0000
0001
0000
0000
0100
0000
0010
0000
,
0100
0000
0000
1000
0000
0000
0001
0000
0000
0100
0000
0000
0010
0000
0001
0000
,
1000
0000
0000
0001
0000
0000
0100
0000
0000
0000
0001
0000
1000
0000
0001
0000
,
0010
0000
0000
0100
0000
0000
0001
0000
0000
1000
0000
0000
0010
0000
0100
0000
,
0001
0000
0000
1000
0000
0000
0010
0000
0000
0100
0000
0000
0001
0000
1000
0000
,
0010
0000
0000
0100
0000
0000
0001
0000
0000
1000
0000
0000
0010
0000
0100
0000
,
0001
0000
0000
1000
0000
0000
0010
0000
0000
0100
0000
0000
0001
0000
1000
0000
,
0010
0000
0000
0100
0000
0000
0001
0000
0000
1000
0000
0000
0010
0000
0100
0000
,
0001
0000
0000
1000
0000
0000
0010
0000
0000
0100
0000
0000
0001
0000
1000
0000
,
0010
0000
1000
0000
0001
0010
0100
0000
,
0001
0000
1000
0000
0001
0100
0010
0000
,
1000
0000
0001
0000
0010
0100
0001
0000
,
1000
0000
0010
0000
1000
0001
0100
0000
,
0010
0000
0001
0000
0100
0010
1000
0000
,
0001
0000
0010
0000
0100
1000
0100
0000
,
0010
0001
0010
0000
0100
1000
0100
0000
,
0010
0001
1000
0010
0100
0001
0010
1000
,
0202
0000
0000
0303
,
0001
1000
0010
0000
0100
1000
0100
0000
,
0010
0001
0010
0000
0100
1000
0001
0000
,
0010
0100
0001
0000
0010
1000
0100
0000
,
0001
0000
0010
0000
1000
0001
0100
0000
,
0010
0000
0100
0000
0001
1000
0010
0100
,
0001
0000
1000
0000
0100
1000
0100
0000
,
0010
0001
0010
0000
0100
1000
0100
0000
,
0010
0001
0100
0010
1000
0001
0100
0010
,
0001
0000
0000
1000
0000
0000
0010
0000
0000
0100
0000
0000
0001
0000
1000
0000
,
0010
0000
0000
0100
0000
0000
0001
0000
0000
1000
0000
0000
0010
0000
0100
0000
,
0001
0000
0000
1000
0000
0000
0010
0000
0000
0100
0000
0000
0001
0000
2020
0000
,
0000
0000
0000
0000
,
0000
0000
0000
0000
,
3030
0000
0000
0000
;

//--------------- dance-single - XLev450X-ESP ----------------
#NOTES:
     dance-single:
     XLev450X:
     Hard:
     16:
     0,0,0,0,0:
0000
0000
0000
0000
,
0000
0000
0000
0000
,
0000
0000
0000
0000
,
0000
0000
0000
0000
,
0000
0000
0000
0000
,
0001
0000
1000
0010
0100
0000
0001
1000
0010
0000
0001
0000
1000
0000
0001
0000
,
0010
0000
0100
0001
1000
0000
0010
0100
0001
0000
1000
0000
0010
0000
1000
0000
,
0100
0010
0001
1000
0100
0001
0010
0001
0100
1000
0010
0100
0010
1000
0001
0010
,
0001
1000
0001
0010
0100
0010
0001
1000
0001
1000
0001
0010
0100
1000
0010
0100
,
0001
0010
0000
1000
0100
0000
0010
0100
0000
1000
0001
0010
1000
0100
0001
0100
,
0010
0000
0001
0010
0100
0000
1000
0010
1000
0000
0001
0100
0010
0000
0100
1000
,
0001
0000
0100
0010
1000
0000
0001
0100
0010
0000
1000
0000
0001
0000
0010
0000
,
0100
0000
0001
1000
0010
0000
0100
0001
1000
0000
0010
0000
0100
0000
1000
0000
,
0001
0100
0010
0000
1000
0000
0100
1000
0010
0000
0100
0000
0001
0000
0000
0000
,
0010
0000
1000
0001
0100
0000
0010
1000
0001
0000
0100
1000
0010
0000
0001
0010
,
0100
0000
0001
1000
0010
0000
1000
0001
0100
0000
0010
0000
1000
0000
0001
0000
,
0010
0000
1000
0010
0100
0000
0001
1000
0010
0000
0100
0000
0001
0000
1000
0000
,
0010
0100
0001
0000
1000
0010
1000
0000
0001
0000
0010
0000
0100
0000
1000
0000
,
0001
0000
0000
1000
0000
0000
0010
0000
0000
0100
0000
0000
0001
0000
1000
0000
,
0010
0000
0000
0100
0000
0000
0001
0000
0000
0000
1000
0000
0010
0000
0100
0000
,
0001
0000
0000
1000
0000
0000
0010
0000
0000
0000
0100
0000
0001
0000
1000
0000
,
0010
0000
0000
0100
0000
0000
0001
0000
0000
1000
0000
0000
0010
0000
0100
0000
,
0001
0000
0000
1000
0000
0000
0010
0000
0000
0000
0100
0000
0001
0000
1000
0000
,
0010
0000
0100
0001
1000
0000
0010
0000
0000
0000
0100
0000
0001
0000
1000
0000
,
0010
0000
0100
0001
1000
0000
0010
0000
0100
0000
0001
1000
0010
0000
0100
0000
,
0001
1000
0010
0100
0001
0100
1000
0010
0100
0001
0100
0010
1000
0100
0001
1000
,
0100
0000
0000
0010
0000
0000
0100
0000
0000
0001
0000
0000
1000
0000
0001
0000
,
0010
0000
0000
0100
0000
0000
0001
0000
0000
1000
0000
0000
0010
0000
0100
0000
,
0001
0000
0000
1000
0000
0000
0010
0000
0000
0100
0000
0000
0001
0000
1000
0000
,
0010
0000
0000
0100
0000
0000
0001
0000
0000
1000
0000
0000
0010
0000
0100
0000
,
0001
0000
0000
1000
0000
0000
0010
0000
0000
0100
0000
0000
0001
0000
1000
0000
,
0010
0000
0000
0100
0000
0000
0001
0000
0000
0010
1000
0000
0010
0000
0100
0000
,
0001
0000
0000
1000
0000
0000
0010
0000
0000
0100
0000
0000
0001
0000
1000
0000
,
0010
0000
0000
0100
0000
0000
0001
0000
0000
1000
0000
0000
0010
0000
0100
0000
,
0001
0000
0000
1000
0000
0000
0010
0000
0000
0100
0000
0000
0001
0000
1000
0010
,
0100
0000
0000
0001
0000
0000
1000
0000
0000
0010
0000
0000
0100
0000
0001
0100
,
0001
0000
0000
1000
0000
0000
0010
0000
0000
0100
0000
0000
0001
0000
1000
0010
,
0100
0000
0000
0001
0000
0000
1000
0000
0000
0010
0000
0000
0100
0000
0001
0000
,
1000
0010
0100
0000
1000
0000
0010
0000
0100
0001
1000
0000
0100
0000
0001
0000
,
1000
0010
0100
0000
0001
0000
1000
0000
0100
0000
1000
0000
0010
0000
0100
0000
,
0001
1000
0010
0100
0001
0000
1000
0000
0010
0100
0001
0100
1000
0000
0010
0000
,
0001
0100
1000
0010
1000
0100
0010
0001
1000
0010
0001
0100
0010
0000
1000
0000
,
0001
0010
0000
1000
0100
0000
0010
0100
0000
1000
0001
0010
1000
0100
0001
0100
,
0010
0000
0001
0010
0100
0000
1000
0010
1000
0000
0001
0100
0010
0000
0100
1000
,
0001
0000
0100
0010
1000
0000
0001
0100
0010
0000
1000
0000
0001
0000
0010
0000
,
0100
0000
0001
1000
0010
0000
0100
0001
1000
0000
0010
0000
0100
0000
1000
0000
,
0001
0010
0100
0000
1000
0001
0100
0000
0010
0000
0100
0000
0001
0000
0000
0000
,
0010
0000
1000
0001
0100
0000
0010
1000
0001
0000
0100
1000
0010
0000
0001
0010
,
0100
0000
0001
1000
0010
0000
1000
0001
0100
0000
0010
0000
1000
0000
0100
0000
,
0010
0000
1000
0010
0100
0000
0001
1000
0010
0000
0100
0000
0001
0000
0010
0000
,
0100
1000
0001
0100
0001
1000
0010
0100
0010
1000
0100
1000
0100
0010
0001
0100
,
0010
0000
0000
1000
0000
0000
0010
0000
0000
0100
0000
0000
0001
0000
1000
0000
,
0010
0000
0000
0100
0000
0000
0001
0000
0000
1000
0000
0000
0001
0000
0100
0000
,
0001
0010
0100
1000
0001
0100
0010
0100
0001
1000
0001
0010
0001
1000
0220
0000
,
0000
0000
0000
0000
,
0000
0000
0000
0000
,
0330
0000
0000
0000
;
