#VERSION:0.83;
#TITLE:Verflucht;
#ARTIST:Tyrfing;
#GENRE:HARD NRG;
#BANNER:Verflucht.png;
#BACKGROUND:Verflucht-bg.png;
#CDTITLE:./CDTitles/bm IIDX 21 SPADA.png;
#MUSIC:Verflucht.ogg;
#SAMPLESTART:88.667;
#SAMPLELENGTH:15;
#BPMS:0=180,4=360,11=180,106=90,107=180,138=360,140=180,171=360,172=180,264=360,266=180;
#STOPS:4=0.25,5.5=0.25,7=0.25,8.5=0.167,9.5=0.167,10.5=0.083,171=0.083,171.5=0.084,264=0.042,264.25=0.042,264.5=0.041,264.75=0.042,265=0.041,265.25=0.042,265.5=0.042,265.75=0.041;
#TIMESIGNATURES:0=4=4,104=3=4,107=4=4,135=5=4,140=4=4;
#BGSTAGE:29;

//--------------- dance-single - Fred-104 ----------------
#NOTEDATA:;
#STEPSTYPE:dance-single;
#DESCRIPTION:Fred-104;
#DIFFICULTY:Beginner;
#METER:9;
#CREDIT:Fred-104;
#NOTES:
0000
0000
0000
0000
,
0000
0000
0000
0000
,
0000
0000
0000
0000
,
1000
1000
0010
1000
,
0001
0001
0010
0100
,
1000
1000
0001
0100
,
0010
0010
1000
0001
,
1000
0100
0010
0001
,
1000
1000
0001
0100
,
0010
0100
0100
0001
,
1000
0001
1000
0001
1000
0001
2000
0000
,
3001
0001
0100
0010
,
1000
1000
0100
0010
,
0001
1000
0001
0100
,
0010
0000
1000
0000
0001
1000
0001
0000
,
1000
0100
0010
0001
,
1000
0001
0100
0010
,
1000
1000
0001
0001
,
1000
0001
1000
0001
1000
0001
1000
0000
,
2002
0000
0000
3003
,
0010
0000
0100
0000
,
0001
0000
0000
0010
0000
0000
1000
0000
,
0000
0100
0000
0000
0001
0000
1000
0000
,
2002
0000
0000
3003
,
0010
0000
0100
0000
,
1000
0000
0000
0100
0000
0000
0001
0000
,
0000
0010
0000
0000
2000
0000
3002
0000
,
0000
0000
1003
0020
,
0000
0130
0001
2000
,
0000
0000
3100
0020
,
0000
0031
1000
0002
,
0000
0000
0013
0200
,
0000
1300
0100
0002
,
0000
0000
0103
1000
,
0001
1000
0002
0000
,
1003
1000
0010
0100
,
0001
0000
0001
0000
1000
0100
1000
0000
,
0001
0001
0100
0010
,
0100
0000
0001
0000
1000
0010
1000
0000
,
0001
0001
1000
0100
,
0010
0000
0001
0000
0100
0010
0100
0000
,
0001
0001
1000
1000
,
0001
0100
0010
2000
,
3001
0100
0010
1000
,
0100
1000
0100
0000
0010
0100
0010
0000
,
0001
1000
0001
0100
,
0010
1000
0010
0000
1000
0100
1000
0000
,
0001
1000
0010
0100
,
0001
0010
0001
0000
1000
0100
1000
0000
,
0001
0001
1000
1000
,
0001
1000
0001
1000
0001
1000
0001
0000
,
2001
0000
0000
0000
,
3020
0000
0000
0000
,
0230
0000
0000
0000
,
0302
0000
0000
0000
,
0023
0000
0000
0000
,
0230
0000
0000
0000
,
2300
0000
0000
0000
,
3002
0000
0003
0000
,
2000
0000
0000
3100
,
0002
0000
0103
1000
,
0020
0000
0000
0130
,
0002
0000
0013
1000
,
0020
0000
0000
0031
,
2000
0000
3100
0010
,
0002
0000
0000
1003
,
0002
0000
2000
3003
,
1000
0010
1000
0100
,
0010
0000
0010
0000
0001
1000
0001
0000
,
0100
0100
0010
0100
,
0001
0000
1000
0000
0010
1000
0010
0000
,
1000
0100
0100
0010
,
0001
0000
1000
0000
0001
0100
0001
0000
,
0100
0100
0010
0010
,
1000
0001
1000
0001
1000
0001
2000
0000
,
3001
0001
0100
0010
,
0100
0000
0001
0000
1000
0001
1000
0000
,
0100
0100
0010
0001
,
1000
0000
0010
0000
1000
0001
2000
0000
,
3001
0001
0200
0300
,
1000
1000
0200
0300
,
0001
1000
0010
0100
,
0010
0100
0010
0100
0010
0100
0010
0000
,
1001
0000
0000
0000
;

//--------------- dance-single - Fred-104 ----------------
#NOTEDATA:;
#STEPSTYPE:dance-single;
#DESCRIPTION:Fred-104;
#DIFFICULTY:Easy;
#METER:12;
#CREDIT:Fred-104;
#NOTES:
0000
0000
0000
0000
,
0000
0000
0000
0000
,
0000
0000
0000
0000
,
1000
0000
0100
0000
1000
0100
0010
0000
,
0001
0000
1000
0000
0001
0100
0010
0000
,
0100
0000
0001
0000
0010
0100
1000
0000
,
0001
0100
0001
0000
1000
0010
2000
0000
,
3001
0000
1000
0000
0010
1000
0100
0000
,
0010
0000
0001
0000
0100
0010
1000
0000
,
0001
0000
0100
0000
0010
0100
0001
0000
,
1000
0001
1000
0001
1000
0010
0200
0000
,
0301
0000
0010
0000
0000
0001
0000
0000
1000
0000
0000
0010
0000
0000
0100
0000
,
0001
0000
0010
0000
0000
0001
0000
0000
1000
0000
0000
0100
0000
0000
1000
0000
,
0100
0000
0010
0000
0000
0001
0000
0000
1000
0000
0000
0010
0000
0000
0100
0000
,
0001
0000
0010
0000
0000
0100
0000
0000
0010
0000
0000
0001
0000
0000
1000
0000
,
0001
0100
0010
0100
0001
0100
0010
0000
,
1000
0100
0010
0100
1000
0100
0010
0000
,
0001
0100
0001
0100
0010
1000
0010
1000
,
0100
0010
0001
1000
0001
1000
0001
1000
,
0002
0000
0203
0000
,
0320
2030
0200
3300
,
1000
0100
0000
0100
0010
0000
0010
0001
,
0000
0001
1000
0000
0001
0000
0100
0000
,
0002
0000
0023
0000
,
0230
2300
0002
3003
,
1000
0010
0000
0010
0100
0000
0100
0001
,
0000
0000
0001
0000
1000
0000
0000
0000
1001
0000
1000
0001
1000
0000
0100
0000
,
1000
0100
0010
0100
0010
0000
0100
0001
,
0100
0001
0010
0000
0001
0000
1000
0010
,
1000
0000
0001
1000
0001
0000
0100
0010
,
0100
0010
0100
0000
0010
0100
0001
0010
,
0001
1000
0010
1000
0100
0000
0010
0001
,
0100
0010
0100
0000
0010
0000
1000
0100
,
0010
0000
0001
0100
0010
0000
1000
0001
,
1000
0001
1000
0001
2000
0000
0000
0000
,
3001
0100
0001
0100
0001
0100
0010
0000
,
1000
0100
1000
0100
0010
0100
1000
0000
,
0001
1000
0001
1000
0001
0100
0010
0000
,
1000
0100
0010
0000
0001
1000
0010
0000
,
1000
0100
1000
0010
1000
0100
0010
0000
,
0001
0100
0001
0000
0100
0010
0100
0000
,
0010
1000
0010
1000
0001
1000
0001
0000
,
1000
0100
0010
0001
1000
0000
0020
0230
,
0301
1000
0001
1000
0001
1000
0001
0000
,
1000
0100
1000
0100
0010
0100
0010
0000
,
0001
0100
0001
0100
0010
0100
0010
0000
,
1000
0010
1000
0010
1000
0100
1000
0000
,
0001
0100
0001
1000
0001
0100
0001
0000
,
0001
0010
0001
0010
0100
0010
0100
0000
,
1000
0010
1000
0100
0010
0001
1000
0010
,
0100
0000
0001
0000
1000
0000
0000
0000
0001
0000
0000
1000
0000
0000
0010
0000
,
0210
0000
0302
0000
,
2003
0000
3200
0000
,
0320
0000
0032
0000
,
2000
0000
3003
0000
,
2000
0000
3200
0000
,
0320
0000
0032
0000
,
0203
0000
0320
0000
,
2000
0000
3030
0000
,
1000
0010
1000
0100
1000
0100
0010
0000
,
0001
0100
0001
0010
0001
0000
0100
0010
,
1000
0010
1000
0010
1000
0100
0010
0000
,
0001
0010
0001
0010
0001
0000
0100
0010
,
0100
0010
1000
0010
0100
0010
0100
0000
,
0001
0100
0001
0100
0010
0000
1000
0100
,
0010
0100
1000
0010
0100
0010
1000
0000
,
2002
0000
3003
0000
,
0001
0000
0010
0000
0100
0000
0000
0000
1000
0000
0000
0010
0000
0000
1000
0000
,
0100
0000
0010
0000
0001
0000
0000
0000
1000
0000
0000
0001
0000
0000
0100
0000
,
0010
0000
1000
0000
0100
0000
0000
0000
0010
0000
0000
0001
0000
0000
1000
0000
,
0001
0000
0100
0000
1000
0000
0000
0000
0001
0000
0000
0010
0000
0000
1000
0000
,
0001
0000
0100
0000
0010
0000
0000
0000
1000
0000
0000
0100
0000
0000
0010
0000
,
0100
0000
1000
0000
0001
0000
0000
0000
0100
0000
0000
0010
0000
0000
1000
0000
,
0100
0000
0010
0000
0001
0000
0000
0000
0010
0000
0000
0100
0000
0000
1000
0000
,
0001
0001
1000
1000
0001
1000
1001
0000
,
0001
0100
0010
0000
1000
0100
0010
0000
,
0001
0100
0001
0010
0001
1000
0001
0000
,
1000
0100
0010
0000
0001
0100
0010
0000
,
1000
1000
0001
0001
1000
0001
1001
0000
,
0001
0100
0001
0000
0100
0010
0100
0000
,
0010
1000
0010
0000
1000
0100
1000
0000
,
0001
0100
0001
0100
0010
1000
0010
1000
,
0001
0100
0010
1000
0100
0010
0001
0000
,
1001
0000
0000
0000
;

//--------------- dance-single - Fred-104 ----------------
#NOTEDATA:;
#STEPSTYPE:dance-single;
#DESCRIPTION:Fred-104;
#DIFFICULTY:Medium;
#METER:15;
#CREDIT:Fred-104;
#NOTES:
0000
0000
0000
0000
,
0000
0000
0000
0000
,
0000
0000
0000
0000
,
1000
0000
0100
0000
0100
0000
0010
0001
0010
0000
0001
0000
2000
0000
0000
0000
,
3001
0000
0100
0000
0100
0000
0010
1000
0010
0000
0100
0000
0002
0000
0000
0000
,
1003
0000
0001
0000
0001
0000
0100
0010
0100
0000
0001
0000
0020
0000
0000
0000
,
0031
0000
0100
0000
0100
0000
0001
0010
0001
0000
1000
0000
0100
0000
1000
0000
,
0010
0000
1000
0000
0100
0000
0010
0100
0010
0000
0001
0000
2000
0000
0000
0000
,
3001
0000
0100
0000
0010
0000
1000
0001
1000
0000
0100
0000
0020
0000
0000
0000
,
0031
0000
1000
0000
0010
0000
1000
0100
1000
0000
0001
0000
0200
0000
0000
0000
,
0301
0000
0010
0000
0100
0000
1000
0000
0001
1000
0001
1000
0002
0000
0000
0000
,
1003
0000
0100
0010
0000
0010
0001
0000
1000
0000
0000
0001
0000
0000
0100
0000
,
0001
0000
0010
0100
0000
0010
0001
0000
1000
0000
0000
0001
0000
0000
1000
0000
,
0100
0000
1000
0010
0000
0100
0010
0000
1000
0000
0000
0100
0000
0000
0010
0000
,
0001
0000
0100
0010
0000
0100
0001
0000
0010
0000
0000
0001
0100
0010
0100
0000
,
0010
0000
1000
0100
0000
1000
0010
0000
0100
0000
0000
0010
0000
0000
1000
0000
,
0001
0000
0010
0100
0000
0010
0001
0000
0100
0000
0000
0001
0000
0000
0010
0000
,
0001
0001
0100
0100
0010
0010
1000
1000
,
0001
0000
0001
0000
1000
0000
1000
0000
0001
1000
0001
1000
0001
1000
0001
1000
,
0002
0203
0320
2030
,
3002
0203
0020
0330
,
1000
0100
0000
0001
0100
0000
1000
0010
,
0000
0001
0010
0000
1000
0000
0001
0100
,
0020
2030
3200
2300
,
3002
0203
0020
0330
,
1000
0010
0000
0001
0010
0000
1000
0100
,
0000
0000
0001
0000
0100
0000
0000
0000
1002
0000
2003
3200
0310
0000
0010
0000
,
0010
0010
0010
0010
0010
0001
0100
0100
,
0100
0100
0100
0000
0010
1000
0001
0001
,
0001
0001
0001
0001
0001
0100
1000
1000
,
1000
1000
1000
0100
0001
0001
1000
1000
,
1000
1000
1000
1000
1000
0010
0100
0100
,
0100
0100
0100
0000
0001
0010
0100
0100
,
0100
0000
0100
0000
0100
0000
0100
0000
0100
0000
0010
0000
0001
1000
0001
1000
,
0001
1000
0001
1000
0001
0000
0100
0000
0020
0000
0000
0000
0000
0000
0000
0000
,
1030
0100
1000
0010
0100
0010
1000
0100
,
0010
0000
0001
0000
1000
0000
0001
0000
0100
0010
0100
0000
0001
0010
0001
0000
,
1000
0010
1000
0100
1000
0010
0100
0001
,
0010
0000
0100
0000
1000
0000
0001
0000
1000
0100
1000
0100
1000
0100
1000
0000
,
0010
0100
0010
1000
0100
0010
0001
1000
,
0001
0000
0100
0000
0010
0000
0100
0000
0001
0000
0100
0000
0010
1000
0010
1000
,
0010
0100
0010
1000
0100
0010
0001
1000
,
0001
0000
0000
0000
0000
0000
0000
0000
0100
0000
0000
0000
0000
0000
0000
0000
0010
0000
0000
0000
1000
0000
0000
0000
0000
0000
0000
0000
0010
0000
0000
0000
0100
0000
0000
0000
0000
0000
0000
0000
0001
0000
0000
0000
1000
0000
0000
0000
0002
0003
0000
0000
0000
0000
0000
0000
2000
3000
0000
0000
0000
0000
0000
0000
,
0001
0100
0001
0000
0100
0010
0100
0000
0010
1000
0010
0000
1000
0100
1000
0000
,
0100
0010
0001
1000
0010
0100
0010
1000
,
0001
0100
0001
0000
1000
0010
1000
0000
0001
0010
0001
0000
1000
0100
1000
0000
,
0001
0000
0100
0000
0010
0000
1000
0000
0001
1000
0001
1000
0001
1000
0001
1000
,
0001
0010
0100
1000
0010
0100
0010
1000
,
0100
1000
0100
0000
0010
0100
0010
0000
0001
0010
0001
0000
1000
0001
1000
0000
,
0001
0001
0100
0100
0010
1000
0100
0010
,
0001
0010
0001
0010
0001
0010
0001
0010
0001
0000
0000
1000
0000
0000
0100
0000
,
2100
0000
3020
0000
,
0230
0000
0302
0000
,
0023
0000
0230
0000
,
2300
0000
0002
3003
,
0102
0000
0203
0000
,
0320
0000
2030
0000
,
3200
0000
0320
0000
,
0032
0000
2000
3003
,
0100
0100
0100
0100
0100
0100
0100
0010
,
1000
1000
1000
1000
1000
0000
0001
0100
,
0010
0010
0010
0010
0010
0010
0010
1000
,
0001
0001
0001
0001
0001
0100
0010
0010
,
1000
1000
1000
1000
1000
1000
1000
0010
,
0100
0100
0100
0100
0100
0000
0010
0100
,
0010
0010
0010
0010
0010
0010
0010
1000
,
0002
0003
0000
0000
2000
3000
0000
0000
0002
0003
0000
0000
2000
3000
0000
0000
0002
0003
0000
0000
2000
3000
0000
0000
0002
0003
0000
0000
2000
3000
0000
0000
0002
0000
0000
0000
0000
0000
0000
0000
0000
0000
0000
0000
0000
0000
0000
0000
0003
0000
0000
0000
0000
0000
0000
0000
0000
0000
0000
0000
0000
0000
0000
0000
,
1000
0000
0010
0000
0100
0000
0010
0000
1000
0000
0000
0100
0000
0000
0010
0000
,
0001
0100
0000
0010
0100
0000
0001
0000
1000
0000
0000
0010
0000
0000
0100
0000
,
0010
0000
1000
0000
0100
0000
0010
0000
0001
0000
0000
0100
0000
0000
0010
0000
,
1000
0001
0000
0100
0001
0000
1000
0000
0001
0000
0000
0100
0000
0000
0001
0000
,
0100
0010
0000
1000
0100
0000
1000
0000
0010
0000
0000
0100
0000
0000
0010
0000
,
1000
0000
0100
0000
0010
0000
0001
0000
1000
0000
0000
0001
0000
0000
0100
0000
,
0001
0010
0000
0100
0010
0000
0001
0000
0100
0000
0000
0010
0000
0000
1000
0000
,
0100
0000
0100
0000
0010
0000
0010
0000
0001
1000
0001
1000
0002
0000
0000
0000
,
1003
0100
0000
0010
0001
0000
1000
0000
0001
0000
0000
0100
0000
0000
0010
0000
,
1000
0000
0010
0100
0010
0000
1000
0000
0010
0000
0000
0100
0000
0000
0010
0000
,
1000
0100
0000
0010
0100
0000
1000
0000
0001
0000
0000
0100
0000
0000
0001
0000
,
0010
0000
0010
0000
0100
0000
0100
0000
1000
0010
1000
0010
2000
0000
0000
0000
,
3001
0000
0010
0000
0001
0000
1000
0000
0010
1000
0010
1000
0010
0000
0100
0000
,
0001
0000
1000
0000
0100
0000
0010
0000
0001
1000
0001
1000
0001
0000
0100
0000
,
0010
1000
0010
0000
1000
0100
1000
0000
0001
0100
0001
0100
0010
0000
1000
0100
,
1000
0100
1000
0100
1000
0100
1000
0100
1000
0000
0001
1000
0001
1000
0001
0000
,
1001
0000
0000
0000
;

//--------------- dance-single - Fred-104 ----------------
#NOTEDATA:;
#STEPSTYPE:dance-single;
#DESCRIPTION:Fred-104;
#DIFFICULTY:Hard;
#METER:18;
#CREDIT:Fred-104;
#NOTES:
0000
0000
0000
0000
,
0000
0000
0000
0000
,
0000
0000
0000
0000
,
1000
0100
0010
0000
0100
0000
1000
0010
0100
0000
0010
0000
2000
0000
0000
0000
,
3001
0100
0010
0000
0100
0000
0001
0010
0100
0000
0010
0000
0002
0000
2003
0000
,
3001
1000
0010
0000
1000
0000
0001
1000
0100
0000
1000
0000
0020
0000
0000
0000
,
1030
0001
0010
0000
0001
0000
1000
0001
0100
0000
0010
0000
1000
0100
0010
0001
,
1000
0100
0010
0000
0001
0000
1000
0100
0010
0000
0001
0000
2001
0000
0000
0000
,
3001
0100
0010
0000
1000
0000
0001
0100
0010
0000
1000
0000
1002
0000
0000
0000
,
1003
0100
0010
0000
0001
0000
0010
0100
1000
0000
0001
0100
0001
0000
1000
0000
,
0001
0000
0001
0000
0001
0000
0001
0000
0010
0001
0010
0100
2000
0000
0000
0000
,
3001
0000
1000
0100
0000
1000
0010
0000
1000
0100
0000
0010
0001
0000
0100
0000
,
0001
0000
0010
0001
0000
1000
0001
0000
0100
0010
0000
1000
0010
0000
0100
0000
,
0010
0000
1000
0100
0000
0010
0100
0000
1000
0010
0000
0100
0001
0000
1000
0000
,
0100
0000
0010
0001
0000
1000
0001
0000
1000
0100
0010
0001
1000
0100
0010
0000
,
0001
0000
0100
0001
0000
0010
0001
0000
1000
0010
0000
0100
0010
0000
1000
0000
,
0001
0000
0010
0100
0000
0100
1000
0000
0010
0100
0000
0100
0001
0000
1000
0000
,
0001
0010
0001
1000
0010
0100
0001
1000
,
0001
0100
0001
0100
0001
0100
0001
0010
0100
1000
0100
1000
0100
1000
0010
0100
,
0001
0000
0010
0000
0100
0000
1000
0010
1000
0000
0010
0000
0100
0000
0001
1000
,
0001
0010
0100
1000
0002
0000
0000
0000
,
1003
0000
0000
0000
0000
0000
0000
0000
0200
0300
0000
0000
0000
0000
0000
0000
0200
0300
0000
0000
0000
0000
0000
0000
0001
0000
0000
0000
0000
0000
0000
0000
0020
0030
0000
0000
0000
0000
0000
0000
0020
0030
0000
0000
0000
0000
0000
0000
1000
0000
0000
0000
0000
0000
0000
0000
0020
0030
0000
0000
0000
0000
0000
0000
,
0020
0030
0000
0000
0000
0000
0000
0000
0001
0000
0000
0000
0000
0000
0000
0000
0200
0300
0000
0000
0000
0000
0000
0000
0200
0300
0000
0000
0000
0000
0000
0000
2000
0000
0000
0000
0000
0000
0000
0000
3020
0000
0000
0000
0000
0000
0000
0000
0230
0000
0000
0000
0000
0000
0000
0000
0302
0000
0000
0000
0000
0000
0000
0000
,
1003
0000
0100
0000
0010
0000
0001
0100
0001
0000
0100
0000
0010
0000
1000
0001
,
1000
0100
0010
0100
2000
0000
0000
0000
,
3001
0000
0000
0000
0000
0000
0000
0000
0020
0030
0000
0000
0000
0000
0000
0000
0020
0030
0000
0000
0000
0000
0000
0000
1000
0000
0000
0000
0000
0000
0000
0000
0200
0300
0000
0000
0000
0000
0000
0000
0200
0300
0000
0000
0000
0000
0000
0000
0001
0000
0000
0000
0000
0000
0000
0000
0200
0300
0000
0000
0000
0000
0000
0000
,
0200
0300
0000
0000
0000
0000
0000
0000
1000
0000
0000
0000
0000
0000
0000
0000
0020
0030
0000
0000
0000
0000
0000
0000
0020
0030
0000
0000
0000
0000
0000
0000
0002
0000
0000
0000
0000
0000
0000
0000
2003
0000
0000
0000
3020
0000
0000
0000
1030
0000
0000
0000
0100
0000
0000
0000
1000
0000
0000
0000
0100
0000
0000
0000
,
1000
0100
1000
0100
1000
0100
1000
0100
1000
0000
0001
1000
0001
0100
0001
0100
,
0001
0100
0001
0100
0001
0000
0000
0000
1000
0000
0001
0100
0010
0100
0010
0100
,
0010
0100
0010
0100
0010
0100
0010
0100
0010
0000
1000
0100
0010
0100
0010
0100
,
0010
0100
0010
0100
0010
0000
0001
1000
0001
0100
0001
0100
0001
0010
0001
0010
,
0001
0010
0001
0010
0001
0010
0001
0010
0001
0000
1000
0100
1000
0010
1000
0010
,
1000
0010
1000
0010
1000
0000
0000
0000
0001
0000
1000
0100
1000
0001
1000
0001
,
1000
0001
1000
0001
1000
0001
1000
0001
1000
0000
0001
0010
0001
0100
0010
0100
,
0010
1000
0010
1000
0001
0000
1000
0010
0200
0000
0000
0000
0000
0000
0000
0000
,
0301
0100
0010
1000
0010
0100
0001
0000
1000
0010
0100
0010
1000
0100
0010
0000
,
0001
0010
0100
1000
0100
0010
0001
0000
1000
0100
1000
0100
0010
0100
0010
0100
,
1000
0100
0010
0001
1000
0100
0010
0000
0001
0100
0010
1000
0001
0100
0010
0000
,
1000
0100
1000
0010
0100
0001
1000
0000
0100
0010
0001
1000
0010
0100
0001
0010
,
0100
1000
0010
1000
0100
1000
0010
0000
0100
0001
0010
0001
1000
0001
1000
0000
,
0001
0100
0001
1000
0010
1000
0100
0000
0010
0001
1000
0001
0100
0010
1000
0010
,
1000
0100
0010
0100
1000
0100
0010
0000
0001
0100
0010
0100
0001
0100
0010
0000
,
1000
0000
0000
0000
0000
0000
0000
0000
0001
0000
0000
0000
0000
0000
0000
0000
0010
0000
0000
0000
0100
0000
0000
0000
1000
0000
0000
0000
0010
0000
0000
0000
0100
0000
0000
0000
0001
0000
0000
0000
0100
0000
0000
0000
0010
0000
0000
0000
2000
3000
0000
0000
0000
0000
0000
0000
2000
3000
0000
0000
0000
0000
0000
0000
,
0001
0100
0001
0100
0001
0100
0001
0100
0010
1000
0010
1000
0010
1000
0010
1000
,
0100
0010
0100
0010
0001
0010
0001
0010
0100
1000
0100
1000
0001
0000
0100
0000
,
0010
1000
0010
1000
0100
1000
0100
1000
0010
0100
0010
0100
0001
0100
0001
0100
,
0001
0010
0001
0010
0100
1000
0100
1000
0001
1000
0100
0010
0001
0000
1000
0000
,
0010
1000
0010
1000
0100
1000
0100
1000
0010
1000
0010
1000
0100
1000
0100
1000
,
0001
0100
0001
0100
0001
0010
0001
0010
0100
1000
0010
0100
0001
0000
1000
0000
,
0010
0000
0010
0000
1000
0000
1000
0000
0001
0100
0001
0100
0010
0100
0010
0100
,
0001
0010
0100
0010
0001
1000
0001
0100
0010
0000
1000
0100
0000
0010
0001
1000
,
0002
0000
0203
0000
,
0320
0000
2030
0000
,
3200
0000
0320
0000
,
0032
0000
2003
0000
,
3002
0000
0023
0000
,
2030
0000
3200
0000
,
0302
0000
2003
0000
,
0020
3030
2002
3003
,
0001
1000
0001
1000
0001
0100
0001
0100
0001
0010
0001
0010
0100
0000
1000
0010
,
1000
0100
1000
0100
0010
0001
0010
0001
1000
0000
0000
0000
1010
0000
1000
0100
,
0010
0001
0010
0001
0010
0100
0010
0100
1000
0100
1000
0010
0100
0000
0001
1000
,
0100
1000
0100
1000
0010
1000
0010
1000
0100
0000
0010
0001
1000
0001
0100
0001
,
1000
0001
0010
0001
1000
0001
0010
0001
1000
0001
0010
0001
1000
0000
0001
0100
,
0010
1000
0001
1000
0010
1000
0001
1000
0010
0000
0000
0000
0110
0000
0010
1000
,
0001
0010
0100
0010
0001
0010
0100
0010
0001
0010
0100
0010
0001
0000
1000
0001
,
2000
3000
0000
0000
0200
0300
0000
0000
0020
0030
0000
0000
0002
0003
0000
0000
2000
3000
0000
0000
0200
0300
0000
0000
0020
0030
0000
0000
0002
0003
0000
0000
2000
0000
0000
0000
0000
0000
0000
0000
0000
0000
0000
0000
0000
0000
0000
0000
0000
0000
0000
0000
0000
0000
0000
0000
0000
0000
0000
0000
0000
0000
0000
0000
,
3001
0010
0000
0100
0010
0000
0001
0000
1000
0000
0001
0100
0000
0010
1000
0000
,
0010
0000
0100
0010
1000
0000
0001
1000
0200
0000
0000
2300
0000
0000
3002
0000
,
1003
0100
0000
0100
0010
0000
0100
0000
1000
0000
0010
0100
0000
0100
0001
0000
,
1000
0100
0000
0010
0001
0000
1000
0010
2000
0000
0000
3002
0000
0000
0203
0000
,
0301
1000
0000
0010
0100
0000
0001
0000
1000
0100
0000
0010
0001
0000
0001
0000
,
0100
0000
0010
1000
0001
0000
0010
0100
0020
0000
0000
0032
0000
0000
2003
0000
,
3001
1000
0000
0001
0100
0000
0010
0000
1000
0000
0001
0010
0000
0010
0100
0000
,
1000
0000
1000
0000
0001
0000
0001
0000
1000
0100
0010
0001
2000
0000
3002
0000
,
1003
0100
1000
0100
1000
0000
0100
0000
0010
0000
0000
0011
0000
0000
1001
0000
,
1000
0001
0100
0001
1000
0100
0010
0001
1000
0000
0000
1010
0000
0000
0101
0000
,
0001
1000
0001
1000
0010
0000
0100
0000
0001
0000
0000
1100
0000
0000
0110
0000
,
0010
0000
0010
0000
0100
0000
0100
0000
0001
1000
0010
0100
0002
0000
0000
0000
,
1003
0000
0010
0000
1000
0000
0100
0000
0010
0001
0010
0001
0010
0000
0001
0000
,
1000
0000
0001
0000
1000
0000
0100
0000
0010
0100
0010
0100
1000
0000
0001
0000
,
1000
0100
0010
0001
0010
0100
1000
0010
0100
0001
1000
0010
0100
0000
0001
0100
,
0010
1000
0001
0010
0100
0010
0001
1000
0010
0000
1000
0001
0100
0010
1000
0000
,
1001
0000
0000
0000
;

//--------------- dance-single - Fred-104† ----------------
#NOTEDATA:;
#STEPSTYPE:dance-single;
#DESCRIPTION:Fred-104†;
#DIFFICULTY:Challenge;
#METER:19;
#CREDIT:Fred-104†;
#NOTES:
0000
0000
0000
0000
,
0000
0000
0000
0000
,
0000
0000
0000
0000
,
1000
0010
0100
0000
1000
0000
0100
0010
1000
0000
0001
0000
0020
0000
0000
0000
,
0031
0010
0100
0000
0001
0000
0100
0010
0001
0000
1000
0000
0020
0000
0000
0000
,
1030
0100
0010
0000
1000
0000
0010
0100
1000
0000
0001
0000
0200
0000
0000
0000
,
0301
0100
0010
0000
0001
0000
0010
0100
0001
0000
1000
0000
0001
0010
0100
1000
,
0001
0100
0010
1000
0010
0000
1000
0100
0010
0001
1000
0000
0010
0100
0010
0000
,
1000
0100
1000
0010
0100
0000
0001
1000
0010
1000
0100
0000
0010
0001
1000
0000
,
0001
0010
0100
1000
0010
0000
1000
0100
0010
0001
1000
0001
0100
0000
0010
0000
,
1010
0000
1000
0000
1001
0000
0001
0000
1000
0100
0010
0001
2000
0000
0000
0000
,
3001
0000
0010
0100
1000
0001
0100
0000
0001
0100
0010
1000
0001
0000
1000
0000
,
0001
0000
1000
0010
0100
0001
1000
0000
0001
1000
0100
0010
0001
0000
1000
0000
,
0010
0000
1000
0100
0010
0001
0010
0000
0100
1000
0010
0100
0001
0000
1000
0000
,
0001
0000
0010
0100
1000
0001
1000
0000
0001
0100
0010
1000
0001
0010
0100
0000
,
1000
0000
0010
0100
1000
0100
0001
0000
1000
0010
0001
0010
0100
0000
0001
0000
,
1000
0000
0001
0010
0100
0001
0100
0000
0010
0001
1000
0010
0100
0000
0001
0000
,
0011
0001
0101
0100
0110
0010
1010
1000
,
0001
0100
0010
1000
0100
0010
0100
1000
0001
1000
0010
1000
0001
0100
0001
1000
,
0001
0000
0000
0000
0000
0000
0000
0000
0200
0300
0000
0000
0000
0000
0000
0000
0200
0300
0000
0000
0000
0000
0000
0000
1000
0000
0000
0000
0001
0000
0000
0000
1000
0000
0000
0000
0000
0000
0000
0000
0020
0030
0000
0000
0000
0000
0000
0000
0020
0030
0000
0000
0000
0000
0000
0000
0001
0000
0000
0000
1000
0000
0000
0000
,
0001
0000
0000
0000
0000
0000
0000
0000
0200
0300
0000
0000
0000
0000
0000
0000
0200
0300
0000
0000
0000
0000
0000
0000
1000
0000
0000
0000
0000
0000
0000
0000
0001
0000
0000
0000
0100
0000
0000
0000
0010
0000
0000
0000
1000
0000
0000
0000
0001
0000
0000
0000
0100
0000
0000
0000
0010
0000
0000
0000
1000
0000
0000
0000
,
0002
0203
2300
3002
0023
2030
3002
0203
,
2300
3002
0023
2030
3002
0203
0320
2030
,
3001
0000
0000
0000
0000
0000
0000
0000
0020
0030
0000
0000
0000
0000
0000
0000
0020
0030
0000
0000
0000
0000
0000
0000
1000
0000
0000
0000
0001
0000
0000
0000
1000
0000
0000
0000
0000
0000
0000
0000
0200
0300
0000
0000
0000
0000
0000
0000
0200
0300
0000
0000
0000
0000
0000
0000
0001
0000
0000
0000
1000
0000
0000
0000
,
0001
0000
0000
0000
0000
0000
0000
0000
0020
0030
0000
0000
0000
0000
0000
0000
0020
0030
0000
0000
0000
0000
0000
0000
1000
0000
0000
0000
0000
0000
0000
0000
0001
0000
0000
0000
1000
0000
0000
0000
0100
0000
0000
0000
0010
0000
0000
0000
0001
0000
0000
0000
1000
0000
0000
0000
0100
0000
0000
0000
0010
0000
0000
0000
,
0002
0023
2030
3002
0203
2300
3002
0023
,
2030
0000
3002
0000
0023
0000
0230
0000
2300
0000
3002
2003
3001
0010
0100
1000
,
0001
0010
0100
1000
0001
0010
0100
1000
0001
0000
0100
0010
1000
0100
0010
0001
,
1000
0100
0010
0001
1000
0000
0000
0000
1001
0000
0001
0100
0010
1000
0001
0100
,
0010
1000
0001
0100
0010
1000
0001
0100
0010
0000
1000
0010
1000
0001
0100
0010
,
1000
0001
0100
0010
1000
0000
0001
0100
0001
0010
0100
1000
0001
1000
0100
0010
,
0001
1000
0100
0010
0001
1000
0100
0010
0001
0000
1000
0100
1000
0001
0010
0100
,
1000
0001
0010
0100
1000
0000
0000
0000
1001
0000
0001
1000
0100
1000
0001
0010
,
0100
1000
0001
0010
0100
1000
0001
0010
0100
0000
0010
0001
1000
0001
0100
0010
,
1000
0100
0010
0001
1000
0000
0001
1000
0020
0000
0000
0000
0000
0000
0000
0000
,
1030
0100
0010
0100
1000
0010
1000
0100
1000
0010
1000
0100
0010
0001
1000
0001
,
0100
0001
0010
0001
1000
0001
0100
0001
1000
0100
0010
0001
1000
0100
0010
0001
,
1000
0010
1000
0100
1000
0010
0100
0010
1000
0100
0010
0100
1000
0010
0100
0001
,
1000
0001
0010
0100
1000
0001
0010
0100
0010
0001
1000
0100
0010
0001
1000
0100
,
0010
0100
1000
0010
1000
0100
1000
0001
0100
0001
0010
0001
1000
0001
0100
0010
,
1000
0100
0010
0100
1000
0010
0100
0010
1000
0001
0100
0010
1000
0001
0100
0010
,
1000
0010
0100
0001
0100
0010
0100
0001
0100
0001
0010
0001
0010
0100
1000
0001
,
0100
0000
0000
0000
0000
0000
0000
0000
0110
0000
0000
0000
0000
0000
0000
0000
0010
0000
0000
0000
1000
0000
0000
0000
0001
0000
0000
0000
0100
0000
0000
0000
0001
0000
0000
0000
1000
0000
0000
0000
0100
0000
0000
0000
0010
0000
0000
0000
0002
0003
0000
0000
0000
0000
0000
0000
2000
3000
0000
0000
0000
0000
0000
0000
,
0001
0010
0001
0100
0001
0100
0001
1000
0010
1000
0100
1000
0010
1000
0100
0010
,
0001
0010
0100
1000
0001
0100
0010
1000
0010
0100
0001
1000
0100
0010
0001
1000
,
0100
0010
0100
1000
0001
0100
0001
1000
0001
0010
0100
0010
0001
0100
0010
0100
,
0001
1000
0001
0100
0010
1000
0100
1000
0010
0100
0001
1000
0010
0100
0001
1000
,
0001
1000
0100
0010
0001
0100
0010
1000
0100
1000
0010
1000
0100
0010
0100
0010
,
0001
1000
0010
1000
0001
0100
0001
1000
0100
0010
0001
1000
0010
0100
0001
1000
,
0001
0000
0101
0000
1000
0000
1100
0000
0001
1000
0010
1000
0100
0010
0001
1000
,
0100
0000
0000
1000
0000
0000
0010
0000
0000
0100
0000
0000
0001
0000
0100
0000
0001
0000
0100
0000
0000
0010
0000
0000
1000
0000
0000
0001
0000
0000
0100
0000
0000
1000
0000
0000
0100
0000
0000
0010
0000
0000
1000
0000
0000
0001
0000
0000
,
2000
0000
3002
0000
,
0023
0230
2300
3002
,
0023
0000
2030
0000
,
3200
0302
2003
3200
,
0320
0000
0032
0000
,
2003
3200
0302
0023
,
2030
0000
3002
0000
,
0203
0320
2000
3030
,
1000
0000
0000
0100
0000
0000
0010
0000
0000
0001
0000
0000
1000
0000
0000
0100
0000
0000
0010
0000
0000
0001
0000
0000
1000
0000
0000
0100
0000
0000
0010
0000
0000
0001
0000
0000
1000
0000
0000
0000
0000
0000
1000
0000
0100
0000
0010
0000
,
0001
0000
0000
0100
0000
0000
0010
0000
0000
1000
0000
0000
0001
0000
0000
0100
0000
0000
0010
0000
0000
1000
0000
0000
0001
0000
0000
0000
0000
0000
0000
0000
0000
0000
0000
0000
1001
0000
0000
0000
0000
0000
1000
0000
0100
0000
0010
0000
,
0100
0000
0000
1000
0000
0000
0001
0000
0000
0010
0000
0000
0100
0000
0000
1000
0000
0000
0001
0000
0000
0010
0000
0000
0100
0000
0000
1000
0000
0000
0001
0000
0000
0010
0000
0000
0001
0000
0000
0000
0000
0000
0001
0000
0100
0000
0010
0000
,
1000
0000
0000
0100
0000
0000
0010
0000
0000
0001
0000
0000
1000
0000
0000
0100
0000
0000
0010
0000
0000
0001
0000
0000
1000
0000
0000
0000
0000
0000
1000
0000
0010
0000
0100
0000
0001
0000
0000
1000
0000
0000
0100
0000
0000
0010
0000
0000
,
0001
0000
0000
1000
0000
0000
0010
0000
0000
0100
0000
0000
0001
0000
0000
1000
0000
0000
0010
0000
0000
0100
0000
0000
0001
0000
0000
1000
0000
0000
0010
0000
0000
0100
0000
0000
0001
0000
0000
0000
0000
0000
0001
0000
0100
0000
0010
0000
,
1000
0000
0000
0001
0000
0000
0010
0000
0000
0100
0000
0000
1000
0000
0000
0001
0000
0000
0010
0000
0000
0100
0000
0000
1000
0000
0000
0000
0000
0000
0000
0000
0000
0000
0000
0000
0110
0000
0000
0000
0000
0000
0100
0000
0001
0000
1000
0000
,
0001
0000
0000
0100
0000
0000
0010
0000
0000
1000
0000
0000
0010
0000
0000
0100
0000
0000
0001
0000
0000
1000
0000
0000
0001
0000
0000
0100
0000
0000
0010
0000
0000
1000
0000
0000
0001
0000
0000
0000
0000
0000
0001
0000
1000
0000
0001
0000
,
2000
3000
0000
0000
0200
0300
0000
0000
0020
0030
0000
0000
0200
0300
0000
0000
0002
0003
0000
0000
0200
0300
0000
0000
0020
0030
0000
0000
0200
0300
0000
0000
2000
0000
0000
0000
0000
0000
0000
0000
0000
0000
0000
0000
0000
0000
0000
0000
3000
0000
0000
0000
0000
0000
0000
0000
0000
0000
0000
0000
0000
0000
0000
0000
,
0001
1000
0010
1000
0001
0000
1000
0000
0100
0000
0010
0001
0000
1000
0001
0000
,
1000
0100
0010
0100
1000
0000
0001
1000
0010
0000
1000
0100
0000
0001
0100
0000
,
1000
0010
1000
0100
1000
0000
0100
0000
0010
0000
0001
0100
0000
1000
0100
0000
,
0001
0010
0100
1000
0001
0000
1000
0010
0100
0000
0001
0100
0000
1000
0100
0000
,
0001
0100
0010
1000
0001
0000
0100
0010
1000
0000
0100
1000
0000
0001
0100
0000
,
0010
1000
0001
1000
0100
0000
0010
0001
1000
0000
0001
0010
0000
0100
0010
0000
,
0001
0100
1000
0100
0010
0000
1000
0100
0010
0000
0001
0100
0000
0010
1000
0000
,
0001
0100
0010
0001
0010
1000
0001
0000
1000
0100
0001
0100
2000
0000
0000
0000
,
3001
1000
0010
1000
0001
1000
0100
0010
0001
0000
0000
0101
0000
0000
1010
0000
,
1000
0100
0010
0001
1000
0010
0100
0001
1000
0000
0000
1100
0000
0000
0110
0000
,
0001
0100
0010
0100
0001
0010
0100
0010
0001
0000
0000
0011
0000
0000
1001
0000
,
0001
0010
0100
0000
1000
0010
0100
0000
0001
0100
1000
0100
0002
0000
0000
0000
,
1003
0000
0000
0000
0000
0000
0100
0000
0000
0000
0000
0000
0010
0000
0000
0000
0000
0000
0001
0000
0000
0000
0000
0000
1000
0000
0000
0010
0000
0000
1000
0000
0000
0100
0000
0000
1000
0000
0001
0000
0010
0000
0001
0000
0100
0000
0001
0000
,
0100
0000
0000
0000
0000
0000
0010
0000
0000
0000
0000
0000
1000
0000
0000
0000
0000
0000
0100
0000
0000
0000
0000
0000
1000
0000
0000
0010
0000
0000
1000
0000
0000
0100
0000
0000
0010
0000
0001
0000
1000
0000
0001
0000
0100
0000
0010
0000
,
1000
0000
0000
0100
0000
0000
0010
0000
0000
0001
0000
0000
0100
0000
0000
0010
0000
0000
1000
0000
0000
0100
0000
0000
0010
0000
0000
0001
0000
0000
0100
0000
0000
0010
0000
0000
1000
0000
0100
0000
1000
0000
0001
0000
0100
0000
0010
0000
,
0100
0000
0000
0001
0000
0000
0010
0000
0000
0100
0000
0000
0010
0000
0000
0001
0000
0000
1000
0000
0000
0010
0000
0000
0100
0000
0000
0000
0000
0000
0010
0000
1000
0000
0001
0000
0010
0000
0100
0000
1000
0000
0001
0000
0000
0000
0000
0000
,
1001
0000
0000
0000
;

//--------------- dance-double - Fred-104 ----------------
#NOTEDATA:;
#STEPSTYPE:dance-double;
#DESCRIPTION:Fred-104;
#DIFFICULTY:Easy;
#METER:13;
#CREDIT:Fred-104;
#NOTES:
00000000
00000000
00000000
00000000
,
00000000
00000000
00000000
00000000
,
00000000
00000000
00000000
00000000
,
00001000
00000000
00010000
00000000
00001000
00100000
00010000
00000000
,
10000000
00000000
01000000
00000000
00100000
00010000
00100000
00000000
,
00001000
00000000
00010000
00000000
00000100
00010000
00000100
00000000
,
00010000
00001000
00010000
00000000
00000010
00001000
00000020
00000000
,
00010030
00000000
00001000
00000000
00100000
00010000
00100000
00000000
,
00001000
00000000
00100000
00000000
00010000
10000000
00010000
00000000
,
01000000
00000000
00100000
00000000
10000000
01000000
00100000
00000000
,
00001000
00010000
00001000
00010000
00001000
00010000
00002000
00000000
,
00003000
00000000
00010000
00000000
00000000
00001000
00000000
00000000
00000100
00000000
00000000
00000001
00000000
00000000
00001000
00000000
,
00000000
00000000
00000001
00000000
00000000
00000010
00000000
00000000
00000100
00000000
00000000
00010000
00000000
00000000
00001000
00000000
,
00000000
00000000
00100000
00000000
00000000
00010000
00000000
00000000
10000000
00000000
00000000
00100000
00000000
00000000
01000000
00000000
,
00000000
00000000
00010000
00000000
00000000
10000000
00000000
00000000
01000000
00000000
00000000
00100000
00000000
00000000
00001000
00000000
,
00010000
00000000
00000100
00000000
00001000
00000000
00000100
00000000
00000010
00000000
00000000
00000001
00000000
00000000
00001000
00000000
,
00000001
00000000
00000100
00000000
00000010
00000000
00001000
00000000
00000001
00000000
00000000
00000010
00000000
00000000
00000100
00000000
,
00010000
00001000
00100000
00000000
00010000
10000000
00100000
00000000
,
10000000
01000000
00100000
01000000
10000000
01000000
00100000
00000000
,
00012000
00000000
00023000
00000000
,
00030200
00000000
00000320
00000000
,
00000032
00000003
00000000
00000200
00000300
00000000
00002000
00003000
,
00000000
00020000
00030000
00000000
01000000
00000000
10000000
00000000
,
00020000
00000000
02030000
00000000
,
03200000
00000000
20300000
00000000
,
32000000
03000000
00000000
00020000
00030000
00000000
00002000
00003000
,
00000000
00000000
00000200
00000000
00000300
00000000
00000000
00000000
00001001
00000000
00000001
00000100
00000001
00000000
00000100
00000000
,
00000001
00000100
00000001
00000100
00000001
00000000
00001000
00000010
,
00001000
00000010
00001000
00000000
00000010
00000000
00010000
00001000
,
00010000
00000000
00100000
01000000
00100000
00000000
00010000
10000000
,
00010000
10000000
00010000
00000000
10000000
01000000
00100000
00010000
,
00100000
00010000
00100000
00001000
00010000
00000000
00000010
00010000
,
00001000
00010000
00001000
00000000
00010000
00000000
00000100
00001000
,
00000100
00000000
00000010
00000001
00000010
00000000
00000001
00000100
,
00001000
00010000
01000000
10000000
00020000
00000000
00000000
00000000
,
10030000
01000000
10000000
00100000
10000000
00100000
01000000
00000000
,
00010000
01000000
00010000
01000000
00100000
01000000
00010000
00000000
,
01000000
00100000
01000000
00001000
00010000
00001000
00100000
00000000
,
00001000
00010000
00000010
00000000
00010000
00001000
00010000
00000000
,
00000100
00001000
00000010
00001000
00000100
00001000
00000001
00000000
,
00001000
00000001
00000100
00000000
00000001
00001000
00000100
00000000
,
00001000
00000010
00010000
00001000
00100000
00010000
10000000
00000000
,
00010000
01000000
00100000
01000000
00010000
00000000
20000000
32000000
,
03100000
00001000
00010000
00000100
00010000
00001000
00010000
00000000
,
00000100
00001000
00000010
00000100
00000010
00001000
00000100
00000000
,
00000010
00000001
00000100
00000001
00000010
00000001
00001000
00000000
,
00000010
00010000
00001000
00010000
00000100
00010000
00001000
00000000
,
00010000
00001000
00100000
00010000
01000000
00100000
10000000
00000000
,
00010000
00100000
01000000
10000000
00100000
01000000
00010000
00000000
,
10000000
00010000
01000000
00001000
00100000
00001000
00010000
00000010
,
00001000
00000000
00000001
00000000
00000100
00000000
00000000
00000000
00000010
00000000
00000000
00000100
00000000
00000000
00000001
00000000
,
00000012
00000000
00000203
00000000
,
00002300
00000000
00023000
00000000
,
02030000
00000000
23000000
00000000
,
00020000
00000000
30030000
00000000
,
20000000
00000000
30200000
00000000
,
00320000
00000000
00032000
00000000
,
00003020
00000000
00000032
00000000
,
00002000
00000000
00003003
00000000
,
00000001
00000100
00000001
00000100
00001000
00000100
00001000
00000000
,
00010000
00001000
00010000
01000000
10000000
00000000
00010000
00000000
,
10000000
00100000
10000000
00100000
00010000
00001000
00010000
00000000
,
00001000
00000010
00001000
00000010
00000001
00000000
00001000
00000000
,
00000001
00000100
00000001
00000100
00000010
00001000
00000100
00000000
,
00010000
00001000
00100000
00010000
10000000
00000000
00100000
01000000
,
00010000
10000000
01000000
00100000
00001000
00010000
00001000
00000000
,
00022000
00000000
00033000
00000000
,
00001000
00000000
00010000
00000000
00100000
00000000
00000000
00000000
10000000
00000000
00000000
00010000
00000000
00000000
10000000
00000000
,
00010000
00000000
01000000
00000000
00100000
00000000
00000000
00000000
10000000
00000000
00000000
01000000
00000000
00000000
00100000
00000000
,
00001000
00000000
00010000
00000000
00000100
00000000
00000000
00000000
00010000
00000000
00000000
00000010
00000000
00000000
00001000
00000000
,
00000100
00000000
00010000
00000000
00001000
00000000
00000000
00000000
00010000
00000000
00000000
00000010
00000000
00000000
00001000
00000000
,
00000100
00000000
00001000
00000000
00000001
00000000
00000000
00000000
00000100
00000000
00000000
00000010
00000000
00000000
00001000
00000000
,
00000010
00000000
00010000
00000000
00001000
00000000
00000000
00000000
00100000
00000000
00000000
00010000
00000000
00000000
10000000
00000000
,
01000000
00000000
00100000
00000000
00001000
00000000
00000000
00000000
00010000
00000000
00000000
00000100
00000000
00000000
00010000
00000000
,
00001000
00001000
00010000
00010000
00001000
00010000
00011000
00000000
,
00010000
00001000
00000010
00000000
00000001
00000100
00001000
00000000
,
00010000
00001000
00000010
00000001
00000100
00001000
00010000
00000000
,
00100000
01000000
10000000
00000000
00010000
01000000
00100000
00000000
,
10000000
01000000
00100000
00001000
00010000
00001000
00011000
00000000
,
00010000
00001000
00000100
00000001
00001000
00000100
00000010
00000000
,
00000001
00000100
00001000
00010000
00100000
10000000
00010000
00000000
,
10000000
01000000
00100000
01000000
00100000
00001000
00010000
00001000
,
00010000
00000100
00001000
00000010
00000100
00000001
00001000
00000000
,
00001001
00000000
00000000
00000000
;

//--------------- dance-double - Fred-104 ----------------
#NOTEDATA:;
#STEPSTYPE:dance-double;
#DESCRIPTION:Fred-104;
#DIFFICULTY:Medium;
#METER:16;
#CREDIT:Fred-104;
#NOTES:
00000000
00000000
00000000
00000000
,
00000000
00000000
00000000
00000000
,
00000000
00000000
00000000
00000000
,
10000000
00000000
00010000
00000000
10000000
00000000
00100000
10000000
00100000
00000000
01000000
00000000
00020000
00000000
00000000
00000000
,
10030000
00000000
01000000
00000000
00100000
00000000
00001000
00010000
00001000
00000000
01000000
00000000
00002000
00000000
00000000
00000000
,
00013000
00000000
00000100
00000000
00001000
00000000
00000010
00000100
00000010
00000000
00001000
00000000
00000200
00000000
00000000
00000000
,
00000310
00000000
00000001
00000000
00001000
00000000
00000001
00000100
00000001
00000000
00000100
00000000
00000020
00000000
00000000
00000000
,
00001030
00000000
00000001
00000000
00000010
00000000
00000100
00001000
00000100
00000000
00010000
00000000
00002000
00000000
00000000
00000000
,
00013000
00000000
00000100
00000000
00001000
00000000
00000010
00000100
00000010
00000000
00001000
00000000
00000200
00000000
00000000
00000000
,
00010300
00000000
00001000
00000000
00100000
00000000
00010000
01000000
00010000
00000000
00100000
00000000
00002000
00000000
00000000
00000000
,
00013000
00000000
00010000
00000000
00001000
00000000
00001000
00000000
00010000
00001000
00010000
00001000
00020000
00000000
00000000
00000000
,
00031000
00000000
00100000
00010000
00000000
00100000
00010000
00000000
10000000
00000000
00000000
00100000
00000000
00000000
01000000
00000000
,
00100000
00000000
10000000
01000000
00000000
01000000
00100000
00000000
00001000
00000000
00000000
00010000
00000000
00000000
00001000
00000000
,
00010000
00000000
00000100
00001000
00000000
00000100
00001000
00000000
00000100
00000000
00000000
00000010
00000000
00000000
00000001
00000000
,
00001000
00000000
00000001
00000100
00000000
00000001
00000010
00000000
00000001
00000000
00000100
00000010
00000100
00000010
00000100
00000000
,
00000001
00000000
00001000
00000010
00000000
00000100
00000010
00000000
00001000
00000000
00000000
00000100
00000000
00000000
00010000
00000000
,
00001000
00000000
00010000
00000100
00000000
00001000
00000100
00000000
00010000
00000000
00000000
00001000
00000000
00000000
01000000
00000000
,
00001000
00001000
00010000
00010000
00001000
00001000
00100000
00100000
,
00010000
00000000
01000000
00000000
00100000
00000000
10000000
00000000
00010000
10000000
00010000
10000000
00010000
10000000
00010000
10000000
,
00020000
20030000
32000000
03020000
,
00032000
00003020
00000032
00000000
,
00001003
00000100
00000000
00000100
00000001
00000000
00000001
00000010
,
00000000
00000010
00001000
00000000
00010000
00000000
00001000
00010000
,
00002000
00023000
00230000
20300000
,
30020000
02030000
03200000
00000000
,
10300000
01000000
00000000
00010000
00001000
00000000
00000010
00000001
,
00000000
00000000
00000100
00000000
00001000
00000000
00000000
00000000
00021000
00000000
00032000
00023000
00031000
00000000
00001000
00000000
,
00001000
00001000
00001000
00001000
00001000
00100000
00010000
00010000
,
00010000
00010000
00010000
00000000
01000000
00100000
10000000
10000000
,
10000000
10000000
10000000
10000000
10000000
01000000
00100000
00100000
,
00100000
00100000
00100000
00001000
00010000
00010000
00000100
00000100
,
00000100
00000100
00000100
00000100
00000100
00001000
00000001
00000001
,
00000001
00000001
00000001
00000000
00000100
00000010
00001000
00001000
,
00001000
00000000
00001000
00000000
00001000
00000000
00001000
00000000
00001000
00000000
00000100
00000000
00010000
00001000
00010000
00001000
,
00010000
00001000
00010000
00001000
00010000
00000000
00001000
00000000
00020000
00000000
00000000
00000000
00000000
00000000
00000000
00000000
,
00031000
00010000
00100000
10000000
00010000
01000000
00100000
10000000
,
01000000
00100000
00001000
00010000
00001000
00100000
00001000
00000000
,
00010000
00000100
00001000
00000100
00000010
00000001
00001000
00000001
,
00000100
00001000
00010000
01000000
10000000
00010000
01000000
00000000
,
00100000
10000000
01000000
10000000
00100000
01000000
00100000
00001000
,
00010000
00001000
00000100
00001000
00000010
00000100
00000001
00000000
,
00001000
00000100
00000010
00000001
00000100
00001000
00010000
00100000
,
10000000
00000000
00000000
00000000
00000000
00000000
00000000
00000000
00010000
00000000
00000000
00000000
00000000
00000000
00000000
00000000
01000000
00000000
00000000
00000000
00100000
00000000
00000000
00000000
00000000
00000000
00000000
00000000
01000000
00000000
00000000
00000000
00100000
00000000
00000000
00000000
00000000
00000000
00000000
00000000
10000000
00000000
00000000
00000000
01000000
00000000
00000000
00000000
00200000
00300000
00000000
00000000
00000000
00000000
00000000
00000000
00002000
00003000
00000000
00000000
00000000
00000000
00000000
00000000
,
00010000
00001000
00010000
00000000
00000100
00001000
00000100
00000000
00010000
00001000
00010000
00000000
00000010
00001000
00000010
00000000
,
00000100
00000010
00001000
00000100
00000010
00000001
00001000
00000010
,
00010000
00001000
00010000
00000000
00000100
00001000
00000100
00000000
00010000
00001000
00010000
00000000
00001000
01000000
00001000
00000000
,
00100000
00000000
00010000
00000000
10000000
00000000
00010000
00000000
01000000
00100000
01000000
00100000
01000000
00100000
01000000
00000000
,
00100000
10000000
00100000
00000000
10000000
01000000
10000000
00000000
00010000
01000000
00010000
00000000
00100000
00001000
00100000
00000000
,
00001000
00010000
00000010
00001000
00000001
00000100
00001000
00010000
,
00001000
00001000
00010000
00010000
00001000
00100000
00010000
10000000
,
00010000
01000000
00010000
01000000
00010000
01000000
00010000
01000000
00100000
00000000
10000000
01000000
00000000
00100000
00001000
00000000
,
00021000
00000000
00030200
00000000
,
00002300
00000000
00003020
00000000
,
00000230
00000000
00000302
00000000
,
00000023
00000000
00000230
00000300
,
00020100
00000000
00032000
00000000
,
00203000
00000000
00320000
00000000
,
20030000
00000000
30200000
00000000
,
02300000
00000000
00200000
03300000
,
01000000
01000000
01000000
01000000
01000000
01000000
01000000
00100000
,
10000000
10000000
10000000
10000000
10000000
00000000
01000000
00100000
,
00001000
00001000
00001000
00001000
00001000
00001000
00001000
00010000
,
00000100
00000100
00000100
00000100
00000100
00001000
00000010
00000010
,
00000100
00000100
00000100
00000100
00000100
00000100
00000100
00000001
,
00000010
00000010
00000010
00000010
00000010
00000000
00000100
00001000
,
00000100
00000100
00000100
00000100
00000100
00000100
00000100
00010000
,
00002000
00003000
00000000
00000000
00020000
00030000
00000000
00000000
00002000
00003000
00000000
00000000
00020000
00030000
00000000
00000000
00002000
00003000
00000000
00000000
00020000
00030000
00000000
00000000
00002000
00003000
00000000
00000000
00020000
00030000
00000000
00000000
00002000
00000000
00000000
00000000
00000000
00000000
00000000
00000000
00000000
00000000
00000000
00000000
00000000
00000000
00000000
00000000
00003000
00000000
00000000
00000000
00000000
00000000
00000000
00000000
00000000
00000000
00000000
00000000
00000000
00000000
00000000
00000000
,
00100000
00000000
00001000
00000000
00010000
00000000
00001000
00000000
01000000
00000000
00000000
00001000
00000000
00000000
00010000
00000000
,
00000100
00000000
00001000
00000000
00000010
00000000
00000100
00000000
00000010
00000000
00000000
00001000
00000000
00000000
00010000
00000000
,
00100000
00000000
01000000
00000000
00001000
00000000
00010000
00000000
00001000
00000000
00000000
00000100
00000000
00000000
00000010
00000000
,
00010000
00000000
00001000
00000000
00010000
00000000
00000100
00000000
00001000
00000000
00000000
00000010
00000000
00000000
00010000
00000000
,
00001000
00000000
00100000
00000000
01000000
00000000
00100000
00000000
00010000
00000000
00000000
00001000
00000000
00000000
00000100
00000000
,
00000010
00000000
00001000
00000000
00010000
00000000
01000000
00000000
00001000
00000000
00000000
00010000
00000000
00000000
00000100
00000000
,
00001000
00000000
00000010
00000000
00010000
00000000
00001000
00000000
00100000
00000000
00000000
00001000
00000000
00000000
00010000
00000000
,
00001000
00000000
00001000
00000000
00010000
00000000
00010000
00000000
00001000
00010000
00001000
00010000
00002000
00000000
00000000
00000000
,
00103000
00001000
00000000
00010000
00001000
00000000
00100000
00000000
00010000
00000000
01000000
00100000
00000000
00100000
10000000
00000000
,
01000000
00000000
00100000
00010000
00100000
00000000
00001000
00010000
00002000
00000000
00000000
00203000
00000000
00000000
00302000
00000000
,
00013000
00000100
00000000
00001000
00000100
00000000
00010000
00000000
00001000
00000000
00000100
00000010
00000000
00000010
00000001
00000000
,
00001000
00000000
00001000
00000000
00000001
00000000
00000001
00000000
00000100
00000010
00000100
00000010
00000200
00000000
00000000
00000000
,
00000301
00000000
00000010
00000000
00000100
00000000
00010000
00000000
00001000
00010000
00001000
00010000
00001000
00000000
00100000
00000000
,
00010000
00000000
10000000
00000000
00100000
00000000
01000000
00000000
00010000
01000000
00010000
01000000
00100000
00000000
10000000
00000000
,
01000000
00100000
01000000
00000000
00100000
00010000
00100000
00000000
00001000
00010000
00001000
00010000
00001000
00000000
00010000
00000100
,
00001000
00000010
00001000
00000010
00001000
00000001
00000100
00000001
00000100
00000000
00000010
00001000
00000010
00010000
00001000
00000000
,
00011000
00000000
00000000
00000000
;

//--------------- dance-double - Fred-104 ----------------
#NOTEDATA:;
#STEPSTYPE:dance-double;
#DESCRIPTION:Fred-104;
#DIFFICULTY:Hard;
#METER:18;
#CREDIT:Fred-104;
#NOTES:
00000000
00000000
00000000
00000000
,
00000000
00000000
00000000
00000000
,
00000000
00000000
00000000
00000000
,
00000001
00000100
00001000
00010000
01000000
10000000
00020000
00000000
,
10030000
00100000
00010000
00001000
00000010
00000001
00002000
00000000
,
00003001
00000010
00001000
00010000
00100000
10000000
00020000
00000000
,
10030000
01000000
00010000
00001000
00000100
00000001
00002000
00000000
,
00003001
00000010
00000100
00010000
00001000
00100000
01000000
10000000
,
00010000
10000000
00100000
01000000
00001000
00010000
00000010
00000100
,
00000001
00000010
00000100
00000010
00000001
00001000
00000010
00010000
,
00001000
00000000
00100000
00000000
00010000
00000000
10000000
00000000
00010000
00100000
01000000
10000000
00020000
00000000
00000000
00000000
,
10030000
00000000
01000000
00100000
00000000
00100000
00001000
00000000
00020000
00000000
00000000
00030200
00000000
00000000
00002300
00000000
,
00003001
00000000
00000010
00000100
00000000
00000010
00000001
00000000
00000200
00000000
00000000
00002300
00000000
00000000
00003200
00000000
,
00000301
00000000
00000010
00000100
00000000
00010000
00001000
00000000
00020000
00000000
00000000
00030020
00000000
00000000
00002030
00000000
,
00003100
00000000
00010000
00001000
00000000
01000000
00001000
00000000
00010000
00001000
00010000
00001000
00100000
00010000
10000000
00000000
,
00010000
00000000
10000000
01000000
00000000
00100000
01000000
00000000
10000000
00100000
00000000
01000000
00100000
00000000
10000000
00000000
,
01000000
00000000
00100000
00001000
00000000
00010000
00001000
00000000
01000000
00001000
00000000
00010000
00001000
00000000
00100000
00000000
,
00001000
00001000
00010000
00010000
00000010
00000010
00001000
00001000
,
00000001
00000100
00000001
00000100
00000001
00000100
00000001
00001000
00000001
00000010
00000001
00000010
00000001
00000010
00000100
00001000
,
00000100
00000000
00000010
00000000
00000001
00000000
00001000
00000001
00001000
00000000
00000010
00000000
00010000
00000000
00001000
00100000
,
00001000
01000000
00100000
01000000
00020000
00000000
00000000
00000000
,
10030000
01000000
00010000
00001000
00010000
00100000
10000000
01000000
,
00010000
00001000
00010000
00100000
20000000
32000000
03200000
00302000
,
00013000
00000000
00000100
00000000
00001000
00000000
00000010
00000100
00000010
00000000
00001000
00000000
00000001
00000000
00000100
00000010
,
00000100
00000001
00000010
00000100
00002000
00000000
00000000
00000000
,
00003001
00000010
00001000
00010000
00001000
00000100
00000001
00000010
,
00001000
00000000
00010000
00000000
00001000
00000000
00000100
00000000
00000002
00000000
00000023
00002030
00013000
00001000
00010000
00001000
,
00010000
00001000
00010000
00001000
00010000
00001000
00010000
00001000
00010000
00000000
00001000
00100000
00010000
01000000
00010000
01000000
,
00010000
01000000
00010000
01000000
00100000
00000000
00000000
00000000
10000000
00000000
00010000
00100000
00001000
00010000
00001000
00010000
,
00001000
00010000
00001000
00010000
00001000
00010000
00001000
00010000
00000100
00000000
00001000
00000010
00000100
00000001
00000100
00000001
,
00000100
00000001
00000100
00000001
00000100
00000000
00000010
00001000
00000001
00001000
00000001
00001000
00000010
00000100
00000010
00000100
,
00000010
00000100
00000010
00000100
00000010
00000100
00000010
00000100
00000001
00000000
00001000
00000010
00010000
00001000
00010000
00001000
,
00010000
00001000
00010000
00001000
00010000
00000000
00000000
00000000
00001000
00000000
00100000
00010000
10000000
00100000
10000000
00100000
,
10000000
00100000
10000000
00100000
10000000
00100000
10000000
00100000
01000000
00000000
00010000
00100000
00001000
00010000
00000010
00001000
,
00000010
00010000
00001000
00010000
00000010
00000000
00001000
00000010
00000200
00000000
00000000
00000000
00000000
00000000
00000000
00000000
,
00000301
00000100
00000001
00000100
00001000
00000100
00000010
00000001
,
00001000
00000001
00000010
00001000
00010000
00100000
10000000
00010000
,
01000000
00100000
10000000
00010000
01000000
00100000
00001000
00010000
,
00000100
00000000
00000010
00000000
00000001
00000000
00001000
00000000
00000001
00000100
00000001
00000100
00000001
00000010
00000100
00001000
,
00000100
00001000
00000001
00000010
00001000
00010000
00100000
10000000
,
01000000
00010000
00001000
00100000
01000000
10000000
00010000
01000000
,
00100000
10000000
01000000
00010000
00001000
00000010
00000001
00001000
,
00000001
00000000
00000000
00000000
00000000
00000000
00000000
00000000
00000100
00000000
00000000
00000000
00000000
00000000
00000000
00000000
00000010
00000000
00000000
00000000
00001000
00000000
00000000
00000000
00000010
00000000
00000000
00000000
00000100
00000000
00000000
00000000
00000001
00000000
00000000
00000000
00000010
00000000
00000000
00000000
00000100
00000000
00000000
00000000
00001000
00000000
00000000
00000000
00000200
00000300
00000000
00000000
00000000
00000000
00000000
00000000
00020000
00030000
00000000
00000000
00000000
00000000
00000000
00000000
,
00001000
00100000
00010000
00000000
01000000
00100000
10000000
00000000
00010000
01000000
00010000
00000000
10000000
00100000
10000000
00000000
,
01000000
00100000
00010000
00000000
00100000
00001000
00010000
00000000
00001000
00010000
00000100
00001000
00000001
00000100
00000001
00000000
,
00000010
00000001
00000100
00000000
00000010
00001000
00000100
00000000
00000010
00000001
00001000
00000000
00000010
00010000
00001000
00000000
,
00010000
00001000
00100000
00000000
00010000
10000000
00100000
00000000
10000000
01000000
00100000
00010000
00100000
01000000
10000000
00100000
,
01000000
00001000
00010000
00000000
00000100
00001000
00000010
00000000
00001000
00000100
00000010
00000000
00000001
00001000
00000010
00000000
,
00001000
00000001
00000100
00000000
00000010
00010000
00001000
00000000
00100000
00010000
10000000
01000000
10000000
00100000
01000000
00000000
,
00001000
00000000
00001000
00000000
00010000
00000000
00010000
00000000
00000100
00001000
00000100
00001000
00000001
00000100
00000001
00000100
,
00000001
00000010
00000001
00001000
00000010
00010000
00001000
00100000
00010000
00000000
10000000
00010000
00000000
01000000
00100000
10000000
,
00200000
00000000
20300000
00000000
,
32000000
00000000
03200000
00000000
,
00302000
00000000
00023000
00000000
,
00030020
00000000
00002030
00000000
,
00003002
00000000
00000203
00000000
,
00002300
00000000
00023000
00000000
,
02030000
00000000
23000000
00000000
,
30020000
00000000
02000000
03030000
,
00010000
10000000
00010000
10000000
00010000
10000000
00010000
10000000
00010000
10000000
00010000
10000000
00010000
00000000
10000000
01000000
,
00100000
00010000
00100000
00010000
00100000
00010000
00100000
00010000
00100000
00000000
00000000
00000000
00001000
00000000
00010000
00000100
,
00001000
00000100
00001000
00000100
00001000
00000100
00001000
00000100
00001000
00000100
00001000
00000100
00001000
00000000
00000001
00000100
,
00000010
00000100
00000010
00000100
00000010
00000100
00000010
00000100
00000010
00000000
00001000
00000010
00010000
00001000
00010000
00001000
,
00010000
00000100
00010000
00000100
00010000
00000100
00010000
00000100
00010000
00000100
00010000
00000100
00010000
00000000
00001000
01000000
,
00001000
00010000
00001000
00010000
00001000
00010000
00001000
00010000
00001000
00000000
00000000
00000000
00100000
00000000
00010000
10000000
,
01000000
00100000
01000000
00100000
01000000
00100000
01000000
00100000
01000000
00100000
01000000
10000000
00010000
00000000
00100000
00010000
,
00200000
00300000
00000000
00000000
00002000
00003000
00000000
00000000
00020000
00030000
00000000
00000000
00000020
00000030
00000000
00000000
00002000
00003000
00000000
00000000
00000020
00000030
00000000
00000000
00020000
00030000
00000000
00000000
00002000
00003000
00000000
00000000
00020000
00000000
00000000
00000000
00000000
00000000
00000000
00000000
00000000
00000000
00000000
00000000
00000000
00000000
00000000
00000000
00000000
00000000
00000000
00000000
00000000
00000000
00000000
00000000
00000000
00000000
00000000
00000000
00000000
00000000
00000000
00000000
,
00031000
00010000
00000000
00000010
00010000
00000000
00001000
00000000
00020000
00000000
00000000
00030200
00000000
00000000
00002300
00000000
,
00003001
00000000
00000010
00000100
00001000
00000000
00000001
00000100
00000020
00000000
00000000
00020030
00000000
00000000
00032000
00000000
,
00103000
00001000
00000000
00010000
00001000
00000000
01000000
00000000
00002000
00000000
00000000
00203000
00000000
00000000
00320000
00000000
,
10030000
00010000
00000000
10000000
01000000
00000000
10000000
00100000
02000000
00000000
00000000
03200000
00000000
00000000
20300000
00000000
,
31000000
00100000
00000000
00001000
00010000
00000000
00000100
00000000
00000020
00000000
00000000
00000230
00000000
00000000
00020300
00000000
,
00031000
00000000
00010000
00000010
00001000
00000000
00000100
00010000
00002000
00000000
00000000
02003000
00000000
00000000
03002000
00000000
,
00013000
00000100
00000000
00001000
00000010
00000000
00010000
00000000
00002000
00000000
00000000
00203000
00000000
00000000
00320000
00000000
,
10030000
00000000
10000000
00000000
00010000
00000000
00010000
00000000
01000000
00100000
01000000
00100000
02000000
00000000
00000000
00000000
,
03010000
10000000
00100000
10000000
00010000
00000000
10000000
01000000
00100000
00000000
00001000
00010000
00000000
00000010
00010000
00000000
,
00000100
00001000
00000010
00000100
00000001
00000000
00001000
00000100
00000002
00000000
00000000
00000203
00000000
00000000
00002300
00000000
,
00003010
00001000
00000001
00001000
00000100
00000000
00000010
00000001
00000100
00000000
00000010
00010000
00000000
00001000
00100000
00000000
,
00010000
00000000
00010000
00000000
10000000
00000000
10000000
00000000
00010000
10000000
01000000
00100000
00002000
00000000
00000000
00000000
,
00013000
00000000
00001000
00000000
00000100
00000000
00000001
00000000
00001000
00000001
00001000
00000001
00001000
00000000
00000010
00000000
,
00000100
00000000
00000001
00000000
00000010
00000000
00001000
00000000
00010000
00001000
00010000
00001000
00010000
00000000
00001000
00000000
,
00100000
00010000
00100000
00010000
01000000
00100000
01000000
00100000
10000000
01000000
00100000
00010000
10000000
00000000
00100000
01000000
,
00001000
00010000
00000100
00001000
00000010
00001000
00000100
00000010
00000001
00000000
00000100
00001000
00010000
01000000
10000000
00000000
,
10010000
00000000
00000000
00000000
;

//--------------- dance-double - Fred-104† ----------------
#NOTEDATA:;
#STEPSTYPE:dance-double;
#DESCRIPTION:Fred-104†;
#DIFFICULTY:Challenge;
#METER:19;
#CREDIT:Fred-104†;
#NOTES:
00000000
00000000
00000000
00000000
,
00000000
00000000
00000000
00000000
,
00000000
00000000
00000000
00000000
,
00010000
00001000
00010000
00000000
00000010
00000000
00001000
00000100
00001000
00000000
00000100
00000000
00020000
00000000
00000000
00000000
,
00030010
00001000
00000010
00000000
00001000
00000000
00000100
00010000
00000100
00000000
00010000
00000000
00002000
00000000
00000000
00000000
,
00103000
00010000
00100000
00000000
00010000
00000000
10000000
00100000
10000000
00000000
01000000
00000000
00200000
00000000
00000000
00000000
,
00301000
00010000
00001000
00000000
00010000
00000000
00000010
00001000
00000010
00000000
00000100
00000000
00000001
00000100
00000001
00000100
,
00000010
00001000
00000001
00000000
00001000
00000000
00000001
00000010
00000100
00000000
00010000
00000000
00001000
00010000
00001000
00000000
,
00100000
00010000
10000000
00000000
00010000
00000000
10000000
00100000
01000000
00000000
00010000
00000000
10000000
01000000
00100000
00000000
,
00001000
00010000
00000100
00000000
00010000
00000000
00000010
00001000
00000100
00000000
00010000
00000000
00001000
00010000
00001000
00000000
,
00010000
00000000
00010000
00000000
00001000
00000000
00001000
00000000
00010000
00000010
00001000
00000100
00020000
00000000
00000000
00000000
,
00031000
00000000
00100000
00010000
00000000
10000000
00100000
00000000
10000000
01000000
00100000
01000000
10000000
00000000
00100000
00000000
,
01000000
00000000
00010000
00100000
00000000
00100000
01000000
00000000
00001000
00010000
00001000
00100000
00001000
00000000
00010000
00000000
,
00000100
00000000
00001000
00000100
00000000
00000010
00000100
00000000
00001000
00000001
00000100
00000001
00001000
00000000
00000001
00000000
,
00001000
00000000
00000001
00000010
00000100
00001000
00000100
00000000
00010000
00000010
00001000
00000010
00010000
00001000
00010000
00000000
,
00000100
00000000
00001000
00000010
00000100
00000010
00001000
00000000
00000100
00010000
00001000
00010000
00000100
00000000
00010000
00000000
,
00001000
00000000
00100000
00010000
10000000
00010000
00100000
00000000
00001000
01000000
00010000
01000000
00001000
00000000
00010000
00000000
,
00000010
00000010
00001000
00001000
00000001
00000001
00000100
00000100
,
00000001
00000010
00000100
00010000
00001000
00010000
00001000
00100000
00010000
10000000
00100000
01000000
00010000
10000000
01000000
00100000
,
00010000
00000000
10000000
00000000
01000000
00000000
00100000
00010000
00100000
00000000
00001000
00000000
00010000
00000000
00000010
00001000
,
00000010
00000000
00000100
00000000
00000001
00000000
00001000
00000000
00000001
00000010
00000100
00001000
00000001
00000010
00000100
00001000
,
00000001
00000010
00001000
00010000
01000000
10000000
10000000
00100000
,
00010000
00001000
00000100
00000001
00002000
00003200
00000320
00000032
,
00001003
00000000
00000010
00000000
00010000
00000000
00001000
00100000
00001000
00000000
00100000
00000000
00010000
00000000
10000000
01000000
,
10000000
00000000
01000000
00000000
00100000
00000000
00001000
00000000
00010000
00001000
00100000
00010000
10000000
00100000
01000000
00010000
,
10000000
01000000
00010000
00001000
00000010
00000001
00000001
00000100
,
00001000
00000000
00010000
00000000
00100000
00000000
10000000
00000000
10020000
00000000
02030000
03200000
10300000
01000000
00100000
00010000
,
10000000
01000000
00100000
00010000
10000000
01000000
00100000
00010000
10000000
00000000
00010000
01000000
00001000
00010000
00001000
01000000
,
00001000
00010000
00001000
01000000
00001000
00000000
00000000
00000000
00011000
00000000
00010000
00000010
00001000
00000010
00000100
00000010
,
00001000
00000010
00000100
00000010
00001000
00000010
00000100
00000010
00001000
00000000
00000001
00000010
00000100
00001000
00000010
00001000
,
00000100
00001000
00000010
00001000
00000100
00000000
00010000
00001000
00100000
00010000
10000000
00100000
10000000
01000000
00100000
01000000
,
10000000
01000000
00100000
01000000
00100000
00010000
10000000
00100000
01000000
00000000
00010000
00100000
00001000
00010000
00001000
01000000
,
00001000
00010000
00001000
01000000
00001000
00000000
00000000
00000000
00011000
00000000
00010000
00000100
00001000
00000001
00000100
00000001
,
00001000
00000001
00000100
00000001
00001000
00000100
00000010
00000001
00001000
00000000
00000001
00000100
00000010
00001000
00000100
00010000
,
00001000
00100000
00010000
01000000
00100000
00000000
10000000
00010000
02000000
00000000
00000000
00000000
00000000
00000000
00000000
00000000
,
03001000
00010000
00001000
00010000
00001000
00100000
00001000
00100000
00010000
01000000
00010000
01000000
00100000
10000000
00100000
10000000
,
01000000
00100000
01000000
00100000
00010000
00001000
00010000
00001000
00000100
00000010
00000100
00000010
00000001
00000000
00001000
00000000
,
00000001
00000100
00000001
00000100
00000010
00001000
00000010
00001000
00000100
00010000
00000100
00010000
00001000
00010000
00001000
00010000
,
00000010
00010000
00000010
00010000
00001000
00100000
00001000
00100000
00010000
10000000
00010000
10000000
01000000
00100000
00001000
00000000
,
00010000
00000100
00001000
00000100
00010000
00000100
00001000
00000100
00010000
00000010
00001000
00000010
00000100
00000010
00001000
00000010
,
00000100
00000001
00000100
00000001
00000010
00000001
00001000
00000001
00000010
00000001
00001000
00000001
00000100
00000000
00000010
00000000
,
00010000
00001000
00010000
00000100
00010000
00001000
00100000
00001000
00010000
00001000
00100000
00010000
10000000
00010000
01000000
00100000
,
10000000
00000000
00000000
00000000
00000000
00000000
00000000
00000000
11000000
00000000
00000000
00000000
00000000
00000000
00000000
00000000
01000000
00000000
00000000
00000000
00100000
00000000
00000000
00000000
00010000
00000000
00000000
00000000
10000000
00000000
00000000
00000000
00010000
00000000
00000000
00000000
00000000
00000000
00000000
00000000
10000000
00000000
00000000
00000000
01000000
00000000
00000000
00000000
00200000
00300000
00000000
00000000
00000000
00000000
00000000
00000000
00002000
00003000
00000000
00000000
00000000
00000000
00000000
00000000
,
00010000
00001000
00010000
00001000
00010000
00000100
00010000
00000100
00001000
00000100
00001000
00000100
00000010
00000001
00000010
00000001
,
00001000
00000001
00000010
00000100
00001000
00000100
00010000
00001000
00100000
00010000
00100000
01000000
10000000
00010000
01000000
00100000
,
10000000
01000000
10000000
01000000
00100000
01000000
00100000
01000000
10000000
00010000
10000000
00010000
10000000
00100000
10000000
00100000
,
01000000
00010000
00100000
00001000
00010000
00000010
00001000
00000100
00010000
00000100
00001000
00000010
00000100
00000000
00000001
00000000
,
00000010
00000001
00000010
00000001
00000010
00000100
00000010
00000100
00001000
00000100
00001000
00000100
00001000
00000001
00001000
00000001
,
00001000
00000010
00010000
00001000
00010000
00000100
00010000
00001000
00100000
00010000
00100000
01000000
10000000
00010000
10000000
01000000
,
10000000
00000000
01000000
00000000
00100000
00000000
01000000
00000000
10000000
00100000
10000000
00100000
01000000
00010000
00100000
00001000
,
00010000
00000010
00001000
00000010
00010000
00001000
00010000
00000100
00001000
00000000
00000001
00000100
00000000
00001000
00000100
00000001
,
00000020
00000000
00000230
00000000
,
00002300
00000000
00023000
00032000
,
00023000
00000000
02030000
00000000
,
23000000
00000000
30200000
00320000
,
00032000
00000000
00003020
00000000
,
00000032
00000000
00000203
00002300
,
00023000
00000000
02030000
00000000
,
23000000
00000000
00020000
30030000
,
10000000
00000000
00000000
01000000
00000000
00000000
00100000
00000000
00000000
00010000
00000000
00000000
10000000
00000000
00000000
01000000
00000000
00000000
00100000
00000000
00000000
00010000
00000000
00000000
01000000
00000000
00000000
00001000
00000000
00000000
00010000
00000000
00000000
00001000
00000000
00000000
00100000
00000000
00000000
00000000
00000000
00000000
00001000
00000000
00010000
00000000
00000100
00000000
,
00001000
00000000
00000000
00000010
00000000
00000000
00000100
00000000
00000000
00000010
00000000
00000000
00001000
00000000
00000000
00000010
00000000
00000000
00000100
00000000
00000000
00000001
00000000
00000000
00001000
00000000
00000000
00000000
00000000
00000000
00000000
00000000
00000000
00000000
00000000
00000000
00000110
00000000
00000000
00000000
00000000
00000000
00000010
00000000
00000001
00000000
00000100
00000000
,
00000010
00000000
00000000
00001000
00000000
00000000
00000001
00000000
00000000
00000010
00000000
00000000
00000100
00000000
00000000
00001000
00000000
00000000
00000001
00000000
00000000
00000100
00000000
00000000
00000001
00000000
00000000
00000100
00000000
00000000
00000010
00000000
00000000
00001000
00000000
00000000
00000100
00000000
00000000
00000000
00000000
00000000
00000010
00000000
00001000
00000000
00000100
00000000
,
00010000
00000000
00000000
00000100
00000000
00000000
00010000
00000000
00000000
00001000
00000000
00000000
00010000
00000000
00000000
00001000
00000000
00000000
00100000
00000000
00000000
00010000
00000000
00000000
10000000
00000000
00000000
00000000
00000000
00000000
00010000
00000000
10000000
00000000
00100000
00000000
10000000
00000000
00000000
00010000
00000000
00000000
10000000
00000000
00000000
01000000
00000000
00000000
,
00010000
00000000
00000000
01000000
00000000
00000000
10000000
00000000
00000000
01000000
00000000
00000000
00010000
00000000
00000000
01000000
00000000
00000000
10000000
00000000
00000000
01000000
00000000
00000000
00010000
00000000
00000000
00001000
00000000
00000000
00010000
00000000
00000000
01000000
00000000
00000000
00010000
00000000
00000000
00000000
00000000
00000000
00010000
00000000
00000100
00000000
00001000
00000000
,
00000100
00000000
00000000
00000010
00000000
00000000
00000001
00000000
00000000
00001000
00000000
00000000
00000010
00000000
00000000
00000100
00000000
00000000
00000001
00000000
00000000
00001000
00000000
00000000
00000100
00000000
00000000
00000000
00000000
00000000
00000000
00000000
00000000
00000000
00000000
00000000
00001100
00000000
00000000
00000000
00000000
00000000
00000100
00000000
00000010
00000000
00000001
00000000
,
00000010
00000000
00000000
00000100
00000000
00000000
00000010
00000000
00000000
00000001
00000000
00000000
00000010
00000000
00000000
00000100
00000000
00000000
00010000
00000000
00000000
00001000
00000000
00000000
00100000
00000000
00000000
00010000
00000000
00000000
01000000
00000000
00000000
00100000
00000000
00000000
10000000
00000000
00000000
00000000
00000000
00000000
01000000
00000000
00010000
00000000
01000000
00000000
,
00020000
00030000
00000000
00000000
00002000
00003000
00000000
00000000
00020000
00030000
00000000
00000000
00002000
00003000
00000000
00000000
00000200
00000300
00000000
00000000
00000020
00000030
00000000
00000000
00000200
00000300
00000000
00000000
00000002
00000003
00000000
00000000
00002000
00000000
00000000
00000000
00000000
00000000
00000000
00000000
00000000
00000000
00000000
00000000
00000000
00000000
00000000
00000000
00000000
00000000
00000000
00000000
00000000
00000000
00000000
00000000
00000000
00000000
00000000
00000000
00000000
00000000
00000000
00000000
,
00003001
00000010
00000100
00000010
00000001
00000000
00001000
00000000
00000020
00000000
00000000
00020030
00000000
00000000
00032000
00000000
,
00103000
00010000
10000000
00100000
01000000
00000000
00010000
10000000
01000000
00000000
00100000
01000000
00000000
01000000
10000000
00000000
,
00010000
10000000
00100000
01000000
00010000
00000000
10000000
00000000
02000000
00000000
00000000
03200000
00000000
00000000
00302000
00000000
,
00013000
00000100
00001000
00000100
00000010
00000000
00000001
00001000
00000010
00000000
00000100
00000001
00000000
00001000
00000100
00000000
,
00000010
00000100
00010000
00001000
00010000
00000000
00000010
00000000
00002000
00000000
00000000
00003200
00000000
00000000
00020300
00000000
,
00031000
00100000
00010000
01000000
00001000
00000000
00100000
00010000
10000000
00000000
01000000
00100000
00000000
00100000
00001000
00000000
,
00010000
00001000
01000000
00001000
00010000
00000000
00000100
00000000
00002000
00000000
00000000
00003200
00000000
00000000
00000320
00000000
,
00000031
00000000
00000100
00000000
00001000
00000000
00010000
00000000
01000000
10000000
01000000
10000000
00020000
00000000
00000000
00000000
,
10030000
01000000
00100000
00010000
00100000
01000000
10000000
00100000
01000000
00000000
00000000
01100000
00000000
00000000
10100000
00000000
,
00100000
10000000
00010000
00100000
00001000
00010000
00000100
00010000
00001000
00000000
00000000
00011000
00000000
00000000
00010010
00000000
,
00000010
00001000
00000010
00000100
00000010
00001000
00000001
00000010
00000100
00000000
00000000
00001100
00000000
00000000
00000101
00000000
,
00000001
00000000
00000010
00000000
00001000
00000000
00010000
00000000
00001000
00010000
00001000
00010000
00002000
00000000
00000000
00000000
,
00013000
00000000
00000000
00000000
00000000
00000000
00100000
00000000
00000000
00000000
00000000
00000000
10000000
00000000
00000000
00000000
00000000
00000000
00010000
00000000
00000000
00000000
00000000
00000000
01000000
00000000
00000000
00100000
00000000
00000000
01000000
00000000
00000000
00100000
00000000
00000000
10000000
00000000
01000000
00000000
10000000
00000000
01000000
00000000
00000000
00000000
00000000
00000000
,
00100000
00000000
00000000
00000000
00000000
00000000
00001000
00000000
00000000
00000000
00000000
00000000
00010000
00000000
00000000
00000000
00000000
00000000
00000100
00000000
00000000
00000000
00000000
00000000
00000010
00000000
00000000
00000100
00000000
00000000
00000010
00000000
00000000
00000100
00000000
00000000
00000010
00000000
00000001
00000000
00001000
00000000
00000001
00000000
00000000
00000000
00000000
00000000
,
00001000
00000000
00000000
00000001
00000000
00000000
00000100
00000000
00000000
00000001
00000000
00000000
00001000
00000000
00000000
00000001
00000000
00000000
00000010
00000000
00000000
00000100
00000000
00000000
00001000
00000000
00000000
00000100
00000000
00000000
00010000
00000000
00000000
00001000
00000000
00000000
00100000
00000000
00000000
00000000
00000000
00000000
00010000
00000000
00100000
00000000
01000000
00000000
,
00100000
00000000
00000000
00010000
00000000
00000000
10000000
00000000
00000000
01000000
00000000
00000000
00100000
00000000
00000000
00001000
00000000
00000000
00010000
00000000
00000000
00000010
00000000
00000000
00001000
00000000
00000000
00000000
00000000
00000000
00000001
00000000
00000100
00000000
00000001
00000000
00001000
00000000
00000100
00000000
00001000
00000000
00000010
00000000
00000000
00000000
00000000
00000000
,
00000110
00000000
00000000
00000000
;
