#TITLE:V;
#ARTIST:TAKA;
#GENRE:PROGRESSIVE;
#BANNER:V.png;
#BACKGROUND:V-bg.png;
#CDTITLE:./CDTitles/bm IIDX 5th style.png;
#MUSIC:V.ogg;
#SAMPLESTART:62.4;
#SAMPLELENGTH:15;
#BPMS:0=150;
#BGSTAGE:3;

//--------------- dance-single - XLEV450X-bSP ----------------
#NOTES:
     dance-single:
     XLEV450X:
     Beginner:
     4:
     0,0,0,0,0:
0000
0000
0000
0000
,
0000
0000
0000
0000
,
0000
0000
0000
0000
,
0000
0000
0000
0000
,
0010
0000
0100
0000
,
0010
0000
0000
0000
,
0001
0000
1000
0000
,
0001
0000
0000
0000
,
0010
0000
1000
0000
,
0010
0000
0000
0000
,
0100
0000
0001
0000
,
0100
0000
0000
0000
,
1000
0000
0001
0000
,
1000
0000
0000
0000
,
0001
0001
0001
0000
,
1000
1000
1000
0000
,
0010
0010
0010
0000
,
0100
0100
0100
0000
,
2002
0000
0000
0000
,
0000
0000
0000
0000
,
0000
0000
0000
3003
,
0001
0000
1000
0000
,
0010
0000
0100
0000
,
2002
0000
0000
0000
,
0000
0000
0000
0000
,
0000
0000
0000
3003
,
0001
0000
0001
0000
,
1000
0000
0010
0000
,
2002
0000
0000
0000
,
0000
0000
0000
0000
,
0000
0000
0000
3003
,
0001
0000
0000
0000
,
1000
0000
0000
0000
,
0010
0000
0010
0000
,
0001
0000
0000
0000
,
1000
0000
0001
0000
,
0100
0000
0000
0000
,
0010
0000
0010
0000
,
0100
0000
0000
0000
,
0022
0000
0000
0033
,
1000
0000
0001
0000
,
2200
0000
0000
3300
,
0010
0000
0100
0000
,
0110
0000
0000
0000
,
1000
0000
0001
0000
,
1001
0000
0000
0000
,
0001
0001
1000
1000
,
0010
1000
0010
0000
,
0001
0010
0001
0000
,
0100
1000
0001
0000
,
0100
1000
0010
0000
,
0010
1000
0100
0001
,
1000
0001
1000
0000
,
0010
0000
1000
0100
,
0001
0000
0010
0100
,
0010
0000
0001
0000
,
1000
0000
0100
0000
,
0010
1000
0010
0000
,
0001
0000
0001
0000
,
1000
0000
1000
0000
,
0001
0000
1000
0000
,
0001
0000
0000
0000
,
0220
0000
0000
0330
,
0001
1000
0001
0001
,
1000
0000
0010
1000
,
0100
0001
0010
0100
,
1000
0000
0001
1000
,
0001
0000
0010
1000
,
0010
0000
0100
0001
,
0010
1000
0001
0100
,
0001
0000
1000
0010
,
1000
0000
0100
0010
,
0001
0000
1000
0001
,
1000
0000
0001
1000
,
0100
0000
0010
0001
,
1000
0100
0001
0010
,
2002
0000
0000
0000
,
0000
0000
0000
0000
,
3003
0000
0000
0000
;

//--------------- dance-single - XLEV450X-BSP ----------------
#NOTES:
     dance-single:
     XLEV450X:
     Easy:
     7:
     0,0,0,0,0:
0000
0000
0000
0000
,
0000
0000
0000
0000
,
0000
0000
0000
0000
,
0000
0000
0000
0000
,
1000
0001
0100
0000
,
0010
1000
0100
0000
,
0001
1000
0010
1000
,
0100
0001
0010
1000
,
0001
0100
1000
0001
,
0010
1000
0100
0000
,
0001
1000
0001
0000
,
0010
0010
1000
0100
,
0001
0010
1000
0000
,
0001
1000
0100
0001
,
0010
0100
1000
0001
,
1000
0010
0100
0000
,
0010
0001
0010
1000
,
0100
1000
0001
0010
,
2002
0000
0000
0000
,
0000
0000
0000
0000
,
0000
0000
0000
3003
,
0001
1000
0010
1000
,
0100
0001
0010
1000
,
2002
0000
0000
0000
,
0000
0000
0000
0000
,
0000
0000
0000
3003
,
1000
0100
0001
0010
,
0100
1000
0001
0100
,
2002
0000
0000
0000
,
0000
0000
0000
0000
,
0000
0000
0000
3003
,
0001
1000
0100
0010
,
1000
0001
0100
1000
,
0010
0000
1000
0000
0010
1000
0010
0000
,
0001
0100
1000
0001
,
0100
0001
1000
0000
,
0010
0100
1000
0001
,
0010
0000
1000
0000
1000
0001
1000
0000
,
0010
0000
0100
0000
0010
0100
0010
0000
,
2002
0000
0000
3003
,
0001
1000
0100
0010
,
0022
0000
0000
0033
,
1000
0100
0010
1000
,
2020
0000
0000
3030
,
0001
1000
0100
0001
,
2002
0000
0000
3003
,
0001
0000
1000
0000
0010
1000
0010
0000
,
0001
0100
1000
0001
,
0100
0010
0001
0000
,
0100
1000
0010
0100
,
0001
1000
0001
0000
,
1000
0100
0010
0001
,
1000
0000
0010
0000
1000
0010
1000
0000
,
0100
0001
1000
0001
,
0100
0000
0010
0000
0001
0010
0001
0000
,
1000
0100
1000
0001
,
1000
0001
1000
0000
0010
1000
0010
0000
,
0100
0000
1000
0000
0010
0001
0010
0000
,
1000
0100
1001
1000
,
0001
0010
1001
0010
,
1000
1010
0001
0011
,
0001
0000
1000
0000
0001
1000
0001
0000
,
2002
0000
0000
3003
,
0001
0000
1000
0000
0010
1000
0010
0000
,
1000
0010
1000
0001
,
0100
0000
0001
0000
1000
0100
0001
0000
,
0010
0000
0100
0000
0010
0001
0010
0000
,
1000
0100
1000
0001
,
0001
0000
1000
0000
0010
1000
0010
0000
,
0100
1000
0001
0100
,
0010
1000
0001
0100
,
0001
0010
0001
0000
1000
0100
1000
0000
,
0001
1000
0010
0100
,
1000
0001
1000
0000
0010
1000
0010
0000
,
0010
0100
0010
0000
0001
0010
0001
0000
,
1000
0000
0001
0000
0100
0001
0100
0000
,
2002
0000
0000
0000
,
0000
0000
0000
0000
,
3003
0000
0000
0000
0000
0000
0000
0000
0000
0000
0000
0000
0000
0000
0000
0000
0000
0000
0000
0000
0000
0000
0000
0000
0000
0000
0000
0000
0000
0000
0000
0000
0000
0000
0000
0000
0000
0000
0000
0000
0000
0000
0000
0000
0000
0000
0000
0000
0000
0000
0000
0000
0000
0000
0000
0000
0000
0000
0000
0000
0000
0000
0000
0000
0000
0000
0000
0000
0000
0000
0000
0000
0000
0000
0000
0000
0000
0000
0000
0000
0000
0000
0000
0000
0000
0000
0000
0000
0000
0000
0000
0000
0000
0000
0000
0000
0000
0000
0000
0000
0000
0000
0000
0000
0000
0000
0000
0000
0000
0000
0000
0000
0000
0000
0000
0000
0000
0000
0000
0000
0000
0000
0000
0000
0000
0000
0000
0000
0000
0000
0000
0000
0000
0000
0000
0000
0000
0000
0000
0000
0000
0000
0000
0000
0000
0000
0000
0000
0000
0000
0000
0000
0000
0000
0000
0000
0000
0000
0000
0000
0000
0000
0000
0000
0000
0000
0000
0000
0000
0000
0000
0000
0000
0000
0000
0000
0000
0000
0000
0000
0000
0000
0000
0000
0000
0000
0000
0000
0000
0000
0000
0000
;

//--------------- dance-single - XLEV450X-DSP ----------------
#NOTES:
     dance-single:
     XLEV450X:
     Medium:
     12:
     0,0,0,0,0:
0000
0000
0000
0000
,
0000
0000
0000
0000
,
0000
0000
0000
0000
,
0000
0000
0000
0000
,
1001
0001
0001
0001
,
0001
0001
0001
0001
,
1000
0010
1000
0000
0010
0001
0010
0000
,
1000
0100
0001
1000
,
0010
0100
0010
0000
0001
0010
0001
0000
,
1000
0100
1000
0001
,
0001
0000
1000
0000
0010
0000
0100
0010
,
0100
0000
0010
0000
0001
0000
0010
0001
,
0010
1000
0010
1000
,
0100
0000
1000
0000
0001
0000
1000
0010
,
1000
0000
0010
0000
0100
0000
0001
0010
,
0001
0000
1000
0000
0100
0000
1000
0001
,
1000
0000
0010
0100
0010
0000
1000
0010
,
1000
0000
0001
0000
1000
0001
1000
0001
,
1001
0220
0000
0000
0000
0000
0000
0000
,
0000
0000
0000
0000
0000
0000
0000
0330
,
0010
1000
0010
1000
0010
1000
0010
1000
,
0001
0000
1000
0000
0100
0000
1000
0100
,
1000
0001
0010
0000
1000
0100
0010
0000
,
0110
2002
0000
0000
0000
0000
0000
0000
,
0000
0000
0000
0000
0000
0000
0000
3003
,
0001
1000
0001
1000
0001
1000
0001
1000
,
0010
1000
0100
1000
,
0010
0100
1000
0010
1000
0010
0100
0001
,
0010
2002
0000
0000
0000
0000
0000
0000
,
0000
0000
0000
0000
0000
0000
0000
3003
,
0001
0010
1000
0100
1000
0100
0001
1000
,
0001
0000
2000
3100
0200
0310
0020
0031
,
0001
0000
2000
3001
0200
0310
2000
3100
,
0001
1000
0001
1000
0001
1000
0001
1000
,
0010
1000
0010
0000
0010
0001
0010
0000
,
1000
0100
1000
0010
0100
0010
1000
0000
,
0001
0000
1000
0000
0100
1000
0010
0000
,
0010
1000
0100
0001
1000
0001
1000
0000
,
0010
1000
0100
1000
0001
0010
1000
0001
,
1000
0000
0001
0100
1000
0000
0010
0000
0000
0000
0010
0000
1000
0000
0010
0000
,
0010
0000
0001
0010
0001
0000
1000
0000
0001
0000
1000
0010
1000
0000
0010
0000
,
1000
0000
0001
1000
0100
0000
0001
0000
0000
0000
0001
0000
0100
0000
1000
0000
,
0001
0000
1000
0001
1000
0000
0010
0000
0010
0000
0010
0100
0010
0000
0010
0000
,
1000
0000
0001
1000
0001
0000
0100
0000
0000
0000
0001
0000
1000
0000
0010
0000
,
0100
1000
0010
0000
0001
0010
1000
0010
,
0100
0000
1000
0100
0001
0000
0010
0000
0000
0000
1000
0000
0100
0000
1000
0000
,
0001
0000
1000
0000
0010
0000
0100
0000
1000
0100
0001
0000
1000
0010
0001
0000
,
0001
1000
0010
0000
0010
1000
0100
0000
,
0001
1000
0001
0100
1000
0001
0010
0000
,
0010
1000
0100
0000
0010
1000
0010
0000
,
0001
1000
0001
1000
0001
0100
1000
0001
,
0010
1000
0100
0000
0001
0010
0001
0000
,
0100
1000
0010
0100
0010
1000
0001
0000
,
0010
1000
0100
0000
0001
0010
0001
0000
,
1000
0100
1000
0001
0100
1000
0001
0000
,
0010
0100
1000
1000
0010
0100
1000
0000
,
0001
0001
1000
0100
1000
0001
0010
0000
,
1000
0001
0100
0000
0010
1000
0010
0000
,
0001
1000
0010
0000
1001
0000
0000
0000
,
0010
1000
0010
0000
1001
0000
0000
0000
,
0100
1000
0100
0000
0001
0010
0001
0000
,
1000
0100
0001
1000
0010
0100
0001
0010
,
0001
0000
1000
0010
0001
0000
0100
0000
0000
0000
0100
0000
0001
0000
0100
0000
,
0100
0000
1000
0100
1000
0000
0001
0000
1000
0000
0001
0100
0001
0000
0100
0000
,
0001
0000
1000
0001
0010
0000
1000
0000
0000
0000
1000
0000
0010
0000
0001
0000
,
1000
0000
0001
1000
0001
0000
0100
0000
0100
0000
0100
0010
0100
0000
0100
0000
,
0001
0000
1000
0001
1000
0000
0010
0000
0000
0000
1000
0000
0001
0000
0100
0000
,
0010
0001
0100
0000
1000
0100
0001
0100
,
0010
0000
0001
0010
1000
0000
0100
0000
0000
0000
0001
0000
0010
0000
0001
0000
,
1000
0000
0001
0000
0100
0000
0010
0000
0001
0010
1000
0000
0001
0100
1000
0000
,
0001
1000
0010
0000
0100
1000
0100
0001
,
0010
0100
1000
0000
0010
0100
1000
0001
,
1000
0010
0101
0000
0010
1000
0010
0000
,
1000
0100
1000
0001
0100
0010
1000
0000
,
0001
1000
0001
0000
0100
0000
1000
0000
,
0001
1000
0001
1000
0010
1000
0010
0100
,
2002
0000
0000
0000
,
0000
0000
0000
0000
,
3003
0000
0000
0000
;

//--------------- dance-single - XLEV450X-ESP ----------------
#NOTES:
     dance-single:
     XLEV450X:
     Hard:
     16:
     0,0,0,0,0:
0000
0000
0000
0000
,
0000
0000
0000
0000
,
0000
0000
0000
0000
,
0000
0000
0000
0000
,
1001
0000
1000
0010
1000
0000
0010
0100
0010
0000
0001
0010
0001
0000
1000
0001
,
1000
0000
0010
1000
0010
0000
1000
0001
1000
0000
0001
1000
0001
0000
1000
0010
,
1000
0000
0001
0000
1000
0010
0100
1000
,
0001
0000
0101
0000
0010
1000
0010
1000
,
0100
0000
0101
0000
0001
1000
0100
1000
,
0001
0100
0010
1000
0001
0100
0010
1000
,
0001
0000
1000
0010
1000
0000
0010
0000
0100
0000
1000
0000
0001
0000
0010
0000
,
0010
0000
1000
0001
1000
0000
0001
0000
0100
0000
1000
0000
0010
0000
0001
0000
,
0010
0000
0001
0010
0001
0000
1000
0000
0010
0000
0100
0000
1000
0000
0001
0000
,
0010
0000
1000
0010
1000
0000
0010
0000
0100
0000
1000
0000
0010
0000
0001
0000
,
0010
0000
1000
0001
1000
0000
0001
0000
0010
0000
1000
0010
1000
0000
0010
0000
,
0010
0000
0001
0010
0001
0000
1000
0000
0010
0000
1000
0001
1000
0000
0001
0000
,
0010
0000
1000
0010
1000
0000
0010
0001
0010
0000
0001
1000
0001
0000
1000
0010
,
0100
1000
0010
0100
0010
1000
0010
0100
0001
1000
0001
1000
0001
0100
0010
1000
,
0001
0100
2002
0000
0000
0000
0000
0000
0000
0000
0000
0000
0000
0000
0000
0000
,
0000
0000
0000
0000
0000
0000
0000
3003
,
0001
0010
0100
1000
0001
0010
0001
0100
0010
0100
0001
0100
0010
1000
0010
0001
,
0100
0001
0011
0010
0100
1000
1001
0001
,
0100
0000
0010
0000
0110
0000
0100
0000
0001
0100
0000
1000
0100
0000
0001
0000
,
1001
2002
0000
0000
0000
0000
0000
0000
,
0000
0000
0000
0000
0000
0000
0000
0000
0000
0000
0000
0000
3003
0000
0001
0100
,
0010
0000
1000
0100
0010
0000
0001
0100
0010
1000
0100
0010
0001
0100
0010
1000
,
0001
0100
0001
0000
0110
0000
0000
0000
1000
0010
1000
0000
0110
0000
0000
0000
,
1100
0101
0011
1010
,
2002
0000
0000
0000
,
0000
0000
0000
0000
0000
0000
0000
3003
,
0001
0100
0010
1000
0001
0100
0010
1000
0001
0100
0010
1000
0001
0010
1000
0001
,
0100
0100
0100
0100
0100
0100
0100
0100
,
0010
0010
0010
0010
0010
0010
0010
0010
,
0001
0010
0100
1000
0001
0010
0100
1000
0100
1000
0100
0010
0001
1000
0100
1000
,
0010
0000
0000
0100
0010
0000
1000
0000
0001
0000
0100
0000
0001
0000
0100
0000
,
0010
0000
0000
0100
0010
0000
0001
0000
1000
0000
0100
0000
1000
0000
0100
0000
,
0010
0000
0000
0100
0010
0000
0001
0000
1000
0000
0100
0000
1000
0000
0001
0000
,
0010
0000
0000
0100
0010
0000
1000
0000
0001
0000
0100
0000
0001
0000
1000
0000
,
0010
0000
0100
0000
0010
0000
0001
0000
1000
0001
0100
0010
0001
1000
0100
0001
,
0010
0000
1000
0100
1000
0100
1000
0100
1000
0000
0010
0000
0100
0000
0001
0000
,
2000
3100
0002
0103
2000
3010
0200
0301
,
1000
0000
0010
0100
0010
0100
0010
0100
0010
0000
1000
0000
0100
0000
0010
0000
,
0001
0100
1000
0100
0001
0100
1000
0100
,
0001
0000
0100
0010
0100
0010
0100
0010
0100
0000
0010
0000
0010
0000
0010
0000
,
1000
0000
0100
0010
0100
0000
1000
0000
0001
0000
0100
0000
0001
0000
0100
0000
,
2000
0000
0001
0000
0001
0000
3001
0000
,
0001
0000
1000
0000
0010
0000
0100
0000
1000
0001
0010
1000
0001
0100
0010
1000
,
0001
1000
0100
0001
1000
0100
0001
1000
0010
0000
0100
0000
1000
0000
0010
0000
,
0001
0100
1000
0001
0010
0100
1000
0001
0100
0000
1000
0000
0010
0000
0001
0000
,
0010
1000
0001
0100
1000
0001
0100
0010
1000
0000
0001
0000
0010
0000
1000
0000
,
0100
0001
1000
0001
0010
1000
0001
0100
1000
0000
0010
0000
0100
0000
1000
0000
,
1000
0010
1000
0010
1000
0001
1000
0001
0010
0100
1000
0001
0100
0010
1000
0001
,
2000
0000
0000
0000
3001
0100
0010
1000
0001
0010
0100
1000
0001
0100
0010
0100
,
0001
1000
0100
1000
0001
1000
0010
1000
0100
1000
0001
1000
0010
1000
0001
1000
,
0100
0010
0001
1000
0100
0010
0001
1000
0100
0010
0001
1000
0010
0100
0001
1000
,
0001
1000
0010
0100
1000
0010
1000
0100
,
1000
0010
0001
0010
0001
1000
0010
0001
,
0010
0000
0001
0000
1000
0000
0001
0000
0010
0000
1000
0000
1000
0100
0001
0000
,
0010
0000
0100
0000
1000
0000
0001
0000
2002
0000
3003
0000
1000
0100
1000
0100
,
0001
0000
0010
0000
0001
0000
1000
0000
0202
0000
0303
0000
0001
0010
0001
0100
,
1000
0001
1000
0010
1000
0100
1000
0010
,
0100
0001
1000
0100
0001
1000
0010
0001
0100
0010
1000
0100
0001
1000
0010
0001
,
0010
0000
1000
0100
1000
0100
1000
0100
1000
0000
0100
0000
0010
0000
0001
0000
,
1000
0100
0001
0100
1000
0100
0001
0100
,
0010
0000
0001
0100
0001
0000
1000
0000
0100
0000
0010
0000
0001
0000
0100
0000
,
2000
0000
0100
0000
0010
0000
3001
0000
,
0100
0000
0010
0100
0010
0100
0010
0100
0010
0000
1000
0000
0001
0000
1000
0000
,
0200
1300
0200
0310
0200
1300
0200
0310
,
0001
0000
0100
0010
1000
0010
0100
0010
1000
0000
0100
0000
0010
0000
0001
0000
,
1000
0100
0010
0100
1000
0010
0100
0010
1000
0001
0100
0001
1000
0100
0010
0001
,
1000
0000
0010
0001
0100
0010
1000
0100
0001
0000
0010
0000
1000
0000
0100
0000
,
1000
0000
0001
1000
0100
0001
1000
0100
0001
0000
0010
0000
1000
0000
0010
0000
,
1000
0000
0100
0001
1000
0100
0001
1000
0010
0000
1000
0000
0001
0000
0100
0000
,
0001
0000
1000
0100
0010
0001
0010
0100
1000
0000
0001
0000
0100
0000
0010
0000
,
1000
0000
0001
1000
0010
1000
0001
0100
0001
0000
0100
0000
0010
0000
1000
0000
,
0001
0000
0000
0010
0000
0000
0001
0000
0000
1000
0000
0000
0100
0000
0000
1000
0000
0000
0001
0000
0000
0100
0000
0000
0001
0000
0000
1000
0000
0000
0010
0000
0000
1000
0000
0000
0001
0000
0010
0000
0100
0000
1000
0000
0100
0000
0010
0000
,
0002
0000
0000
0000
,
0000
0000
0000
0000
,
0003
0000
0000
0000
;
