#TITLE:Unwritten (Vicious Club Mix) (RGR-Special);
#ARTIST:Natasha Bedingfield;
#MUSIC:Unwritten (Vicious Club Mix) (RGR-Special).ogg;
#BANNER:Unwritten (Vicious Club Mix) (RGR-Special).png;
#BACKGROUND:Unwritten (Vicious Club Mix) (RGR-Special)-bg.png;
#CDTITLE:./CDTitles/DDR SuperNOVA2 PS2 US.png;
#SAMPLESTART:31.385;
#SAMPLELENGTH:15;
#SELECTABLE:YES;
#OFFSET:0;
#BPMS:0=130;
#BGCHANGES:4.000=Unwritten (Vicious Club Mix) (RGR-Special).avi=1.000=0=0=1=====,
99999=-nosongbg-=1.000=0=0=0 // don't automatically add -songbackground-;

//--------------- dance-single - XLev450X ----------------
#NOTES:
     dance-single:
     XLev450X:
     Challenge:
     15:
     0,0,0,0,0:
0000
0000
0000
0000
,
0000
0000
0000
0000
,
0000
0000
0000
0000
,
0000
0000
0000
0000
,
0000
0000
0000
0000
,
0010
0100
0001
0100
0010
0100
0010
1000
0001
0000
1000
0100
0000
0010
0001
0000
,
0000
0100
0010
0000
1000
0001
0000
0010
1000
0000
0000
0100
0000
0000
0001
0000
,
0000
0000
2020
0000
3030
0000
0000
2020
3030
0000
1010
0000
2020
0000
3030
0000
,
0000
0000
0202
0303
0000
2002
0000
0000
3003
0000
0110
0000
0001
0100
0010
1000
,
0001
0000
0000
1000
0010
0000
1000
0000
0001
0000
0100
0000
0010
0000
0001
1000
,
0010
0000
0000
0000
0000
0000
0100
0000
0000
0000
0000
0000
0001
0000
0000
0000
0000
0000
1000
0000
0000
0001
0000
0000
0010
0000
0000
0000
0000
0000
0100
0000
0000
0000
0000
0000
1000
0000
0100
0000
0010
0000
0001
0000
0010
0000
0100
0000
,
1000
0000
0010
0000
0100
0000
0001
0000
1000
0000
0010
0000
0100
0001
0000
1000
,
0001
0000
0010
0000
0100
0000
0001
0000
1000
0000
0010
0000
0100
0010
1000
0001
,
0100
0000
0000
1000
0010
0000
0001
0000
1000
0000
0010
0000
0100
0000
0001
0010
,
1000
0000
0000
0000
0000
0000
0010
0000
0000
0000
0000
0000
0100
0000
0000
0000
0000
0000
0001
0000
0000
0100
0000
0000
1000
0000
0000
0000
0000
0000
0001
0000
0000
0000
0000
0000
0010
0000
0100
0000
0001
0000
0010
0000
0100
0000
1000
0000
,
0001
0000
1000
0001
0010
0000
1000
0100
0000
0001
0000
0010
0000
1000
0000
0001
,
0100
0000
0001
0100
1000
0000
0010
1000
0100
0000
0001
0000
1000
0001
0100
0010
,
1000
0000
0000
0010
0000
0000
0100
0001
1000
0000
0000
0010
0000
0000
0100
0000
,
0001
0000
0000
0010
0000
0000
1000
0001
0100
0000
0010
1000
0000
0001
0100
0000
,
0020
0030
0000
0002
0003
0000
1000
0001
0010
1000
0100
0002
0003
0000
0010
0000
,
0001
0010
0100
0010
0000
2000
0000
3000
0001
0100
0010
1000
0000
0200
0000
0300
,
1000
0000
0000
0010
0000
0000
0100
0001
1000
0000
0000
0010
0000
0000
0100
0000
,
0001
0000
0000
0010
0000
0000
1000
0001
0100
0000
0010
1000
0000
0001
0100
0000
,
0020
0030
0000
0002
0003
0000
1000
0001
0010
1000
0100
0002
0003
0000
0010
0000
,
0001
0010
0100
0010
0000
2000
0000
3000
0001
0100
0010
1000
0000
0200
0000
0300
,
1000
0000
0000
0010
0000
0000
0100
0001
1000
0000
0000
0010
0000
0000
0100
0000
,
0001
0000
0000
0010
0000
0000
1000
0001
0100
0000
0010
1000
0000
0001
0100
0000
,
0020
0030
0000
0002
0003
0000
1000
0001
0010
1000
0100
0002
0003
0000
0010
0000
,
0001
0010
0100
0010
0000
2000
0000
3000
0001
0100
0010
1000
0000
0200
0000
0300
,
0002
0000
0003
2000
3000
0000
0010
0000
0100
0000
0001
1000
0000
0010
0000
0000
,
0100
0000
0000
0001
0000
0000
0010
0000
1000
0000
0001
0100
0010
0000
1000
0000
,
0001
0000
0000
0100
0000
0000
0010
0000
1000
0000
0001
0000
0100
0000
0010
0000
,
0100
0010
0100
1000
0010
1000
0001
0100
0001
0100
0010
1000
0001
0010
0001
1000
,
0001
0000
0000
1000
0000
0000
0010
0000
0100
0000
0001
0000
1000
0000
0010
0000
,
0001
0100
0000
0010
0000
0000
1000
0000
0001
0000
0100
0000
0010
0001
0000
0000
,
1000
0000
0000
0010
0000
0000
0100
0000
0001
0000
1000
0000
0010
0000
0100
0000
,
0001
0000
0000
1000
0000
0000
0001
0000
0100
0010
1000
0000
0001
0000
0100
0000
,
0010
0000
0001
1000
0001
0000
0100
0010
,
0001
1000
0100
0000
0010
0000
0100
0000
0001
1000
0001
0000
0010
0000
0100
0000
,
0010
0001
0010
0000
1000
0000
0010
0000
0100
0001
1000
0000
0010
0000
0100
0000
,
0001
0000
0000
0010
0000
0000
1000
0000
0001
0100
1000
0000
0010
0000
1000
0000
,
0001
0100
0010
0100
0000
0001
0100
0000
0010
0100
0010
1000
0000
0010
0001
0000
,
0100
1000
0001
0100
0000
1000
0010
0000
0100
0010
0100
1000
0000
0010
0100
0000
,
0010
1000
0010
0100
0000
0001
0010
0000
0001
0010
0001
0010
0000
1000
0010
0000
,
0001
0100
0001
0100
0001
0000
1000
0000
0010
0000
0100
0000
1001
0000
0000
0000
,
0010
0000
0000
0100
0000
0000
0010
0000
0000
0001
0000
0000
1000
0000
0010
0000
,
0100
0000
0000
0001
0000
0000
1000
0000
0000
0010
0000
0000
0001
1000
0010
0000
,
0100
0000
0000
0001
0000
0000
1000
0000
0000
0010
0000
0000
0100
0000
0010
0000
,
0001
0100
0001
0100
0010
0100
0010
1000
0001
0010
0100
1000
0010
0100
0010
0100
,
0010
0000
1001
0000
0000
0000
0000
1001
0000
0000
1001
0000
1001
0000
0000
0000
,
0000
0000
1001
0000
0000
1001
0000
0000
0000
0000
1001
0000
0000
0000
0000
0000
,
2002
0000
0000
0000
,
3003
0000
0000
0000
;
