#TITLE:Unleashed Emotions;
#ARTIST:TAG;
#MUSIC:Unleashed Emotions.ogg;
#BANNER:Unleashed Emotions.png;
#BACKGROUND:Unleashed Emotions-bg.png;
#SAMPLESTART:116.974;
#SAMPLELENGTH:15;
#SELECTABLE:YES;
#OFFSET:-0.071;
#BPMS:0.000=155;
#BGSTAGE:3;

//--------------- dance-single - XLev450X ----------------
#NOTES:
     dance-single:
     XLev450X:
     Challenge:
     17:
     0,0,0,0,0:
0000
0000
0000
0000
,
0000
0000
0000
0000
,
0000
0000
0000
0000
,
0000
0000
0000
0000
,
0000
0000
0000
0000
,
0000
0000
0000
0000
,
0000
0000
0000
0000
,
0000
0000
0000
0000
,
0000
0000
0000
0000
0000
0000
0000
0000
0010
0000
1000
0100
0000
1000
0010
0000
,
1000
0001
0000
0100
0001
1000
0001
0010
0001
0000
1000
0010
0000
0100
0010
0000
,
0100
0001
0000
0100
0010
1000
0100
0010
0001
0000
0100
0010
0000
0100
0001
0000
,
1000
0100
0000
0010
0001
1000
0010
0100
0001
0000
0100
0010
0000
0100
1000
0100
,
0010
0000
1000
0100
0000
0010
0001
1000
0101
0000
0000
0000
1000
0000
0010
0100
,
0010
0000
1000
0001
0010
0000
0100
1000
0001
0000
0010
0001
0100
0000
0000
0000
,
1000
0000
0100
0000
0011
0000
0000
0000
1010
0000
0000
0000
0100
0000
0010
0100
,
0001
0000
0010
0100
1000
0000
0010
0100
0001
0000
0010
0001
1000
0000
0000
0000
,
0010
0100
1001
0000
0110
0000
0000
0000
,
0000
0000
0000
0000
0010
0001
1000
0010
,
0100
0001
0100
0000
0010
0100
0010
0000
1000
0000
0001
0000
0100
0000
0000
0000
,
1000
0100
0010
0001
0010
0100
1000
0001
0100
0000
0100
0000
0010
0000
0100
0000
,
0000
1010
0001
0010
0000
1100
0001
1000
,
0001
0100
0010
1000
0001
1000
0010
0100
0010
0000
0010
0001
0000
0001
1000
0000
,
1000
0010
0000
0010
1000
0100
0010
0000
0001
0000
0001
1000
0000
1000
0100
0000
,
0100
0010
0000
0000
0011
0000
0110
0000
1000
0000
1000
0010
0000
0010
0100
0000
,
0100
1000
0000
1000
0100
0001
1000
0000
0010
0000
0010
1000
0000
1000
0100
0000
,
0100
0010
0000
0000
0110
0000
0011
0000
0010
0000
1000
0100
0000
1000
0010
0000
,
1000
0001
0000
0100
0001
1000
0001
0010
0001
0000
1000
0010
0000
0100
0010
0000
,
0100
0001
0000
0100
0010
1000
0100
0010
0001
0000
0100
0010
0000
0100
0001
0000
,
1000
0100
0000
0010
0001
1000
0010
0100
0001
0000
0100
0010
0000
0100
1000
0100
,
0010
0000
1000
0100
0000
0010
0001
0100
1000
0000
0001
0000
1000
0000
0100
0010
,
0100
0000
1000
0000
0001
0100
0001
0000
1000
0100
1000
0000
0001
0000
0100
0010
,
0100
0000
0001
0000
0010
0000
0100
0000
1000
0010
1000
0000
0001
0000
0010
0100
,
0010
0000
0100
0000
1000
0001
1000
0000
0001
0010
0001
0000
1000
0000
0001
0100
,
0001
0000
1000
0000
0010
0000
0100
0000
0100
0010
0100
0010
1000
0000
0001
0010
,
0001
0010
0100
0000
1000
0100
0010
0000
0100
1000
0010
0000
0100
0001
0010
0000
,
0100
1000
0001
0000
0100
0001
1000
0000
0010
1000
0001
1000
0001
0000
0010
0001
,
1000
0001
0100
0000
0001
1000
0010
0000
0100
0010
1000
0000
0100
0010
0001
0000
,
1000
0010
0100
0000
0001
0100
0010
0000
0001
0000
0001
0000
0100
0000
1000
0100
,
0010
0100
1000
0000
0010
0000
0100
0010
0100
0000
0100
0000
0010
0000
0001
0010
,
0100
0010
0001
0000
1000
0000
0001
0100
0001
0000
1000
0000
0010
0000
1100
0000
,
0000
0010
0101
0000
0010
1001
0000
0100
,
0010
0000
0100
0000
0110
0000
0000
0000
0010
0000
0001
0000
0010
0001
0010
0001
,
0010
0000
0100
0000
0010
0001
0010
0001
1000
0000
0010
0000
0100
0010
0100
0010
,
0100
0000
0001
0000
1000
0000
0100
0000
0010
0000
0100
0000
1000
0010
1000
0010
,
1000
0000
0001
0000
0010
0100
0010
0100
0010
0000
0001
0000
1000
0010
1000
0010
,
0100
0001
0100
0001
1000
0100
1000
0100
1002
0000
0000
0000
0013
0001
0000
0001
,
0200
0000
0000
0000
0310
1000
0000
1000
0200
0000
0000
0000
0310
0001
0000
0001
,
0100
0000
0010
0000
1000
0000
0001
0000
0010
0000
0000
0000
0100
0010
0000
0010
,
0002
0000
0000
0000
0103
0010
0000
0010
2000
0000
0000
0000
3100
0010
0000
0010
,
0001
0000
1000
0000
0010
0000
0000
0000
1000
0010
0100
0001
1000
0010
0100
0001
,
1000
0000
0000
0010
0000
0000
0100
0000
0000
0001
0000
0000
1000
0000
0100
0000
1000
0000
0100
0000
0010
0000
0001
0000
0110
0000
0000
0000
0000
0000
0000
0000
0000
1100
0000
0000
0000
0000
0000
0000
0000
0000
1001
0000
0000
0000
0000
0000
,
0000
1010
0000
0000
0110
0000
1001
0000
1000
0000
0100
0000
1000
0000
0010
0000
,
0000
0100
0010
0100
0001
0100
0001
0010
,
0000
0100
0010
0100
1000
0100
1000
0010
,
0000
0100
0010
0100
0001
0100
0001
0010
,
0000
0000
0100
0000
0010
0000
0100
0000
0001
0010
1000
0000
0100
0000
0001
0000
,
1000
0100
0001
0000
0100
1000
0010
0000
0010
0001
1000
0100
0010
0001
0010
1000
,
0010
0001
0100
0001
0010
1000
0001
0010
0100
1000
0010
0001
0010
1000
0100
0001
,
0100
1000
0100
0010
0001
0100
0010
0000
0010
0000
0100
0000
0001
0000
1000
0000
,
0001
0000
0000
0000
0000
0000
0000
0000
1000
0000
0000
0000
0000
0000
0000
0000
0010
0000
0000
0000
0000
0000
0000
0000
1000
0000
0000
0000
0000
0000
0000
0000
0220
0000
0000
0000
0000
0000
0000
0000
0000
0000
0000
0330
0000
0000
0000
0000
0001
0000
0000
0000
0000
0000
0000
0000
0100
0000
0000
0000
0010
0000
0000
0000
,
0000
0100
0010
0000
1000
0000
0100
0000
1000
0000
0001
0010
1000
0000
0100
0010
,
0000
0100
0010
0000
0001
0000
0100
0001
0000
0100
0001
0000
1000
0000
0001
0100
,
0000
0100
0001
0000
1000
0000
0100
0010
0000
0010
0100
0000
1000
0000
0000
0001
,
0100
0010
0100
0010
0100
0010
0100
0010
0001
0000
0100
0000
0010
1000
0000
0010
,
0100
0000
0001
0010
0000
0001
0100
0000
0010
0000
1000
0000
0100
0010
0000
0100
,
1000
0000
0001
0100
0000
0001
0010
0000
0100
0000
1000
0000
0001
0010
0000
0001
,
1000
0000
0010
0100
0000
0010
1000
0000
0001
0000
1000
0000
0001
0100
0000
1000
,
0100
0000
0010
0100
0000
0001
0010
0000
0001
1000
0001
1000
0001
0000
0100
0010
,
0100
0010
0100
0000
0010
1000
0010
1000
0010
0000
0100
0001
0100
0001
0100
0000
,
0001
0010
0001
0000
1000
0100
1000
0000
0010
1000
0010
0100
0010
0000
1000
0001
,
1000
0010
1000
0000
0001
0100
0001
1000
0001
0000
0100
0010
0100
0001
0100
0000
,
0010
0100
0001
0000
0100
0010
1000
0000
0001
1000
0100
0010
0001
0000
0010
0100
,
1000
0001
0100
0000
0010
1000
0001
0100
0001
0000
1000
0001
0100
0010
1000
0000
,
0100
0010
0001
0000
0100
0010
1000
0000
0010
1000
0100
0010
0001
0000
0100
0001
,
0010
0100
1000
0000
0010
0100
0001
0010
0001
0000
0000
1001
0000
0000
1100
0000
,
1010
0000
0000
1001
0000
0000
0000
0000
0100
1000
0100
1000
0100
0000
1000
0010
,
1000
0010
1000
0000
0001
0100
0001
0000
0010
0001
0100
0000
0010
0000
0010
0000
,
1000
0000
0001
0000
1000
0000
0000
0000
0001
0010
0100
0010
0001
0000
0000
0000
,
1000
0010
0100
0010
1000
0000
0000
0000
0001
0000
0100
0000
1000
0000
0100
0000
,
0001
0000
0001
0000
0001
0000
0000
0000
1000
0000
0100
0000
0010
0100
1000
0100
,
0010
0000
0001
0000
0000
0000
0010
0000
0010
0000
0100
0000
0001
0100
0010
0100
,
0001
1000
0001
0100
0001
0010
0011
0000
,
0100
1100
0000
0001
0200
0000
0000
0000
,
0000
0000
0000
0000
0000
0300
0000
0000
1000
0000
0000
0000
0100
0000
0010
0000
,
0001
0100
1000
0100
0001
0000
1000
0100
,
0010
0100
1000
0000
0001
0000
0010
0001
,
1000
0100
1000
0010
0100
0000
0010
1000
,
0001
0000
0000
0010
0100
0000
1000
0000
0100
0000
0000
1000
0001
0000
0000
0000
,
0100
0000
0000
0010
1000
0000
0000
0000
0100
0000
0000
0010
0001
0000
0000
0000
,
0100
0000
0000
0010
1000
0000
0000
0000
0001
0000
0000
1000
0001
0000
0000
0000
,
0100
0000
0000
0010
1000
0000
0000
0000
0110
0000
0000
0000
0011
0000
0000
1001
,
0000
1010
0110
1001
0110
0000
0000
0000
;
