#TITLE:Unbound Mind;
#ARTIST:D-crew;
#GENRE:COSMOLOGICAL;
#MUSIC:Unbound Mind.ogg;
#BANNER:Unbound Mind.png;
#BACKGROUND:Unbound Mind-bg.png;
#CDTITLE:./CDTitles/pnm 16 PARTY.png;
#SAMPLESTART:53.745;
#SAMPLELENGTH:15;
#OFFSET:1.07;
#BPMS:0=162;
#STOPS:81.5=0.37
,144.5=0.371
,175.5=0.37
,206.5=0.371;
#BGSTAGE:16;

//--------------- dance-single - XLev450X-bSP ----------------
#NOTES:
     dance-single:
     XLev450X:
     Beginner:
     3:
     0,0,0,0,0:
0000
0000
0000
0000
,
0000
0000
0000
0000
,
0000
0000
0000
0000
,
0000
0000
0000
0000
,
0000
0000
0000
0000
,
0000
0000
0000
0000
,
0000
0000
0000
0000
,
0000
0000
0000
0000
,
0010
0000
0010
0000
,
0010
0000
0000
0000
,
0001
0000
0001
0000
,
0001
0000
0000
0000
,
1001
0000
0000
0000
,
1000
0000
0000
0000
,
0001
0000
0000
0000
,
0010
0000
0100
0000
,
0010
0000
0000
0000
,
1000
0000
0000
0000
,
0001
0000
0000
0000
,
0100
0000
1000
0000
,
0100
0000
0000
0001
,
0000
0100
0000
0010
,
0000
0000
0000
1000
,
0000
0010
0000
0100
,
0000
0000
0000
0001
,
0000
1000
0000
0010
,
0000
0000
0000
0100
,
0000
1000
0000
0010
,
0000
0000
0000
0001
,
0000
0000
0000
1000
,
0000
0000
0000
0010
,
0000
0000
0000
0100
,
0000
0000
0000
1000
,
0000
0000
0000
0001
,
0000
0000
0000
0100
,
0000
0000
0000
0010
,
0000
0000
1000
0000
,
1000
0000
1000
0000
,
0000
0000
0010
0000
,
0010
0000
0010
0000
,
0000
0000
0100
0000
,
0100
0000
0100
0000
,
0000
0000
0001
0000
,
0001
0000
0001
0000
,
0000
0001
0000
1000
,
0000
0010
0000
0000
,
0000
0100
0000
0010
,
0000
0100
0000
0000
,
0000
1000
0000
0100
,
0000
1000
0000
0000
,
0000
0001
0000
0010
,
0000
0001
0000
0000
,
0001
0000
1000
0000
,
0010
0000
0000
0000
,
0100
0000
0001
0000
,
1000
0000
0000
0000
,
0010
0000
1000
0000
,
0100
0000
0010
0000
,
0001
0000
0000
0000
,
1000
0000
0000
0000
,
0001
0000
0100
0000
,
0010
0000
0000
0000
,
1000
0000
0100
0000
,
1000
0000
0000
0000
,
0010
0000
0001
0000
,
0010
0000
0000
0000
,
0100
0000
0010
0000
,
0100
0000
0000
0000
,
0001
0001
0000
0000
,
1000
1000
0000
0000
,
0010
0000
0100
0000
,
0010
0000
0000
0000
,
0010
0010
0000
0000
,
0100
0100
0000
0000
,
0001
0000
1000
0000
,
1001
0000
0000
0000
;

//--------------- dance-single - XLev450X-BSP ----------------
#NOTES:
     dance-single:
     XLev450X:
     Easy:
     6:
     0,0,0,0,0:
0000
0000
0000
0000
,
0000
0000
0000
0000
,
0000
0000
0000
0000
,
0000
0000
0000
0000
,
0000
0000
0000
0000
,
0000
0000
0000
0000
,
0000
0000
0000
0000
,
0000
0000
0000
0000
,
0001
1000
0010
0000
,
0001
0000
0100
1000
,
0001
0000
0100
0010
,
0100
0000
0010
0000
,
2002
0000
0000
3003
,
0002
0000
0003
0000
,
2000
0000
3000
0000
,
0001
0010
1000
0000
,
0010
0100
0010
0000
,
0001
0002
0000
0003
,
1000
2000
0000
3000
,
0001
0001
0010
0000
,
1000
0001
0000
0001
,
0000
0010
0000
1000
,
0000
0010
0000
0001
,
0010
0001
0000
1000
,
0010
1000
0000
0001
,
0000
0100
0000
1000
,
0000
0100
0000
0001
,
0100
0001
0000
1000
,
0100
1001
0000
0001
,
0000
0010
0000
1000
,
0000
0010
0000
0001
,
0010
0001
0000
1000
,
0010
1000
0000
0001
,
0000
0100
0000
1000
,
0000
0100
0000
0001
,
0100
0001
0000
1001
,
0000
0000
0001
0000
,
0001
0000
0001
0010
,
0001
0010
0100
0000
,
0100
0000
0100
1000
,
0100
1000
0010
0000
,
0010
0000
0010
0100
,
0010
0100
0110
0000
,
0110
0000
1000
0001
,
0000
1000
0000
1000
,
0000
1000
0010
1000
,
0010
0100
0000
0100
,
0000
0100
0001
0100
,
0001
0010
1001
0000
,
0010
0100
0110
0000
,
0100
2002
0000
0000
,
3003
1001
0000
0000
,
0020
0000
0030
1000
,
0020
0000
0030
0001
,
0020
0000
0030
1000
,
0020
0000
0030
0001
,
0010
0000
0100
0100
,
1000
0000
0010
0010
,
0100
0000
0001
0001
,
1000
0000
0001
1001
,
0200
0000
0300
1000
,
0200
0000
0300
0001
,
0200
0000
0300
1000
,
0200
0000
0300
0001
,
0100
0000
0010
0010
,
1000
0000
0100
0100
,
0020
0030
0002
0003
,
0110
0000
0010
0000
,
0002
0000
0003
0000
,
2000
0000
3000
0000
,
0001
0010
1000
0000
,
0010
0100
0010
0000
,
0001
0002
0000
0003
,
1000
2000
0000
3000
,
0001
0001
0010
0000
,
1000
0001
0000
0000
;

//--------------- dance-single - XLev450X-DSP ----------------
#NOTES:
     dance-single:
     XLev450X:
     Medium:
     9:
     0,0,0,0,0:
0000
0000
0000
0000
,
0000
0000
0000
0000
,
0000
0000
0000
0000
,
0000
0000
0000
0000
,
0000
0000
0000
0000
,
0000
0000
0000
0000
,
0000
0000
0000
0000
,
0000
0000
0000
0000
,
1000
0001
0100
0000
,
0010
1000
0001
0100
,
0001
1000
0010
0000
,
0100
0001
1000
0010
,
2002
0000
0000
0000
0000
0000
0000
3003
,
0010
0200
0000
0300
,
1000
0020
0000
0030
,
0001
1000
0001
0000
,
1000
0010
0100
0000
,
0100
2000
0000
3000
,
0010
0002
0000
0003
,
1000
0001
0100
0000
,
0001
0100
0000
1000
,
1000
0100
0000
0001
,
0001
0100
0000
1000
,
0100
1000
1000
0001
,
0100
0001
0001
1000
,
1000
0010
0000
0001
,
0001
0010
0000
1000
,
0010
1000
1000
0001
,
0010
1001
0000
1000
,
1000
0100
0000
0001
,
0001
0100
0000
1000
,
0100
1000
1000
0001
,
0100
0001
0001
1000
,
1000
0010
0000
0001
,
0001
0010
0000
1000
,
0010
1000
1000
1001
,
0110
0000
0001
0000
,
0001
0000
0001
0010
,
0001
0010
0100
0000
,
0100
0000
0100
1000
,
0100
1000
0010
0000
,
0010
0000
0010
0100
,
0010
0100
0110
0000
,
0110
0000
1000
0001
,
0000
0001
0001
0001
,
0001
0001
0100
0001
,
0100
0010
0010
0010
,
0010
0010
1000
0010
,
1000
0100
1100
0000
,
0010
0001
0011
0100
,
1000
2002
0000
0000
,
3003
1001
0110
0000
,
0200
0000
0310
0001
,
0200
0000
0310
1000
,
0200
0000
0310
0001
,
0200
0000
0310
1000
,
0100
0100
0010
0000
,
0001
0001
0100
0000
,
0010
0010
1000
1000
,
0001
0001
1000
1001
,
0020
0000
0130
0001
,
0020
0000
0130
1000
,
0020
0000
0130
0001
,
0020
0000
0130
1000
,
0010
0010
0100
0000
,
0001
0001
0010
0000
,
0200
0300
0001
0001
,
0110
0000
0100
0000
,
0010
0200
0000
0300
,
1000
0020
0000
0030
,
0001
1000
0001
0000
,
1000
0010
0100
0000
,
0100
2000
0000
3000
,
0010
0002
0000
0003
,
1000
0001
0100
0000
,
0001
0100
0000
0000
;

//--------------- dance-single - XLev450X-ESP ----------------
#NOTES:
     dance-single:
     XLev450X:
     Hard:
     12:
     0,0,0,0,0:
0000
0000
0000
0000
,
0000
0000
0000
0000
,
0000
0000
0000
0000
,
0000
0000
0000
0000
,
0000
0000
0000
0000
,
0000
0000
0000
0000
,
0000
0000
0000
0000
,
0000
0000
0000
0000
,
0001
1000
0010
0000
,
1000
0100
0001
0000
,
1000
0001
0100
0000
,
0010
1000
0001
1000
,
2002
0000
0000
3003
,
0001
0000
2000
0000
3000
0010
0100
0010
,
0001
0000
0000
0000
2000
0000
0000
0000
0000
3000
0001
0000
0100
0000
0001
0000
,
1000
0000
0000
0001
0000
0000
0100
0000
0000
1000
0000
0000
0010
0000
0000
0000
,
0100
0000
0000
0001
0000
0000
1000
0000
0000
0001
0000
0000
0010
0000
0000
0000
,
1000
0000
0002
0000
0003
0100
0010
0100
,
1000
0000
0000
0000
0002
0000
0000
0000
0000
0003
1000
0000
0010
0000
1000
0000
,
0001
0000
0000
1000
0000
0000
0010
0000
0000
0001
0000
0000
0100
0000
0000
0000
,
0010
0000
0000
1000
0000
0000
0001
0000
0000
0000
0000
0000
1000
0000
0100
0000
,
0010
0000
0100
0000
1000
0000
0010
0000
0100
0000
0001
0000
0010
0000
0000
0001
,
0100
0010
1000
1000
1000
0000
0002
0000
,
0023
2030
3200
0301
,
0010
0000
0110
0000
1001
1000
0010
0100
,
0001
0000
0010
0000
0100
0000
0010
0000
0001
0000
1000
0000
0100
0000
0000
0010
,
0100
1000
0010
0100
0100
0100
0002
0000
,
0023
0000
0230
0000
2300
0000
3001
0000
,
0000
0000
0000
0000
1001
0000
0000
1000
0010
0000
0100
0000
0020
0000
0000
0000
,
0130
0000
0000
0001
0010
0100
2000
0000
,
3010
0000
0000
0100
0001
1000
0200
0000
,
0310
0002
0103
0020
,
2030
0000
3002
0000
0103
0010
2000
0000
,
3010
0000
0000
0100
0010
1000
0200
0000
,
0301
0000
0000
0100
1000
0010
0100
1000
,
0100
0000
0010
0000
0001
0000
0100
0000
0010
0000
1000
0000
0001
0000
0000
1000
,
0000
0010
0000
0000
1000
0100
1000
0000
,
0001
0010
0100
0000
2000
0000
3010
0000
,
0100
0001
1000
0000
0101
0000
1100
0000
,
0101
1001
0001
0001
,
0001
0000
0001
0010
0100
0000
0110
0000
,
1000
0010
0001
0100
,
0010
0000
1000
0000
0001
0100
0010
0000
,
0001
0000
0100
0000
0010
0000
0000
0000
1000
0000
0000
0100
0000
0000
0010
0000
,
0000
0000
0010
1000
0100
0000
0010
0001
,
0010
0200
1300
0100
,
1000
1100
0101
1100
,
1001
1000
1000
1000
,
1000
0010
0100
0000
0110
0000
0001
0000
,
0010
2000
3200
0320
,
0032
0000
0103
0010
1000
0000
1001
0100
,
0001
0000
0000
0000
1000
0000
0000
0001
0000
0000
1000
0000
0000
0000
0000
0000
,
0110
0000
1001
0000
1000
0001
0100
0000
,
0001
1000
0100
0000
0010
0000
0001
0000
,
0100
0020
2030
3200
,
0320
0031
1000
0010
,
0100
0001
0010
0000
0100
1000
0010
0000
,
2000
3010
0002
0013
,
1001
0100
1001
0010
,
0011
0000
1000
1000
,
1000
0100
0010
0001
1000
0100
0010
0001
,
0100
0010
1000
0001
,
1000
0020
0230
0302
,
2003
3001
0100
0010
,
1000
0010
0001
0000
0001
0010
1000
0000
,
0020
0130
2000
3100
,
1100
0100
0110
0010
,
1001
0000
0000
0000
0000
0000
0000
0000
0100
0000
0000
0001
0100
0000
0010
0000
,
0001
0000
2000
0000
3000
0010
0100
0010
,
0001
0000
0000
0000
2000
0000
0000
0000
0000
3000
0001
0000
0100
0000
0001
0000
,
1000
0000
0000
0001
0000
0000
0100
0000
0000
1000
0000
0000
0010
0000
0000
0000
,
0100
0000
0000
0001
0000
0000
1000
0000
0000
0001
0000
0000
0010
0000
0000
0000
,
1000
0000
0002
0000
0003
0100
0010
0100
,
1000
0000
0000
0000
0002
0000
0000
0000
0000
0003
1000
0000
0010
0000
1000
0000
,
0001
0000
0000
1000
0000
0000
0010
0000
0000
0001
0000
0000
0100
0000
0000
0000
,
0011
0000
0000
1010
0000
0000
1001
0000
0000
0000
0000
0000
0000
0000
0000
0000
;
