#TITLE:Uh La La La (RGR-Special);
#GENRE:POP;
#MUSIC:Uh La La La (RGR-Special).ogg;
#BANNER:Uh La La La (RGR-Special).png;
#BACKGROUND:Uh La La La (RGR-Special)-bg.png;
#CDTITLE:./CDTitles/Dancing Stage 1.5.png;
#SAMPLESTART:55.376;
#SAMPLELENGTH:15;
#BPMS:0=130.018;
#DISPLAYBPM:130;
#BGSTAGE:5;

//--------------- dance-single - XLev450X ----------------
#NOTES:
     dance-single:
     XLev450X:
     Challenge:
     13:
     0,0,0,0,0:
0000
0000
0000
0000
,
0000
0000
0000
0000
,
0000
0000
0000
0000
,
0000
0000
0000
0000
,
0000
0000
0000
0000
,
0001
0000
1000
0000
0010
0000
0100
0000
1000
0000
0010
1000
0010
0000
0001
0000
,
0010
0000
0001
0000
0010
0000
1000
0000
0100
0000
1000
0010
1000
0000
0010
0000
,
0001
0000
0010
0001
0010
0000
1000
0000
0010
0000
0100
0010
0100
0000
0001
0000
,
0001
0010
0100
1000
0000
0000
1000
0100
0010
0001
0000
0000
,
0001
1000
0010
0100
1000
0010
0001
0010
,
0000
0000
1000
0000
0010
0000
0100
0000
1000
0000
0001
0000
0010
0100
1000
0000
,
0001
0000
1000
0001
1000
0000
0010
0000
1000
0000
0001
0000
0100
0000
0000
0000
,
0001
1000
0100
1000
0010
1000
0010
0000
,
0001
0000
0010
0000
0001
0000
0100
0000
1000
0000
0010
1000
0010
0000
0100
0000
,
1000
0001
0010
0100
1000
0001
0101
0000
,
0001
0000
1000
0000
0010
0000
1000
0000
0001
0000
1000
0001
1000
0000
0001
0000
,
1001
0000
0000
0000
0000
0000
0000
0000
0000
0000
0000
0000
0001
0000
1000
0000
0001
0000
1000
0000
0000
0000
0000
0000
,
0001
0000
0000
1000
0000
0000
0010
0000
0100
0000
0000
0001
0000
0000
1000
0000
,
0010
0000
0000
0100
0000
0000
1000
0000
0001
0000
0000
0100
0000
0000
0010
0000
,
1000
0000
0000
0010
0000
0000
0001
0000
0010
0000
0000
0001
0000
0000
0100
0000
,
1000
0000
0000
0001
0000
0000
0100
0000
1000
0000
0000
0010
0000
0000
1000
0000
,
0001
0000
0100
0000
1000
0000
0000
0000
0010
0000
1000
0000
0010
0000
0100
0010
,
0100
0000
0010
0000
1000
0000
0000
0000
0001
0000
0010
0000
0001
0000
0010
0001
,
0010
0000
1000
0000
0010
0000
0000
0000
0100
0000
1000
0000
0010
0000
1000
0010
,
1000
0100
1000
0001
0010
0100
1000
0000
,
0001
1000
0010
1000
0100
1000
0010
0001
,
0010
0000
0001
0010
0001
0000
1000
0010
1000
0000
0010
0100
0010
0000
0001
0000
,
1000
0001
0100
1000
0010
1000
0010
1000
,
1001
0000
1010
0000
0101
0000
0110
0000
,
0001
0000
0000
1000
0000
0000
0010
0000
0100
0000
0000
0001
0000
1000
0001
1000
,
0001
0000
1000
0000
0010
1000
0010
0100
,
1000
0000
0001
0010
0001
0000
0000
1000
0000
0001
0000
0000
0100
0000
0000
0000
,
1000
0000
0010
0000
1000
0010
0000
0100
0000
0001
0000
0000
1000
0000
0000
0000
,
0001
1000
0010
0000
0100
1000
0010
0001
,
0010
0000
1000
0000
0001
0100
0000
1000
0000
0000
0001
0000
0010
0000
0100
0000
,
1000
0000
0010
1000
0010
0000
0001
0010
0001
0000
0010
0100
0010
0000
1000
0000
,
0001
0000
0100
0000
1000
0001
0000
0010
0000
1000
0000
0100
0001
0000
0100
0000
,
1000
0010
0001
0100
0010
1000
0001
0000
,
1000
0010
0001
0100
0010
0001
1001
0000
,
0010
1000
0010
0100
1000
0001
1010
0000
,
0010
0001
0010
0001
0010
0001
0101
0000
,
0010
1000
0001
0100
1000
0010
0101
0000
,
1001
1001
1001
0000
0011
0011
0011
0000
,
1010
1010
1010
0000
0110
0110
0110
0000
,
0011
0110
1100
0000
1100
0101
0011
0000
,
1010
0110
1001
0000
1001
1001
0110
0000
,
1000
0000
0001
0000
1000
0001
1000
0000
0010
0000
1000
0000
0001
0100
1000
0000
,
0010
0000
0100
0000
0010
0001
1000
0000
1000
0000
0010
0000
0100
1000
0001
0000
,
0010
0000
0001
0000
0001
0100
1000
0000
0010
0000
0100
0000
0001
1000
0001
0000
,
1001
0000
0000
0000
0000
0000
0000
0000
;
