#TITLE:U.S.A.;
#ARTIST:Remixed by BEMANI Sound Team "PHQUASE feat. TRANDER Jr.";
#ARTISTTRANSLIT:Remixed by PHQUASE feat. TRANDER Jr.;
#GENRE:IIDX EDITION;
#MUSIC:U.S.A.ogg;
#BANNER:U.S.A.png;
#BACKGROUND:U.S.A-bg.png;
#CDTITLE:./CDTitles/bm IIDX 26 Rootage.png;
#SAMPLESTART:53.536;
#SAMPLELENGTH:15;
#OFFSET:0.68;
#BPMS:0=177;
#BGSTAGE:17;

//--------------- dance-single - XLev450X-bSP ----------------
#NOTES:
     dance-single:
     XLev450X:
     Beginner:
     4:
     0,0,0,0,0:
0000
0000
0000
0000
,
0000
0000
0000
0000
,
0000
0000
0000
0000
,
0000
0000
0000
0000
,
0000
0000
0000
0000
,
0000
0000
0000
0000
,
0000
0000
0000
0000
,
0001
0000
0001
0000
,
0001
0000
0000
0000
,
1000
0000
1000
0000
,
1000
0000
0000
0000
,
0001
0000
1000
0000
,
0001
0000
0000
0000
,
1000
0000
0001
0000
,
1000
0000
0000
0000
,
2002
0000
0000
0000
,
3003
0000
0000
0000
,
0010
0010
0010
0000
,
0100
0100
0100
0000
,
0220
0000
0000
0000
,
0330
0000
0000
0000
,
1000
1000
1000
0000
,
0100
0100
0100
0000
,
2200
0000
0000
0000
,
3300
0000
0000
0000
,
0001
0001
0001
0000
,
0010
0010
0010
0000
,
0022
0000
0000
0000
,
0033
0000
0000
0000
,
0001
0000
1000
0000
,
0001
0000
0000
0000
,
0010
0001
0010
0000
,
0010
0100
0010
0000
,
0010
1000
0010
0000
,
1000
0000
0100
0000
,
0001
1000
0001
0000
,
0010
1000
0010
0000
,
1000
0100
1000
0000
,
0001
1000
0001
0000
,
2002
0000
0000
3003
,
0001
0000
1000
0000
,
0001
0000
0010
0000
,
0100
0000
0010
0000
,
1000
0000
0010
0000
,
1000
0000
0001
0000
,
0100
0000
0001
0000
,
1000
0000
0001
0000
,
1000
0000
0000
0000
,
0010
0000
1000
0000
,
0100
0000
0001
0000
,
0010
0000
1000
0000
,
0001
0000
0000
0000
,
0001
0000
0010
0000
,
0100
0000
1000
0000
,
0001
0000
0010
0000
,
1000
0000
0000
0000
,
1000
0000
0001
0000
,
1000
0000
0000
0000
,
0100
0000
0010
0000
,
0100
0000
0000
0000
,
2002
0000
0000
0000
,
3003
0000
0000
0000
,
2002
0000
0000
0000
,
3003
0000
0000
0000
,
0001
0000
0001
0000
,
0001
0000
0000
0000
,
0010
0000
0010
0000
,
0010
0000
0000
0000
,
0100
0000
0100
0000
,
0100
0000
0000
0000
,
1000
0000
1000
0000
,
1000
0000
0000
0000
,
0000
0000
0000
0000
,
0001
1000
0001
0000
,
0010
0000
1000
0000
,
0100
0000
0000
0000
,
0010
1000
0010
0000
,
0001
0010
0001
0000
,
1000
0001
1000
0000
,
2002
0000
0000
3003
,
0001
0000
1000
0000
,
0001
0000
0000
0000
,
0010
0000
0100
0000
,
0010
0000
0000
0000
,
0001
0000
0001
0000
,
1000
0000
1000
0000
,
0010
0000
0010
0000
,
0100
0000
0100
0000
;

//--------------- dance-single - XLev450X-BSP ----------------
#NOTES:
     dance-single:
     XLev450X:
     Easy:
     8:
     0,0,0,0,0:
0000
0000
0000
0000
,
0000
0000
0000
0000
,
0000
0000
0000
0000
,
0000
0000
0000
0000
,
0000
0000
0000
0000
,
0000
0000
0000
0000
,
0000
0000
0000
0000
,
0001
1000
0001
0010
,
1000
0001
0100
1000
,
0001
0000
0000
0100
0000
0000
1000
0000
0000
0100
0000
0000
0010
0000
0010
0000
,
2002
0000
0000
3003
,
0001
0010
1000
0100
,
0001
1000
0001
1000
,
0010
0000
0100
0000
,
0220
0000
0000
0330
,
2002
0000
0000
3003
,
0001
0000
1000
0000
,
1000
1000
0001
1000
,
0001
0010
0001
0000
1000
0000
0001
0000
,
0220
0000
0000
0330
,
1000
0000
0001
0000
,
1000
0100
0001
0010
,
0010
0100
0010
0000
2002
0000
3003
0000
,
1000
0001
0100
0000
,
0001
1000
0001
0010
,
0100
0000
1000
0000
0001
0010
0001
0000
,
1000
0100
1000
0000
0001
0000
1000
0000
,
0001
0000
1000
0000
,
0010
0100
1000
0001
,
1000
0000
0001
0000
,
0000
0000
0001
0000
0000
0100
0000
0000
0010
0000
0000
1000
0000
0000
0100
0000
,
0001
1000
0001
1000
,
0010
0000
0100
0000
0001
0010
0001
0000
,
1000
0100
1000
0100
,
1000
0100
1000
0000
0001
0000
1000
0000
,
2002
0000
0000
3003
,
2000
0000
0000
0000
0000
0000
3000
0000
0001
0000
0000
1000
0000
0000
0001
0000
,
0000
0001
1000
0100
,
0001
0010
0001
0000
1000
0100
1000
0000
,
2002
0000
0000
0000
0000
0000
0000
3003
,
0010
1000
0100
0001
,
1000
0000
0100
0000
0001
0010
0001
0000
,
1000
0100
1000
0010
,
1000
0010
1000
0000
0010
0100
0010
0000
,
0001
1000
0001
1000
,
0001
0010
0001
0000
1000
0000
0000
0000
,
0001
1000
0001
0000
,
0101
0100
0100
0000
,
0001
1000
0010
1000
,
0010
0000
0100
0000
0001
0010
0001
0000
,
1000
0100
1000
0001
,
1000
0001
1000
0000
0001
0000
0000
0000
,
1000
0010
1000
0100
,
1000
0000
0010
0000
0010
0001
0010
0000
,
1000
0100
1000
0010
,
1001
1000
1000
0000
,
0001
1000
0001
0010
,
1000
0001
0100
1000
,
0001
0000
0000
0100
0000
0000
1000
0000
0000
0100
0000
0000
0010
0000
0010
0000
,
2002
0000
0000
3003
,
0001
0000
1000
0000
,
0010
0000
0100
0000
,
0001
0010
1000
0100
,
0001
0010
0001
0000
1000
0100
1000
0000
,
2002
0000
0000
3003
,
0001
0000
0001
0000
,
2020
0000
0000
3030
,
1000
0000
1000
0000
,
0202
0000
0000
0303
,
0100
0000
0100
0000
,
2002
0000
0000
3003
,
0220
0000
0000
0000
0000
0000
0000
0330
,
2002
0000
0000
0000
0000
0000
0000
3003
,
0001
1000
0001
0000
,
0010
1000
0100
1000
,
0001
0010
0001
0000
1000
0100
1000
0000
,
0001
1000
0100
0010
,
1000
0000
0001
0000
,
0010
0100
0010
0100
,
2002
0000
0000
0000
0000
0000
0000
3003
,
1000
0001
1000
0100
,
0001
1000
0010
0001
,
1000
0000
0000
0010
0000
0000
0001
0000
0000
0010
0000
0000
0100
0000
0100
0000
,
2001
0001
0001
3001
,
0001
0000
0000
0000
1000
0000
0000
0001
0000
0000
0100
0000
0010
0000
1000
0000
,
0001
0000
0000
0000
1000
0000
0000
0010
0000
0000
1000
0000
0100
0000
0010
0000
,
0001
0000
0000
0100
0000
0000
1000
0000
0000
0010
0000
0000
0100
0000
0010
0000
,
0002
1000
1000
1003
;

//--------------- dance-single - XLev450X-DSP ----------------
#NOTES:
     dance-single:
     XLev450X:
     Medium:
     12:
     0,0,0,0,0:
0000
0000
0000
0000
,
0000
0000
0000
0000
,
0000
0000
0000
0000
,
0000
0000
0000
0000
,
0000
0000
0000
0000
,
0000
0000
0000
0000
,
0000
0000
0000
0000
,
0001
1000
0001
0000
0010
0000
0100
0000
,
0001
0100
1000
0000
0001
0000
1000
0000
,
0001
0000
0000
1000
0000
0000
0010
0000
0000
0100
0000
0000
1000
0000
0001
0000
,
0020
0100
0100
0130
,
0001
0010
0001
0000
1000
0000
0100
0000
,
0010
1000
0010
0000
0001
0000
0010
0000
,
1000
0000
0000
0001
0000
0000
0100
0000
0000
0010
0000
0000
1000
0000
0010
0000
,
2000
0001
0001
3001
,
1000
0000
0001
0000
2002
0000
3003
0001
,
0100
1000
0100
0001
0010
1000
0200
0300
,
0001
1000
0100
1000
,
0001
0010
0001
0000
0010
1000
0010
0000
,
0001
0000
1000
0000
2002
0000
3003
0001
,
1000
0100
0010
0001
1000
0100
0002
0003
,
0010
0100
0010
0001
,
0001
0010
0001
0000
1000
0100
1000
0000
,
0001
1000
0010
1000
,
0010
0000
0100
0100
0001
0000
1000
0000
,
0001
0001
0010
0000
0010
0010
0100
0000
,
0100
0100
1000
0000
1000
1000
0001
0000
,
0001
1000
0100
0001
,
0001
0010
0001
0000
1000
0010
0100
0000
,
0001
0000
0010
1000
0001
0000
0010
0100
,
0001
0000
0100
0000
0000
0010
0000
0000
1000
0000
0000
0001
0000
0000
0100
0000
,
0010
1000
0100
1000
,
0001
0000
0010
0000
0001
0000
0000
0000
1000
0000
0000
0010
0000
0000
0100
0000
,
0000
1000
0001
0100
,
0010
0100
0010
0000
0010
1000
0010
0000
,
0001
1000
1000
1000
,
1000
0000
0000
0000
0010
0000
0000
0000
1000
0000
0000
0001
0000
0000
0100
0000
,
0000
0001
1000
0000
0010
0000
0100
0000
,
0001
0010
0001
0000
1000
0100
1000
0000
,
2002
0000
0000
0000
0000
0000
0000
3003
,
1000
0001
0100
1000
,
0010
1000
0010
0000
0001
0001
1000
0000
,
0001
0010
0001
0000
0010
0100
0010
0000
,
0010
1000
0010
0000
0001
0000
1000
0000
,
0100
1000
0001
0100
,
0001
0010
0001
0000
0100
0100
1000
0000
,
0010
1000
0010
0000
0010
0100
0010
0000
,
0002
1000
1000
1003
,
0001
1000
0010
1000
,
1000
0100
1000
0000
0001
0010
0001
0000
,
0100
1000
0001
0100
,
0010
1000
0010
0000
0100
0010
0100
0000
,
1000
0001
0100
1000
,
0001
0010
0001
0000
0100
0010
0100
0000
,
1000
0001
1000
0010
,
1002
1000
1000
1003
,
0001
1000
0001
0000
0010
0000
0100
0000
,
0001
0100
1000
0000
0001
0000
1000
0000
,
0001
0000
0000
1000
0000
0000
0010
0000
0000
0100
0000
0000
1000
0000
0001
0000
,
0020
0100
0100
0130
,
0002
0000
0000
0000
0000
0000
0003
0000
1000
0000
0000
0001
0000
0000
0100
0000
,
0020
0000
0000
0000
0000
0000
0030
0000
1000
0000
0000
0100
0000
0000
0010
0000
,
0001
0010
0001
0000
0010
0100
0010
0000
,
2002
0000
0000
0000
0000
0000
0000
3003
,
1000
0001
0100
0010
,
1000
0100
1000
0000
,
0001
1000
0100
1000
,
0001
0010
0001
0000
1000
0000
0100
0000
,
0001
1000
0001
0010
,
1000
0100
0001
0010
,
1000
0001
0100
0010
,
2002
0000
0000
0000
0000
0000
0000
3003
,
0220
0000
0000
0000
0000
0000
0000
0330
,
0001
0010
0001
0000
0010
0100
0010
0000
,
1000
0100
1000
0001
,
0100
0001
0100
0000
0010
1000
0010
0000
,
0100
1000
0001
0100
,
0010
0000
1000
0000
0001
0010
0001
0000
,
1000
0100
1000
0001
,
0001
1000
0001
0000
0010
0100
0010
0000
,
1000
0001
1000
0000
0100
0000
0010
0000
,
1000
0010
0001
0000
1000
0000
0001
0000
,
1000
0000
0000
0001
0000
0000
0100
0000
0000
0010
0000
0000
0001
0000
1000
0000
,
0200
0010
0010
0310
,
1000
0000
0100
0000
1000
0000
0000
0001
0000
0000
0010
0000
0100
0000
1000
0000
,
0100
0000
0001
0000
0100
0000
0000
1000
0000
0000
0001
0000
0100
0000
1000
0000
,
0001
0000
0000
1000
0000
0000
0010
0000
0000
0100
0000
0000
0001
0000
0100
0000
,
0002
1000
1000
1003
;

//--------------- dance-single - XLev450X-ESP ----------------
#NOTES:
     dance-single:
     XLev450X:
     Hard:
     16:
     0,0,0,0,0:
0000
0000
0000
0000
,
0000
0000
0000
0000
,
0000
0000
0000
0000
,
0000
0000
0000
0000
,
0000
0000
0000
0000
,
0000
0000
0000
0000
,
0000
0000
0000
0000
,
0001
0000
1000
0000
0010
0000
0000
0100
0000
0000
0001
0000
1000
0000
0010
0000
,
1000
0000
0001
0000
0100
0000
0000
0001
0000
0000
1000
0000
0010
0000
1000
0000
,
0001
0010
0000
0010
0100
0000
0100
1000
0000
1000
0100
0000
0010
0000
0001
0000
,
0120
0100
0100
0130
,
0010
0000
1000
0000
0010
0000
0000
1000
0000
0000
0100
0000
0001
0000
0100
0000
,
1000
0000
0001
0000
0010
0000
0000
1000
0000
0000
0001
0000
0100
0000
0001
0000
,
1000
0100
0000
0010
0001
0000
0001
0010
0000
0010
0100
0000
0100
0000
1000
0000
,
2001
0001
0001
3001
,
2002
0000
0000
0000
3003
0000
0000
0000
0220
0000
0000
0000
0330
0000
0000
0000
2002
0000
0000
0000
0000
0000
0000
3003
0000
0000
0000
0000
0001
0000
0000
0000
,
1000
0010
0100
1000
0001
0010
0100
1000
,
0001
0020
0030
1000
0010
2000
3000
0001
,
0010
0002
0003
1000
0010
1000
0001
1000
,
0220
0000
0000
0000
0330
0000
0000
0000
2002
0000
0000
0000
3003
0000
0000
0000
0220
0000
0000
0000
0000
0000
0000
0330
0000
0000
0000
0000
0001
0000
0000
0000
,
1000
0020
0030
0100
1000
0001
0100
1000
,
0001
0020
0030
1000
0010
2000
3000
0100
,
0001
0020
0030
1000
0002
1000
0000
0003
,
2200
0000
0000
0000
3300
0000
0000
0000
0022
0000
0000
0000
0033
0000
0000
0000
2002
0000
0000
0000
0000
0000
0000
3003
0000
0000
0000
0000
0001
0000
0000
0000
,
1000
0010
0100
1000
0001
0010
0100
1000
,
0001
0020
0030
1000
0100
2000
3000
0001
,
0010
1000
0100
1000
0001
0010
1000
0100
,
0022
0000
0000
0000
0033
0000
0000
0000
2200
0000
0000
0000
3300
0000
0000
0000
2002
0000
0000
0000
0000
0000
0000
3003
0000
0000
0000
0000
0001
0000
0000
0000
,
1000
0010
0100
1000
0001
0010
1000
0001
,
0010
0000
0200
0000
0300
0000
1000
0001
0100
0000
2000
0000
3000
0000
0001
2000
,
3000
0000
1001
0000
0000
0110
0000
0000
1001
0000
0000
0110
0000
0000
1000
0001
,
1000
0001
1000
0010
0100
1000
0001
0010
,
1000
0000
0000
0001
0000
0000
0200
0000
0010
0000
0000
0010
0000
0000
0310
0000
,
0000
0010
1000
0100
1000
0001
0010
1000
,
0001
0000
0100
1000
0000
0001
0010
0000
,
1000
0100
1000
0001
0010
0100
1000
0001
,
1000
0000
0000
0010
0000
0000
0200
0000
0001
0000
0000
0301
0000
0000
1000
0000
,
0001
1000
0010
0100
1000
0100
0001
1000
,
0001
0010
0100
1000
0001
0010
0100
1000
0001
0010
0100
1000
0001
0010
0100
1000
,
2002
0000
0000
3003
,
2020
3030
2020
3030
0220
0330
2002
3003
,
0001
0010
1000
0010
0200
1000
1300
0000
,
0010
1000
0010
0100
0001
1000
0100
0010
,
0100
1000
0100
0000
1000
0010
1000
0000
0001
0100
0001
0000
0010
0001
0010
0000
,
0022
0033
0022
0033
0220
0330
2002
3003
,
1000
0010
0001
0010
0200
0001
0301
0000
,
0010
0100
0010
0001
0100
0000
0010
1000
,
0100
0000
0000
0100
0010
0000
0001
0000
1000
0000
1000
0000
0010
1000
0010
1000
,
0200
0300
2200
3300
0220
0330
2002
3003
,
0001
0100
0001
0010
2000
0010
3010
0000
,
0100
1000
0001
0100
0010
1000
0001
0010
,
0001
0100
0001
0000
0010
0001
0010
0000
0100
1000
0100
0000
1000
0010
1000
0000
,
0202
0303
0202
0303
0220
0330
2002
3003
,
1000
0010
0001
0010
0200
0001
0301
0010
,
1000
0010
0100
0010
0001
0010
0001
0100
,
0010
1000
0010
1000
0001
0100
0001
0100
0001
0010
0001
0010
0100
1000
0100
1000
,
0001
0000
1000
0000
0010
0000
0000
0100
0000
0000
0001
0000
1000
0000
0010
0000
,
1000
0000
0001
0000
0100
0000
0000
0001
0000
0000
1000
0000
0010
0000
1000
0000
,
0001
0010
0000
0010
0100
0000
0100
1000
0000
1000
0100
0000
0010
0000
0001
0000
,
0120
0100
0100
0130
,
0110
0000
0000
0000
1000
0100
0010
0001
0100
0000
0000
0110
0000
0000
1001
0000
,
0110
0000
0000
0000
0001
0100
0010
1000
0100
0000
0000
0110
0000
0000
1001
0000
,
0011
0000
0000
1001
0000
0000
0101
0000
1010
0000
0000
1001
0000
0000
1100
0000
,
0001
0000
0001
0000
1000
0000
1000
0000
0001
0010
0100
1000
0010
0100
0001
1000
,
0001
1000
0010
0100
,
0001
0010
0001
2000
3000
0010
1000
0010
,
1000
0001
0010
1000
0100
1000
0001
0010
,
1000
0002
0003
0100
1000
0002
0003
0010
,
0001
0010
0022
0033
1000
0001
2002
3003
,
0100
0010
0220
0330
0010
1000
2020
3030
,
0001
0010
1000
0001
0200
0300
2000
3000
,
2002
0000
0000
0000
0000
0000
0000
3003
,
0220
0000
0000
0000
0000
0000
0000
0330
,
0001
0010
1000
0010
0200
1000
1300
0001
,
0100
0010
1000
0010
0100
0001
1000
0100
,
0010
0001
1000
0000
0100
1000
0001
0000
0100
0001
1000
0000
0010
1000
0001
0000
,
0022
0033
2020
3030
0220
0330
2002
3003
,
1000
0000
0010
0000
0100
0001
0100
0000
0001
0100
0001
1000
0001
0010
0100
0000
,
1000
1000
0010
0010
0100
0100
0001
0001
,
1000
0100
1000
0100
0010
0001
0010
0001
1000
0010
1000
0010
0100
0001
0100
0001
,
1000
0000
0001
0000
0100
0000
0000
0010
0000
0000
1000
0000
0001
0000
0100
0000
,
0001
0000
1000
0000
0010
0000
0000
1000
0000
0000
0001
0000
0100
0000
0001
0000
,
1000
0100
0000
0100
0010
0000
0010
0001
0000
0001
0010
0000
0100
0000
1000
0000
,
0210
0010
0010
0310
,
0100
0000
0001
0000
0100
0000
0000
0001
0000
0000
0010
0000
1000
0000
0010
0000
,
0001
0000
1000
0000
0100
0000
0000
0001
0000
0000
1000
0000
0010
0000
1000
0000
,
0001
0010
0000
0100
1000
0000
1000
0100
0000
0100
0010
0000
0010
0000
0001
0000
,
1002
1000
1000
1003
;
