#TITLE:罪と罰;
#SUBTITLE:;
#ARTIST:Xceon feat. Mayumi Morinaga;
#TITLETRANSLIT:Tsumi to batsu;
#SUBTITLETRANSLIT:;
#ARTISTTRANSLIT:;
#GENRE:HYPER J-POP;
#CREDIT:;
#MUSIC:Tsumi to batsu.ogg;
#BANNER:Tsumi to batsu.png;
#BACKGROUND:Tsumi to batsu-bg.png;
#CDTITLE:./CDTitles/bm IIDX 21 SPADA.png;
#SAMPLESTART:13.370;
#SAMPLELENGTH:15.000;
#SELECTABLE:YES;
#OFFSET:1.161;
#BPMS:0.000=144.000;
#STOPS:231.750=0.417;
#BGSTAGE:27;
#BGCHANGES:0.000=Tsumi to batsu.mp4=1.000=0=0=0=StretchNoLoop====,
99999.000=-nosongbg-=1.000=0=0=0=StretchNoLoop====
;
#FGCHANGES:;

//--------------- dance-single - XLev450X-bSP ----------------
#NOTES:
     dance-single:
     XLev450X:
     Beginner:
     4:
     0,0,0,0,0:
0000
0000
0000
0000
,
0000
0000
0000
0000
,
0000
0000
0000
0000
,
0000
0000
0000
0000
,
0000
0000
0000
0000
,
0000
0000
0000
0000
,
0000
0000
0000
0000
,
0000
0000
0000
0000
,
0000
0000
0000
0000
,
0001
0000
1000
0000
,
0010
0000
0000
0000
,
0001
0000
1000
0000
,
0010
0000
0000
0000
,
0001
0000
0100
0000
,
1000
0000
0000
0000
,
0010
0000
0001
0000
,
1000
0000
0010
0000
,
2002
0000
0000
0000
,
0000
0000
0000
0000
,
0000
0000
0000
3003
,
0010
0010
0010
0000
,
0001
0001
0001
0000
,
1000
1000
1000
0000
,
0100
0100
0100
0000
,
0010
0001
1000
0000
,
0010
1000
0100
0000
,
0001
1000
0001
0000
,
0010
1000
0100
0000
,
0001
1000
0010
0100
,
0001
0000
1000
0000
,
0010
1000
0001
0100
,
0010
1000
0001
0000
,
0010
0000
0100
0000
,
0001
0000
1000
0000
,
0001
0010
0100
0001
,
1000
0000
0010
0000
,
1001
0000
0000
0000
,
0010
0010
0010
0000
,
0100
0100
0100
0000
,
0001
1000
0010
0000
,
1000
0001
0100
0000
,
0010
1000
0001
0000
,
0100
0010
1000
0000
,
0001
0010
0100
0001
,
1000
0010
0100
0001
,
0220
0000
0000
0000
,
0000
0000
0000
0000
,
0000
0000
0000
0000
,
0000
0000
0000
0330
,
0001
1000
0010
0100
,
0001
1000
0010
0100
,
0001
0000
1000
0000
,
0001
0010
0100
0000
,
1000
0000
0001
0000
,
0010
0000
0100
0000
,
1000
0001
0010
0100
,
0001
0000
1000
0000
,
0020
0000
0000
0000
,
0030
0001
1000
0010
,
0100
0001
0000
1000
,
0000
0001
0100
0010
,
1000
0001
0000
0100
,
0000
0010
0100
0001
,
1000
0010
0000
0100
,
0000
0001
1000
0001
,
0000
0010
0100
0001
,
0000
1000
0001
0010
,
0100
0001
1000
0010
,
0100
0001
1000
0010
,
0100
0001
1000
0010
,
0100
2002
0000
0000
,
0000
0000
0000
0000
,
0000
0000
0000
3003
;

//--------------- dance-single - XLev450X-BSP ----------------
#NOTES:
     dance-single:
     XLev450X:
     Easy:
     7:
     0,0,0,0,0:
0000
0000
0000
0000
,
0000
0000
0000
0000
,
0000
0000
0000
0000
,
0000
0000
0000
0000
,
0000
0000
0000
0000
,
0001
1000
0010
0100
,
0001
1000
0010
0000
,
0100
0001
1000
0010
,
1001
0000
0000
0000
,
0001
1000
0010
0100
,
0001
1000
0001
0010
,
1000
0000
0001
0000
,
0010
0100
1000
0001
,
0100
0000
0010
0001
,
0100
1000
0001
0000
,
0010
1000
0001
0010
,
0100
0000
1000
0000
0010
1000
0100
0000
,
0020
0000
0000
0000
,
0000
0000
0030
0000
,
0200
0000
0000
0300
,
0001
1000
0010
0001
,
1000
0100
1000
0000
,
0010
0001
0100
0001
,
1000
0010
0100
0000
,
0010
0001
1000
0010
,
0100
0001
1000
0000
,
0001
1000
0010
0100
,
0001
0000
0010
0000
0001
1000
0010
0000
,
0100
0000
0001
0000
1000
0010
0100
0000
,
1000
0001
0010
0000
,
0100
0001
1000
0010
,
0100
0000
0001
0000
0001
1000
0010
0000
,
0100
0001
1000
0000
,
0001
0010
0100
0000
,
1000
0001
0010
0100
,
0001
1000
0010
0000
1000
0001
0100
0000
,
2002
0000
0000
3003
,
0010
0000
0100
0000
0001
0010
0001
0000
,
0100
0000
1000
0000
0100
1000
0100
0000
,
0010
0000
0100
0000
0010
0100
0001
0000
,
1000
0000
0010
0000
1000
0001
0100
0000
,
0010
0001
1000
0000
,
0001
0010
0100
0000
,
0001
0000
1000
0000
0010
0100
0001
0000
,
1000
0000
0010
0000
0100
0001
1000
0000
,
0220
0000
0000
0000
,
0000
0000
0000
0000
,
0000
0000
0000
0000
,
0000
0000
0000
0330
,
0001
0000
1000
0000
0001
0100
0010
0000
,
1000
0000
0001
0000
0010
0100
0001
0000
,
1000
1000
0001
0010
,
0100
0000
0001
0000
1000
0010
0100
0000
,
0001
0010
1000
0000
,
0001
0010
0100
0000
,
0001
1000
0010
0100
,
0001
1000
0010
0000
0100
0000
0001
0000
,
1000
0001
0010
0000
0100
0001
1000
0010
,
0000
0000
0001
0000
1000
0000
0010
0001
,
0100
0001
1000
0010
,
0000
0000
0100
0000
0001
0000
1000
0001
,
0100
0010
0001
1000
,
0000
0000
0010
0000
0100
0000
0001
1000
,
0010
0100
0001
1000
,
0000
0010
0100
0001
,
0000
0000
1000
0000
0001
0000
0010
0100
,
0010
0001
1000
0010
,
0100
0000
0001
1000
0010
0000
0100
0001
,
0010
0001
1000
0010
,
0100
0000
0001
0100
0010
0000
1000
0001
,
0100
0010
2002
0000
0000
0000
0000
0000
,
0000
0000
0000
0000
,
0000
0000
0000
3003
;

//--------------- dance-single - XLev450X-DSP ----------------
#NOTES:
     dance-single:
     XLev450X:
     Medium:
     11:
     0,0,0,0,0:
0000
0000
0000
0000
,
0000
0000
0000
0000
,
0000
0000
0000
0000
,
0000
0000
0000
0000
,
0000
0000
0000
0000
,
0001
0000
0000
1000
0000
0000
0010
0000
0000
0000
0001
0000
1000
0000
0000
0000
,
0010
0000
0000
1000
0000
0000
0001
0000
0000
0000
0010
0000
1000
0000
0000
0000
,
0001
0100
0010
0000
1000
0001
0100
0000
,
0001
0000
0000
1000
0000
0000
0010
0000
0000
0100
0000
0000
0001
0000
1000
0000
,
0010
0100
0001
1000
,
0010
0000
0001
0000
1000
0001
0100
0000
,
0001
1000
0010
0100
,
0001
0000
1000
0000
0010
0100
0001
1000
,
0010
1000
0001
0100
,
0010
1000
0001
0000
0100
0000
0010
0000
,
0001
0000
1000
0000
0001
0100
0010
0000
,
1000
0000
0000
0100
0000
0000
0001
0000
0010
0000
0100
0000
0001
0000
0010
0000
,
2002
0000
0000
0000
,
0000
0000
0000
3003
,
0220
0000
0000
0000
0000
0000
0000
0330
,
0001
0000
1000
0000
0010
0100
0001
0000
,
1000
0000
0010
0000
0100
1000
0100
0001
,
0010
0000
0100
0000
0001
0010
0001
0000
,
1000
0000
0010
0000
0100
1000
0100
0000
,
0010
1000
0001
0000
,
0100
0010
1000
0001
,
0010
0100
0001
0010
,
1000
0000
0001
0000
0010
0001
0010
0000
,
1000
0000
0001
0100
0000
0010
0000
1000
,
0000
0001
0100
0000
0010
0001
0010
1000
,
0100
0000
0001
0010
0000
1000
0000
0001
,
0000
0100
0010
1000
0000
0000
0000
0000
,
0001
0000
0000
1000
0000
0000
0010
0000
0000
0100
0001
0000
1000
0000
0000
0000
,
0001
1000
0010
0100
,
0001
1000
0010
0000
0100
1000
0100
0000
,
0001
0010
0100
1000
0010
0000
0000
0000
,
0101
0000
0000
1010
0000
0000
0110
0000
1001
0000
0000
0000
0001
0000
1000
0000
,
0010
0000
0100
0000
0001
1000
0100
0000
,
0010
0000
0001
0000
0010
1000
0100
0001
,
0010
0000
1000
0100
1000
0000
0010
0000
,
0001
0000
0010
0100
0001
0000
1000
0000
,
0010
0000
1000
0001
0100
0000
0010
0000
,
0001
1000
0010
0000
0100
0000
0001
0000
,
1000
0010
0100
0001
,
1000
0000
0000
0001
0000
0000
0010
0000
0100
0000
1000
0000
0001
0000
0010
0000
,
2002
0000
0000
0000
,
0000
0000
0000
3003
,
0001
0010
0001
0000
0100
1000
0100
0000
,
0010
0100
0001
1000
0000
0010
0100
0000
,
0000
0001
1000
0010
0000
0100
1000
0100
,
0000
0001
0010
0100
0001
1000
0010
0100
,
0000
0001
0010
0001
0000
1000
0100
0010
,
0000
0001
1000
0010
0100
0000
0001
0000
,
1000
0010
0100
0000
1000
0100
0001
0000
,
0010
0000
1000
0000
0001
0100
0010
0000
,
1000
0001
0010
1000
0001
0100
0010
0100
,
2002
0000
0000
3003
,
0001
0000
1000
0000
0010
0100
0001
2020
,
0000
3030
0001
0000
1000
0000
0010
0100
,
0001
0000
1000
0000
0010
0000
0100
0001
,
1000
0000
0010
0000
1000
0000
0001
0100
,
0010
0000
1000
0001
0100
0010
1000
0000
,
0001
0000
0010
0000
1000
0001
0100
0000
,
0001
0000
1000
0010
0100
1000
0001
0000
,
0010
0000
1000
0000
0001
0000
0010
0100
,
0001
0000
0000
0000
1000
0000
0000
0010
0000
0000
0100
0000
0001
0000
1000
0000
,
0010
0000
0100
0000
0001
0000
0000
1000
0000
0000
0010
0000
0100
0000
0001
0000
,
1000
0000
0000
0000
0100
0000
0000
0010
0000
0000
1000
0000
0001
0000
0100
0000
,
0001
0000
0001
1000
0010
0100
0001
1000
,
0010
0000
0100
0001
1000
0000
1000
0010
,
0100
2002
0000
0000
,
0000
0000
0000
0000
,
0000
0000
0000
3003
;

//--------------- dance-single - XLev450X-ESP ----------------
#NOTES:
     dance-single:
     XLev450X:
     Hard:
     16:
     0,0,0,0,0:
0000
0000
0000
0000
,
0000
0000
0000
0000
,
0000
0000
0000
0000
,
0000
0000
0000
0000
,
0000
0000
0000
0000
,
0001
0000
1000
0000
0010
0000
0100
0001
0000
0000
0010
0000
1000
0000
0000
0000
,
0010
0000
1000
0000
0001
0000
0100
0010
0000
0000
1000
0000
0001
0000
0000
0000
,
0010
0100
0001
0010
0100
1000
0001
1000
,
0100
0010
0001
1000
0100
0010
0001
0010
0100
1000
0100
0010
0001
1000
0010
1000
,
0010
0000
0000
0000
1000
0000
0001
0010
0000
0000
0100
0000
0001
0000
1000
0000
,
0010
0000
0001
0000
0100
0000
0001
1000
0000
0000
0000
0000
0010
0000
0100
0000
,
0001
0000
0000
0000
1000
0000
0010
0100
0000
0000
1000
0100
0001
0000
1000
0000
,
0010
0100
0001
0010
0202
0303
1000
0100
,
0010
0000
0000
0000
0001
0000
1000
0010
0000
0000
0000
0100
0001
0000
1000
0000
,
0010
0000
0100
0000
0001
0000
0100
0002
0000
0000
0003
0000
0000
0000
0010
0000
,
0200
0000
0000
0000
0300
0000
0010
0000
0100
0000
0000
1000
0000
0000
0100
0000
,
0010
0000
0000
0010
0000
0000
0100
0000
0001
0010
1000
0000
0010
0000
0100
0000
,
0010
1000
0001
0010
0100
0010
0001
0100
0010
1000
0001
0010
0100
1000
0100
0010
,
0001
0010
0001
1000
0100
0010
0001
0010
0100
0010
0001
0100
0001
1000
0010
1000
,
0020
0000
0000
0000
0000
0000
0000
0030
,
0000
1000
0010
0100
0000
0001
0010
0100
,
0000
0000
0001
0000
1000
0000
0010
0000
0100
0000
0001
0100
1000
0000
0010
0000
,
0000
0100
1000
0001
0000
0010
0100
0001
,
0000
0000
0010
0000
1000
0000
0001
0000
0100
0000
0010
0001
1000
0000
0001
0000
,
0000
0100
0010
1000
0000
0001
0100
0010
,
0000
0000
0001
0000
0010
0000
0100
0000
1000
0000
0001
0100
0010
0000
0100
0000
,
0000
0000
0001
0000
1000
0000
0001
0000
1000
0000
0000
0010
0000
0000
0001
0000
,
0010
0000
1000
0001
0010
0000
0100
0000
,
0001
0010
0100
1000
0000
0010
0000
1000
,
0000
0010
0000
0010
1000
0001
0100
0010
,
1000
0000
0001
0010
0000
0100
0000
1000
,
0000
0001
0010
0200
0000
0000
0300
0000
,
0001
0000
0000
1000
0000
0000
0010
0000
1000
0000
0001
0000
0100
0000
0000
0000
,
0001
0000
0000
1000
0000
0000
0010
0000
0200
0000
0000
0000
0300
0000
0001
1000
,
0001
0000
0000
0100
0000
0000
0010
0000
1000
0000
0000
0100
0000
0000
0010
0000
,
0001
0000
0000
1000
0000
0000
0010
0000
0200
0000
0000
0000
0300
0000
0000
0000
,
0101
0000
0000
1010
0000
0000
1001
0000
0110
0000
0000
0000
0010
0100
1000
0100
,
0001
0000
1000
0000
0010
0000
0100
0001
0000
0000
0000
0000
0001
0000
0010
0000
,
0100
0000
0001
0000
1000
0000
0100
0001
1000
0000
0010
0000
0100
0000
1000
0000
,
0001
0000
0010
0000
1000
0000
0100
0010
0000
0000
0100
0000
0010
0000
1000
0000
,
0001
0000
1000
0000
0010
0000
0100
0000
0002
0000
0003
0000
1000
0000
0100
0010
,
0001
0000
0000
0000
0010
0000
0100
2000
0000
0000
3000
0000
0100
0000
0010
0000
,
1000
0000
0001
0000
0100
0000
0010
2000
0000
0000
0000
3000
0000
0000
1000
0001
,
0200
0000
0000
0300
0000
0000
0010
0000
0100
0000
1000
0001
0000
0000
0100
0010
,
1000
0000
0000
0010
0000
0000
0100
0000
0001
0010
1000
0000
0001
0000
1000
0000
,
0020
0000
0000
0000
,
0000
0000
0000
0000
0000
0000
0000
0030
,
0010
0100
0010
1000
0010
0100
0001
0100
0001
1000
0100
1000
0001
0010
0001
1000
,
0010
0100
0010
0100
0010
1000
0001
0010
0001
0100
0001
0100
0010
1000
0010
0100
,
0000
0001
1000
0010
0000
0100
0001
0010
,
0000
0000
0100
0000
1000
0000
0001
0000
0010
0000
0100
1000
0001
0000
1000
0000
,
0000
0010
0100
0001
0000
1000
0010
0100
,
0000
0000
0001
0000
0010
0000
0100
0000
0001
0010
1000
0100
0010
0001
0100
0000
,
0000
0001
1000
0010
0000
0100
0001
0010
,
0000
0100
1000
0001
0010
0100
0001
1000
,
0100
1000
0010
1000
0001
1000
0100
0010
0100
1000
0001
0010
0100
0010
0001
0100
,
0010
0100
0001
0010
0100
0010
0100
0010
0001
0100
0010
0100
0001
1000
0001
0100
,
0020
0000
0000
0000
0000
0030
0000
0000
0010
1000
0010
0100
0001
0010
0100
1000
,
0100
0000
0001
0000
0010
0000
0000
0000
1000
0000
0100
0010
0001
0000
0010
0000
,
0001
0000
0010
0000
0100
0000
1000
0000
0001
0000
0010
2000
0000
3000
0000
0000
,
0001
0000
1000
0000
0010
0000
0000
0000
0100
0000
0001
1000
0000
0000
0001
0000
,
0010
1000
0100
1000
0001
0010
0200
0300
,
0001
0000
0010
0000
2000
0000
3000
0000
0100
0000
0001
0100
0000
0000
0010
0000
,
0100
0000
1000
0000
0010
0000
0001
0000
0100
0000
0010
0200
0000
0300
0000
0000
,
0000
0000
1000
0001
0200
0000
0000
0000
0300
0000
0010
0000
0100
0000
1000
0001
,
0000
0000
0100
0010
1000
0000
0000
0010
0000
0000
0100
0000
0001
0010
1000
0100
,
0001
0000
0100
0000
0001
0000
0100
0010
0100
0000
0001
0100
0001
0000
1000
0100
,
1000
0000
0001
0100
0010
0000
0100
0010
1000
0000
0001
0100
0010
0000
1000
0001
,
0100
0000
0010
0100
1000
0000
0001
0000
0010
0000
1000
0000
0100
0000
0001
0000
,
0010
0000
1000
0000
0001
1000
0100
0010
0100
0010
0001
1000
0001
0010
0100
1000
,
0100
0010
0001
1000
0200
0000
0000
0000
0000
0000
0000
0000
0000
0000
0000
0000
,
0000
0000
0000
0000
,
0000
0000
0000
0300
;
